#VERSION:0.83;
#TITLE:Ultra Happy Miracle Bazoooooka!!;
#SUBTITLE:;
#ARTIST:Hino Isuka + Umeboshi Chazuke;
#TITLETRANSLIT:;
#SUBTITLETRANSLIT:;
#ARTISTTRANSLIT:;
#GENRE:;
#ORIGIN:;
#CREDIT:;
#BANNER:Ultra Happy Miracle Bazoooooka.png;
#BACKGROUND:Ultra Happy Miracle Bazoooooka-bg.png;
#PREVIEWVID:;
#JACKET:Ultra Happy Miracle Bazoooooka-jacket.png;
#CDIMAGE:;
#DISCIMAGE:;
#LYRICSPATH:;
#CDTITLE:;
#MUSIC:Ultra Happy Miracle Bazoooooka.ogg;
#OFFSET:0.532310;
#SAMPLESTART:38.902996;
#SAMPLELENGTH:9.599998;
#SELECTABLE:YES;
#BPMS:0.000=200.000,
67.000=400.000,
116.000=200.000,
128.000=400.000,
440.000=50.000,
440.500=100.000,
441.000=200.000,
514.000=400.000;
#STOPS:67.000=0.150,
440.000=1.200;
#DELAYS:;
#WARPS:;
#TIMESIGNATURES:0.000=4=4;
#TICKCOUNTS:0.000=4;
#COMBOS:0.000=1;
#SPEEDS:0.000=1.000=0.000=0;
#SCROLLS:0.000=1.000;
#FAKES:;
#LABELS:0.000=Song Start;
#BGCHANGES:;
#KEYSOUNDS:;
#ATTACKS:
;

//---------------dance-single - ----------------
#NOTEDATA:;
#CHARTNAME:;
#STEPSTYPE:dance-single;
#DESCRIPTION:;
#CHARTSTYLE:;
#DIFFICULTY:Challenge;
#METER:19;
#RADARVALUES:1.216306,1.837730,0.387741,0.210026,0.274650,1054.000000,1006.000000,48.000000,26.000000,0.000000,0.000000,0.000000,0.000000,0.000000,1.216306,1.837730,0.387741,0.210026,0.274650,1054.000000,1006.000000,48.000000,26.000000,0.000000,0.000000,0.000000,0.000000,0.000000;
#CREDIT:;
#NOTES:
0000
0000
0000
0000
,
0000
0000
0000
0000
,
0000
0000
0000
0000
,
0000
0000
0000
0000
,
0000
0000
0000
0000
,
0000
0000
0000
0000
,
0000
0000
0000
0000
,
0000
0000
0000
0000
,
0000
0000
0000
0000
,
0010
0000
1000
0000
0010
0000
0100
0000
0010
0000
1000
0100
0000
1000
0010
0000
,
0100
0000
0001
0000
0100
0000
0010
0000
1000
0000
0001
0010
0000
0100
0010
0000
,
0001
0000
0100
0000
0010
0000
0100
0000
0001
0000
0010
0100
0000
0010
0001
0000
,
1000
0000
0001
0010
0100
1000
0010
0100
0001
0000
0100
0000
0010
0000
1000
0000
,
0001
1000
0100
1000
0010
0100
0001
0010
,
1000
0010
0001
0100
0010
1000
0100
0001
,
0100
0010
0100
0010
0001
1000
0100
0010
0001
0000
0000
1100
0000
0000
0011
0000
,
0100
0100
0001
0001
1000
1000
0000
0000
,
2002
0000
3003
0000
0010
1000
0010
1000
,
0010
0100
0001
0100
0010
1000
0001
0100
,
0010
0000
1000
0000
0100
1000
0100
0010
,
0001
0000
0000
1010
0000
0000
0101
0000
,
0110
0000
0100
0001
0100
0010
1000
0001
,
1000
0010
0100
0001
0010
0001
0100
0010
,
1000
0001
0010
0100
1000
0001
0010
0001
,
1000
0000
0010
0000
1010
0000
0001
1000
,
0100
1000
0010
1000
0001
0100
0010
0100
,
0001
1000
0010
0100
0001
0100
0010
1000
,
0100
0010
0001
1000
0100
1000
0001
0010
,
0001
0100
0010
1000
0001
1000
0100
0010
,
0001
0000
1000
0000
0010
0000
1000
0000
0001
0000
1000
0100
0000
1000
0001
0000
,
0100
0001
0100
0000
0010
0000
1000
0001
1000
0000
0100
0010
0000
0001
0010
0000
,
0002
0000
0000
0000
1003
0010
1000
0010
1000
0000
0000
1100
0000
0000
0110
0000
,
0010
0100
1000
0100
0010
0001
1000
0001
,
0010
0100
1000
0010
1000
0001
0100
0001
,
1000
0010
0100
0001
1000
0001
0100
0010
,
1000
0010
0100
0001
0010
0100
1000
0001
,
0010
0100
0010
0001
0010
0001
0010
0100
,
1000
0010
1000
0100
,
2002
0000
3003
0000
0100
1000
0100
1000
,
0010
1000
0010
1000
0001
0100
0001
0100
,
0010
0000
0100
0001
0100
0000
0010
1000
,
0010
0000
0100
1000
0100
0000
0010
0001
,
0010
0100
1000
0100
0010
0001
1000
0100
,
0010
0000
0000
0101
0000
0000
1001
0000
,
0020
0000
1030
0000
1000
0010
1000
0100
,
0010
0001
0010
0001
1000
0000
0000
0000
,
0100
1000
0010
1000
,
0100
0000
1000
0010
0000
1000
0100
0000
,
0010
0000
0001
0100
0001
0000
0010
0000
,
1000
0010
0001
0100
,
0010
1000
0100
1000
,
0010
0000
1000
0100
0000
1000
0010
0000
,
1000
0000
0100
0010
0100
0000
0010
0000
,
0001
0000
1000
0001
1000
0001
1000
0001
,
0100
0001
0010
0001
,
0100
0000
0001
0010
0000
0001
0100
0000
,
0010
0000
1000
0100
1000
0000
0010
0000
,
0001
0010
1000
0100
,
0010
0001
0100
0001
,
0010
0000
0001
0100
0000
0010
1000
0000
,
0001
0000
1000
0100
1000
0100
0010
0001
,
0010
0000
0000
0110
0000
0000
1001
0000
,
0001
0100
0010
1000
,
0001
0000
0100
0010
0000
0100
0001
0000
,
0010
0000
0100
1000
0100
0000
0001
0000
,
0100
1000
0010
0100
,
0001
0010
0100
1000
,
0001
0000
0010
0100
0000
0010
0001
0000
,
0100
0000
0010
1000
0010
0000
1000
0000
,
0010
0000
0100
0001
0100
0001
0100
0001
,
0100
0000
0010
0100
0000
0001
0100
0000
,
0010
1000
0100
0010
0001
0010
0100
1000
,
0010
0000
1000
0100
0000
0010
0100
0000
,
0010
0100
1000
0001
0010
0100
1000
0010
,
0100
0000
0001
0100
0010
0000
1000
0100
,
0010
0000
0001
0010
0100
0000
0110
0000
,
0000
0110
1010
0110
,
0101
0000
0001
0100
0010
1000
0001
0100
,
0001
0100
0010
1000
0100
0000
1000
0100
,
0010
0001
1000
0100
0010
0000
0100
1000
,
0001
0010
0001
0100
0010
1000
0010
0100
,
0001
0010
0100
1000
0001
0010
0100
1000
,
0010
1000
0010
1000
0001
0100
0001
0100
,
0010
0100
0010
0100
0001
0100
0010
1000
,
0200
2300
3020
0230
,
0302
0000
0023
0000
0031
1000
0100
0010
,
0001
0010
0100
1000
0001
0000
1000
0100
,
0010
0001
1000
0100
0010
0000
0001
1000
,
0010
1000
0001
0100
0001
0010
0100
0010
,
0001
1000
0100
0010
0100
1000
0010
0100
,
0001
0100
0010
1000
0100
0010
0001
1000
,
0200
0300
0020
0030
0002
0003
2000
3000
,
0010
0000
1000
0100
1000
0100
1000
0100
,
0010
0000
0100
0010
0001
0010
0100
0010
,
0100
0010
0001
0010
0100
0000
1000
0100
,
0010
0100
0010
0001
1000
0000
0010
1000
,
0010
1000
0001
0100
0010
1000
0001
1000
,
0010
0100
0001
1000
0010
1000
0001
0100
,
0010
1000
0100
0010
0001
1000
0010
0100
,
0001
0100
0010
1000
0001
0010
0100
1000
,
0002
0023
2030
3020
,
0032
0000
2003
0000
3010
0100
0010
1000
,
0001
0100
0010
0100
0001
0000
0100
0010
,
1000
0010
0100
0010
1000
0000
0001
1000
,
0010
0100
0010
1000
0001
1000
0100
0010
,
0001
1000
0100
1000
0001
0010
0100
1000
,
0001
1000
0010
0100
0001
0100
0010
1000
,
0001
0010
0001
1000
0100
1000
0010
0100
,
0001
0010
0100
1000
0001
0010
0100
1000
,
0010
0100
0001
1000
0010
0100
0001
1000
,
0010
0000
0000
0000
0100
1000
0100
0010
0001
0000
1000
0000
0010
0000
1000
0000
,
0001
0000
0100
0010
0000
0100
0001
0000
0010
0000
0100
1000
0100
0000
1000
0000
,
0010
1000
0001
0100
0010
1000
0001
1000
,
0010
0000
0100
0001
0000
0100
0010
0000
1000
0000
0001
0010
0001
0000
1000
0000
,
0100
0001
0100
1000
0010
0100
0001
0100
,
0010
0000
1000
0100
0000
1000
0010
0000
0100
0000
0001
1000
0001
0000
0010
0000
,
0100
1000
0100
0010
0001
1000
0100
1000
,
0001
0000
1000
0100
0000
0010
0001
0000
0000
0000
0010
0001
0010
0000
0100
0000
,
1000
0010
1000
0010
1000
0001
0100
0010
1000
0000
0001
0000
0010
0000
0001
0000
,
1000
0000
0100
0010
0000
0100
1000
0000
0010
0000
0100
0001
0100
0000
0010
0000
,
1000
0100
0010
0001
0010
0100
1000
0100
,
0010
0000
0001
0100
0000
0001
0010
0000
0001
0000
0100
0010
1000
0000
0100
0000
,
0001
0000
0100
0000
1000
0000
0010
0000
1000
0000
0100
0010
0000
0100
1000
0000
,
0001
0010
0001
1000
0100
0010
0100
1000
0001
0000
0100
0010
0000
0100
0001
0000
,
1000
0010
0100
0001
1000
0100
0010
0001
1000
0000
0010
1000
0010
0000
0100
0001
,
0100
0000
0010
0100
0010
0000
1010
0000
0000
0000
1000
0000
0010
0000
0100
0000
,
0001
0000
0000
0000
0100
0010
1000
0100
0010
0000
0000
0000
0011
0000
0000
0000
,
1001
0000
0000
1100
0000
0000
1010
0000
0000
0000
0010
0100
0010
0000
1010
0000
,
1100
0000
0011
0000
0001
0100
0001
0100
0010
0000
0000
0000
1000
0000
0000
0000
,
0100
0000
1000
0000
0010
0000
0100
0001
,
0000
1000
0010
0000
1000
0000
0100
0010
,
0001
0000
0010
0000
0001
0000
0100
0010
,
0100
0010
0100
0010
1000
0000
0100
0000
,
0001
0000
0100
0000
1000
0000
0001
0100
,
0000
0010
1000
0000
0100
0000
0010
0001
,
0010
0001
0010
0100
,
1000
0010
0100
0001
,
1000
0000
0001
0000
0010
0000
0100
1000
,
0000
0001
0010
0000
0100
0000
0010
0001
,
0010
0100
0010
0100
0010
0000
0000
1100
,
0000
0011
0001
0100
,
0010
0000
0100
0000
0001
0000
1000
0010
,
0000
0100
0001
0000
1000
0000
0010
1000
,
0001
0100
1000
0100
,
0001
0010
0001
0010
0001
0000
0011
0000
,
0101
0110
1010
1001
,
1100
0000
0022
0000
0033
0000
0100
1000
,
0001
0010
0001
1000
0100
0010
0001
0100
,
0010
1000
0001
1000
0010
0000
1000
0001
,
1000
0000
0100
0000
0010
0001
0010
0100
,
1000
0100
0010
0001
0010
0000
0001
1000
,
0001
0000
0100
0000
0010
1000
0001
0100
,
0010
1000
0100
0010
0001
0000
1000
0100
,
1000
0000
0001
0010
0001
0000
1000
0010
,
1000
0101
0000
0101
,
0110
0000
1010
0000
1001
0000
1000
0100
,
0010
0001
1000
0100
0010
0000
0110
0000
,
1100
0000
1010
0110
,
0101
0000
1001
0000
0000
0000
0001
0010
,
0001
1000
0010
1000
0100
0010
0001
0010
,
0100
0000
2200
0000
,
0000
0000
0000
0000
,
0000
0000
3300
0000
;

//---------------dance-single - ----------------
#NOTEDATA:;
#CHARTNAME:;
#STEPSTYPE:dance-single;
#DESCRIPTION:;
#CHARTSTYLE:;
#DIFFICULTY:Hard;
#METER:18;
#RADARVALUES:1.037438,1.640831,0.557378,0.492754,0.197909,899.000000,830.000000,69.000000,61.000000,0.000000,0.000000,0.000000,0.000000,0.000000,1.037438,1.640831,0.557378,0.492754,0.197909,899.000000,830.000000,69.000000,61.000000,0.000000,0.000000,0.000000,0.000000,0.000000;
#CREDIT:;
#NOTES:
// measure 0
0000
0000
0000
0000
,  // measure 1
0000
0000
0000
0000
,  // measure 2
0000
0000
0000
0000
,  // measure 3
0000
0000
0000
0000
,  // measure 4
0000
0000
0000
0000
,  // measure 5
0000
0000
0000
0000
,  // measure 6
0000
0000
0000
0000
,  // measure 7
0000
0000
0000
0000
,  // measure 8
0000
0000
0000
0000
,  // measure 9
0100
0000
1000
0000
0100
0000
1000
0000
0100
0000
1000
0010
0000
0000
0100
0000
,  // measure 10
0001
0000
1000
0000
0001
0000
0010
0000
0100
0000
0010
0100
0000
0100
1000
0000
,  // measure 11
0010
0000
1000
0000
0010
0000
1000
0000
0010
0000
0100
0001
0000
0000
0010
0000
,  // measure 12
0001
0000
0010
0100
0010
0100
1000
0100
1000
0000
0100
0000
0010
0000
0001
0000
,  // measure 13
1000
0001
0100
0001
0010
0100
0010
0001
,  // measure 14
1000
0100
0010
0100
1000
0010
0100
0001
,  // measure 15
1000
0100
0010
0001
1000
0100
0010
0001
1000
0000
0000
1100
0000
0000
1010
0000
,  // measure 16
0010
1000
0001
0100
0001
1000
0000
0000
,  // measure 17
2020
0000
3030
0000
0010
1000
0010
0000
,  // measure 18
1000
0000
0100
0000
1000
0100
1000
0100
,  // measure 19
1000
0001
0010
0001
,  // measure 20
0011
0000
0000
0101
0000
0000
1010
0000
,  // measure 21
1001
0000
0100
1000
0100
0000
1000
0000
,  // measure 22
0010
0100
0010
1000
,  // measure 23
0010
1000
0010
0000
0100
0001
0100
0000
,  // measure 24
0010
0010
1010
1000
,  // measure 25
0001
1000
0001
0100
0001
0000
0010
0001
,  // measure 26
1000
0001
1000
0100
1000
0000
0010
0000
,  // measure 27
1000
0000
0001
0100
0010
0000
1000
0010
,  // measure 28
0100
0001
0010
0001
,  // measure 29
1000
0000
0000
0000
1010
0000
0000
0000
0110
0000
0000
1010
0000
0000
0101
0000
,  // measure 30
1000
0000
0001
0000
0010
0000
0100
0000
1000
0000
0010
1000
0000
1000
0001
0000
,  // measure 31
2000
0000
0000
0000
0000
0000
3001
0010
0001
0000
0000
0110
0000
0000
1100
0000
,  // measure 32
0010
1100
1001
0010
,  // measure 33
0001
1000
0010
1000
,  // measure 34
0010
0000
1000
0000
0001
0100
0010
0100
,  // measure 35
0010
0000
1000
0010
1000
0000
0001
1000
,  // measure 36
0001
0000
0010
0000
0100
1000
0100
0010
,  // measure 37
0001
0100
0010
0100
,  // measure 38
0102
0000
0000
0000
1003
0010
1000
0010
,  // measure 39
2000
0000
0000
0000
3001
0010
0001
0010
,  // measure 40
0001
0200
0320
2030
,  // measure 41
3200
0302
0203
2300
,  // measure 42
3010
0100
0001
0100
0010
1000
0001
0100
,  // measure 43
0010
0000
0000
1010
0000
0000
1100
0000
,  // measure 44
0002
0000
0000
0000
1003
0010
1000
0001
,  // measure 45
0100
0001
1000
0000
1001
0000
0000
0000
,  // measure 46
0010
1000
0001
0100
,  // measure 47
0010
0000
1000
0010
0000
0010
2000
0000
,  // measure 48
3000
0000
0100
1000
0100
0000
0010
0000
,  // measure 49
0001
1000
0001
0010
,  // measure 50
0100
1000
0001
0100
,  // measure 51
0001
0000
1000
0010
0000
0010
2000
0000
,  // measure 52
3000
0000
0010
0100
0010
0000
1000
0000
,  // measure 53
0100
0001
0100
1000
,  // measure 54
0001
0010
0100
0010
,  // measure 55
0001
0000
0100
0010
0000
0010
2000
0000
,  // measure 56
3000
0000
0010
1000
0010
0000
0100
0000
,  // measure 57
0001
0010
0001
1000
,  // measure 58
0100
0010
0001
0010
,  // measure 59
0100
0000
0010
0001
0000
0001
0200
0000
,  // measure 60
0310
0000
1000
0000
0100
0001
0100
0001
,  // measure 61
0100
0000
0000
1100
0000
0000
0101
0000
,  // measure 62
0100
0010
1000
0010
,  // measure 63
0100
0000
0001
0010
0000
0010
0100
0000
,  // measure 64
0010
0000
0001
0100
0001
0000
0010
0000
,  // measure 65
0100
1000
0010
1000
,  // measure 66
0100
1000
0010
0100
,  // measure 67
0001
0000
0100
0010
0000
0010
1000
0000
,  // measure 68
0001
0000
0100
0001
0100
0000
0010
0000
,  // measure 69
1000
0010
0001
0010
,  // measure 70
1000
0010
1000
0010
,  // measure 71
1000
0000
0100
1000
0100
0000
1000
0010
,  // measure 72
1000
0001
1000
0001
,  // measure 73
1000
0000
0001
0100
0001
0000
0010
0001
,  // measure 74
0020
0030
0000
0010
0200
0300
0000
0100
,  // measure 75
2000
3000
0000
1000
0010
0000
0110
0000
,  // measure 76
0000
0110
1010
0101
,  // measure 77
1001
0000
0010
1000
0001
1000
0010
1000
,  // measure 78
0010
1000
0001
1000
0000
0000
0001
0100
,  // measure 79
0001
1000
0001
0010
0000
0000
0001
0010
,  // measure 80
0001
0000
0010
0100
0010
0000
0100
1000
,  // measure 81
0100
1000
0020
1030
,  // measure 82
0010
1000
0001
1000
,  // measure 83
0100
1000
0100
0010
0001
0100
0001
0010
,  // measure 84
0002
2003
3200
2300
,  // measure 85
3020
0000
0032
0000
0013
0100
0010
0000
,  // measure 86
1000
0010
0100
0010
0000
0000
0010
0100
,  // measure 87
0001
0100
0010
1000
0000
0000
1000
0001
,  // measure 88
1000
0000
0100
0010
0001
0000
0100
0001
,  // measure 89
1000
0000
0010
1000
0001
1000
0100
0010
,  // measure 90
0001
0100
0010
1000
,  // measure 91
2200
3300
2200
3300
2002
3003
0022
0033
,  // measure 92
0000
0000
0000
0000
,  // measure 93
0000
0000
0010
0001
0010
0000
0001
1000
,  // measure 94
0001
0000
0100
0000
0110
0000
0010
1000
,  // measure 95
0010
0000
1000
0000
1001
0000
0100
1000
,  // measure 96
0100
0000
0010
0001
1000
0000
0010
1000
,  // measure 97
0001
0000
0100
0001
0100
0000
0010
0000
,  // measure 98
1000
0001
1000
0000
0001
0100
0001
0000
,  // measure 99
1000
0010
1000
0000
0100
0010
0100
0000
,  // measure 100
0020
0032
0203
0320
,  // measure 101
2030
0000
3002
0000
1003
0100
1000
0100
,  // measure 102
1000
0000
0010
0000
1001
0000
0001
0100
,  // measure 103
0001
0000
1000
0000
1010
0000
0010
1000
,  // measure 104
0010
0100
0001
0100
0010
1000
0001
1000
,  // measure 105
0200
0300
0020
0030
0002
0003
2000
3000
,  // measure 106
0010
1000
0010
0000
1000
0001
1000
0000
,  // measure 107
0001
0100
0001
0100
0010
1000
0010
1000
,  // measure 108
0002
0023
0230
2300
,  // measure 109
3002
0023
0230
2300
,  // measure 110
3001
0000
0000
0000
1000
0100
0010
0001
1000
0000
0100
0000
0010
0000
0100
0000
,  // measure 111
1000
0000
0010
1000
0000
0000
0001
0000
0000
0000
0100
0001
0100
0000
0010
0000
,  // measure 112
1000
0001
0010
0000
0001
0010
0001
0100
,  // measure 113
0001
0000
0010
0100
0000
0000
0010
0000
0000
0000
0001
0010
0001
0000
1000
0000
,  // measure 114
0100
0001
0100
1000
0010
0100
1000
0100
,  // measure 115
0010
0000
1000
0100
0000
0000
0010
0000
0000
0000
0100
1000
0100
0000
1000
0000
,  // measure 116
0010
0000
0001
0000
0010
0000
1000
0000
0020
0030
0000
0000
2000
3000
0000
0000
,  // measure 117
0010
0000
0000
1001
0000
0000
0101
0000
0000
0000
0001
0000
0100
0000
0010
0000
,  // measure 118
1000
0000
0001
0000
0010
0100
0010
0001
1000
0000
0100
0000
0010
0000
0001
0000
,  // measure 119
1000
0000
0001
0100
0000
0100
0010
0000
0000
0000
1000
0001
1000
0000
0001
0000
,  // measure 120
0100
0010
0100
0001
1000
0100
0010
0001
,  // measure 121
0010
0000
0001
1000
0000
1000
0100
0000
0000
0000
0100
0010
0100
0000
1000
0000
,  // measure 122
0001
0000
1000
0000
0100
0000
0010
0000
0001
0000
0000
1000
0000
0000
0010
0000
,  // measure 123
1000
0010
1000
0000
0001
0100
0001
0000
1000
0000
0000
0001
0000
0000
1000
0000
,  // measure 124
0001
0010
0001
0000
1000
0100
1000
0000
0010
0000
1000
0010
0100
0000
0010
0100
,  // measure 125
0001
0000
0100
0001
0010
0000
0100
0000
0000
0000
1100
0000
1010
0000
0101
0000
,  // measure 126
1001
0000
0000
0000
0001
0100
0010
1000
0001
0000
0000
0000
1010
0000
0000
0000
,  // measure 127
1100
0000
0000
1100
0000
0000
0011
0000
0000
0000
0001
0010
0001
0000
1000
0000
,  // measure 128
0001
0000
0010
0000
0100
1000
0100
1000
0100
0000
0000
0000
0001
0000
0000
0000
,  // measure 129
0010
0000
0001
0000
0100
0000
0010
1000
,  // measure 130
0000
1000
0020
0000
0030
0000
1000
0001
,  // measure 131
1000
0010
0100
0001
,  // measure 132
1000
0010
1000
0010
1000
0000
0100
0000
,  // measure 133
0010
0000
0100
0000
1000
0000
0001
0010
,  // measure 134
0000
0010
0002
0000
0003
0000
0100
0010
,  // measure 135
0100
0010
1000
0001
,  // measure 136
1000
0100
1000
0001
,  // measure 137
0010
0000
0001
0000
0100
0000
0010
1000
,  // measure 138
0000
1000
0001
0000
0202
0000
0303
0000
,  // measure 139
1000
0001
1000
0001
1000
0000
0000
1010
,  // measure 140
0000
0110
0101
0001
,  // measure 141
0100
0000
0001
0000
0010
0000
1000
0100
,  // measure 142
0000
0100
1000
0000
0010
0000
1000
0001
,  // measure 143
1000
0100
0010
1000
,  // measure 144
0010
0001
0010
0001
0010
0000
0010
0000
,  // measure 145
0100
0100
1100
1100
,  // measure 146
1010
0000
1010
0000
0000
0000
0001
1000
,  // measure 147
0001
1000
0001
1000
0010
1000
0010
1000
,  // measure 148
0001
0100
0001
0100
0010
0000
0100
0010
,  // measure 149
0000
1000
0010
0000
1000
0100
1000
0000
,  // measure 150
0001
0010
0001
0000
0100
0000
0010
0100
,  // measure 151
0000
0001
0100
0000
0010
1000
0001
0000
,  // measure 152
0100
0001
1000
0000
0010
0000
1000
0100
,  // measure 153
0010
0000
0100
0010
0001
0000
0010
0001
,  // measure 154
1000
1100
0000
1010
,  // measure 155
1001
0000
0101
0000
0011
0000
1000
0100
,  // measure 156
0010
0001
0100
0010
1000
0000
1100
0000
,  // measure 157
1001
0000
0001
0101
,  // measure 158
1001
1010
0000
1010
,  // measure 159
0110
1001
0011
0000
,  // measure 160
1100
0000
2002
0000
,  // measure 161
0000
0000
0000
0000
,  // measure 162
0000
0000
3003
0000
;

//---------------dance-single - ----------------
#NOTEDATA:;
#CHARTNAME:;
#STEPSTYPE:dance-single;
#DESCRIPTION:;
#CHARTSTYLE:;
#DIFFICULTY:Medium;
#METER:15;
#RADARVALUES:0.797408,1.378298,0.234260,0.193870,0.129247,691.000000,662.000000,29.000000,24.000000,0.000000,0.000000,0.000000,0.000000,0.000000,0.797408,1.378298,0.234260,0.193870,0.129247,691.000000,662.000000,29.000000,24.000000,0.000000,0.000000,0.000000,0.000000,0.000000;
#CREDIT:;
#NOTES:
0000
0000
0000
0000
,
0000
0000
0000
0000
,
0000
0000
0000
0000
,
0000
0000
0000
0000
,
0000
0000
0000
0000
,
0000
0000
0000
0000
,
0000
0000
0000
0000
,
0000
0000
0000
0000
,
0000
0000
0000
0000
,
1001
0000
0000
0000
1001
0000
0000
0000
0010
0000
0000
1000
0000
0000
0001
0000
,
0100
0000
0001
0000
0010
0000
0001
0000
0100
0000
0000
0010
0000
0000
1000
0000
,
1100
0000
0000
0000
0011
0000
0000
0000
1000
0000
0000
0100
0000
0000
0010
0000
,
0001
0000
0100
0001
0100
0000
0010
0000
1000
0000
1000
0000
0100
0000
0010
0000
,
0001
0100
1000
0100
0001
1000
0010
0001
,
0010
1000
0100
0010
0001
1000
0010
0100
,
0001
0000
1000
0010
1000
0000
0001
0100
0001
0000
0000
1000
0000
0000
0001
0000
,
1000
0010
0100
0010
1000
0100
0000
0000
,
0020
0000
0000
0000
0031
0100
0001
0000
,
1000
0000
0010
0000
1000
0010
1000
0000
,
0010
0010
0010
0000
,
0100
0000
0000
0001
0000
0000
0100
0000
,
0010
1000
0100
0010
,
0001
0010
0100
1000
,
0001
0100
0010
1000
,
0001
0001
0011
0000
,
0001
0000
1000
0000
0010
1000
0010
0000
,
1000
0000
0001
0000
0100
0001
0100
0000
,
0010
1000
0100
0010
,
0100
1000
0001
0010
,
0100
0000
0000
0000
0010
0000
0000
0000
0010
0000
0000
0001
0000
0000
1000
0000
,
0100
0000
1000
0000
0010
0000
1000
0000
0100
0000
0000
0011
0000
0000
0101
0000
,
0000
0000
0000
0000
0000
0000
1000
0100
1000
0000
0000
0010
0000
0000
0010
0000
,
1000
0100
0010
0100
,
0010
0001
0010
0100
,
1000
0010
1000
0100
,
0010
0001
0100
0010
,
0100
0000
0001
0000
1000
0010
1000
0010
,
1000
0100
0010
0001
,
1000
0000
0010
0000
1000
0010
1000
0000
,
0100
0000
1000
0000
0100
1000
0100
0000
,
0010
0001
0100
0001
,
0010
0001
1000
0100
,
0010
0001
0100
0010
,
1010
0000
0000
1001
0000
0000
0101
0000
,
0001
0000
0100
0000
0010
1000
0000
0010
,
1000
1000
1100
0000
,
0010
0000
1000
0000
,
0010
0000
1000
0010
1000
0000
0001
0000
,
0000
0001
0010
0000
,
0010
0100
0010
0000
,
0001
0100
0010
0000
,
1000
0000
0001
1000
0001
0000
0100
0000
,
0000
0100
0010
0000
,
1000
0010
1000
0000
,
1000
0000
0100
0000
,
0010
0000
0001
0010
0001
0000
0100
0000
,
0000
0100
0010
0000
,
1000
0001
1000
0000
,
0100
0000
1000
0000
,
0001
0000
0010
0100
0010
0000
0100
0000
,
0000
0100
1000
0100
,
0010
0001
0010
0100
,
1000
0010
1000
0000
,
0001
0000
0010
0001
0010
0000
0100
0000
,
0000
0100
1000
0001
,
1000
0010
1000
0000
,
0001
0100
0001
0000
,
0010
0000
0100
0010
0100
0000
1000
0000
,
0000
0010
1000
0001
,
0010
0100
1000
0100
,
0010
0000
0000
0001
0000
0000
0100
0000
,
0020
2030
3002
0203
,
0310
0000
0000
1000
0000
0000
0100
0000
,
0020
0032
2003
3200
,
0310
0000
0000
0010
0001
0000
0000
0001
,
0100
0000
0000
0100
0010
0000
1000
0000
,
0000
1000
0100
0010
,
0001
0000
0001
0010
0001
0000
1000
0100
,
1000
0000
0010
0000
0000
0000
0010
1000
,
0010
0000
0100
0000
0000
0000
0010
1000
,
0010
1000
0001
1000
,
1100
0000
2000
3010
,
0010
1000
0100
1000
,
0001
0010
0001
0100
,
0020
1000
0130
0200
,
0001
0000
0310
0000
1000
0000
0001
1000
,
0001
0000
0100
0000
0000
0000
0100
0010
,
0100
0000
0010
0000
0000
0000
0010
1000
,
0010
1000
0001
0100
,
0010
0001
0010
1000
,
0001
1000
0001
1000
,
0010
0010
0010
0010
,
0000
0000
0000
0000
,
0000
0000
1000
0010
1000
0000
0001
0100
,
0001
0000
1000
0000
0000
0000
0100
1000
,
0100
0000
0010
0000
0000
0000
0001
0010
,
0001
0100
0010
0100
,
0001
1000
0010
1000
,
0001
1000
0100
0010
,
0001
0100
0010
0100
,
0002
2003
3020
2030
,
3200
0000
0320
0000
0031
0000
1000
0100
,
1000
0000
0001
0000
0000
0000
0010
0001
,
0010
0000
0100
0000
0000
0000
0010
0001
,
0010
0100
0010
0100
,
1000
1000
1000
1000
,
0010
1000
0001
0100
,
0010
1000
0100
0010
,
0001
0010
0100
1000
,
0010
0100
0001
0010
,
0100
0000
0001
1000
,
0001
0000
0000
0100
0000
0000
0010
0000
0000
0000
0010
0000
1000
0000
0100
0000
,
0010
0001
0010
0100
1000
0000
0010
0000
,
1000
0000
0000
0001
0000
0000
0100
0000
0000
0000
0010
0000
0100
0000
0001
0000
,
0010
1000
0010
0001
0100
0000
0010
0000
,
0100
0000
0000
0001
0000
0000
1000
0000
0000
0000
1000
0000
0001
0000
1000
0000
,
0010
0100
0010
1000
0100
0000
1000
0000
,
0001
0000
0010
0001
0000
0001
0100
0000
0000
0000
0010
1000
0010
0000
1000
0000
,
0002
0000
1003
0000
0100
1000
0100
1000
0100
0000
0000
0000
0010
0000
0000
0000
,
0001
0000
0100
0001
0000
0100
0001
0000
0000
0000
1000
0000
0010
0000
1000
0000
,
0100
0010
0100
1000
0010
0000
1000
0000
,
0001
0000
1000
0100
0000
1000
0100
0000
0000
0000
0010
0000
0001
0000
0100
0000
,
1000
0000
0100
0000
0001
0000
1000
0000
0010
0000
0000
1000
0000
0000
0200
0000
,
0010
0000
0010
0000
0310
0000
0001
0000
0100
0000
0000
0001
0000
0000
0020
0000
,
0100
0000
0100
0000
0130
0000
0001
0000
1000
0000
0000
1000
0010
0000
0000
0010
,
0100
0000
0000
0100
0001
0000
1000
0000
0000
0000
1000
0000
0100
0000
0001
0000
,
0010
0000
1001
1001
,
1010
0000
0000
1010
0000
0000
0101
0000
0000
0000
0001
1000
0001
0000
1000
0000
,
0001
0000
1000
0000
0001
1000
0001
1000
0001
0000
0000
0000
0000
0000
0000
0000
,
1100
0000
0000
0000
0001
0000
1000
0010
,
1000
0001
0000
0001
,
0100
0000
0010
0100
,
0010
0000
1000
0000
,
0011
0000
0000
0000
0001
0000
0100
0001
,
0100
0001
0000
1000
,
0010
0000
0010
1000
,
0010
0000
0010
0000
,
1010
0000
0000
0000
0100
0000
1000
0100
,
1000
0010
0001
0010
,
1000
0000
0100
0000
0010
0000
0000
0011
,
0000
1001
0010
1000
,
0010
0000
0000
0000
1000
0000
0001
0010
,
0001
1000
0000
1000
,
0100
0000
0010
0001
,
0010
0001
0100
0100
,
0010
0010
1000
1000
,
0001
0000
0002
0000
0000
0000
1003
0010
,
1000
0000
0001
0010
0001
0000
1000
0100
,
1000
0001
0010
0001
0100
0000
0000
0010
,
0000
0000
1000
0000
0001
1000
0001
1000
,
0001
0000
0010
0000
0100
0000
0000
1000
,
0000
0000
0001
0000
1000
0100
1000
0100
,
1000
0000
0010
0000
1000
0000
0000
1000
,
0001
0000
0000
0001
0010
0000
0000
0010
,
0100
0110
0000
0010
,
0001
0000
1000
0000
0100
0000
1000
0100
,
0010
0001
1000
0100
0010
0000
0001
0000
,
0011
0000
0100
1000
,
1100
1001
0000
0010
,
1000
0001
1001
0000
,
0110
0000
2200
0000
,
0000
0000
0000
0000
,
0000
0000
3300
0000
;

//---------------dance-single - ----------------
#NOTEDATA:;
#CHARTNAME:;
#STEPSTYPE:dance-single;
#DESCRIPTION:;
#CHARTSTYLE:;
#DIFFICULTY:Easy;
#METER:12;
#RADARVALUES:0.530836,0.984499,0.185793,0.096935,0.024234,460.000000,437.000000,23.000000,12.000000,0.000000,0.000000,0.000000,0.000000,0.000000,0.530836,0.984499,0.185793,0.096935,0.024234,460.000000,437.000000,23.000000,12.000000,0.000000,0.000000,0.000000,0.000000,0.000000;
#CREDIT:;
#NOTES:
0000
0000
0000
0000
,
0000
0000
0000
0000
,
0000
0000
0000
0000
,
0000
0000
0000
0000
,
0000
0000
0000
0000
,
0000
0000
0000
0000
,
0000
0000
0000
0000
,
0000
0000
0000
0000
,
0000
0000
0000
0000
,
0001
0000
0000
0000
1000
0000
0000
0000
0001
0000
0000
0100
0000
0000
0100
0000
,
0010
0000
1000
0000
0010
0000
0000
0000
1000
0000
0000
0001
0000
0000
0001
0000
,
0010
0000
0000
0000
0100
0000
0000
0000
0010
0000
0000
0100
0000
0000
0100
0000
,
1000
0001
1000
0000
0001
0001
0100
0100
,
0010
0000
1010
0000
1000
0000
0001
0001
,
1000
1010
0010
1100
,
0010
0000
1000
0000
0001
0000
1000
0000
0001
0000
0000
1000
0000
0000
0100
0000
,
0020
0030
0000
0000
,
0000
0000
1001
0000
,
0010
1000
0010
0000
,
1000
0000
0100
0000
,
0010
0000
0000
0001
0000
0000
0001
0000
,
0100
0000
0010
0000
,
1000
0000
0001
1000
,
0001
0000
1000
0000
,
0110
0000
1001
0000
,
1000
0010
1000
0010
,
1000
0000
0001
0000
,
0100
0000
0001
0000
,
0010
0000
0100
0010
,
0100
1000
1010
0001
,
0100
0001
0100
0010
1000
0000
0100
0000
,
0020
0000
0000
0000
0000
0000
0000
0000
0031
0000
0000
0001
0000
0000
0001
0000
,
1000
0100
0010
0000
,
0001
0000
1000
0000
,
0010
0000
1000
0000
,
0100
0000
0010
0000
,
0001
1000
0001
0000
,
0100
0000
0010
0000
,
1010
0000
0200
0300
,
1001
0000
0020
0030
,
1000
0100
1000
0100
,
0010
0001
0010
0001
,
0100
0000
0010
0000
,
1000
0000
0000
0001
0000
0000
1000
0000
,
0002
0000
0010
0000
,
0013
0000
1100
0000
,
0001
0000
0100
0000
,
0001
0000
1000
0010
,
0000
0010
1000
0000
,
0100
0000
0010
0000
,
0001
0000
1000
0000
,
0001
0000
0010
0001
,
0000
0001
0100
0000
,
0010
0000
1000
0000
,
0100
0000
1000
0000
,
0100
0000
0010
0100
,
0000
0100
0010
0000
,
0001
0000
0100
0000
,
0010
0000
1000
0000
,
0001
1000
0001
0000
,
1100
0000
0010
0001
,
0010
0000
0010
0000
,
0100
0000
1000
0000
,
0001
0000
0001
1000
,
0000
1000
0010
0000
,
1000
0010
1000
0000
,
0001
0000
0100
0000
,
0001
0000
1000
0100
,
0000
0100
0010
0000
,
0001
0010
0001
0000
,
1000
0001
1000
0001
,
2000
0000
0000
0000
,
3010
0100
0010
0100
,
0020
0000
0000
0000
,
1030
0000
0100
0000
,
0010
0000
0010
0001
,
0000
0001
0100
0010
,
1000
0000
0000
0000
,
0010
1000
0000
0000
,
1000
0001
0000
0000
,
0001
0000
1000
0000
,
0010
0000
1000
0000
,
0001
0010
0001
0000
,
0100
0001
0100
0000
,
0010
0000
1000
0001
,
0000
0001
1000
0000
,
0100
0010
0000
0000
,
0010
0001
0000
0000
,
1000
0000
0100
0000
,
0010
0000
0001
0000
,
0100
0000
0010
0000
,
0100
0000
0100
0000
,
0100
0000
0000
0000
,
0000
0000
0000
0000
,
0010
1000
0000
1000
,
0001
1000
0000
1000
,
0100
0000
0010
0000
,
0001
0000
1000
0000
,
0010
0000
1000
0000
,
0001
0000
0100
0000
,
0010
0000
0100
0010
,
0000
0010
1000
0000
,
1000
0100
0000
0100
,
0010
0100
0000
0010
,
0001
0000
0010
0000
,
0100
0000
1000
0000
,
0010
0000
1000
0000
,
0100
0000
0010
0000
,
0001
0000
0100
0000
,
0010
0000
1000
0000
,
0001
0000
0010
1000
,
0010
0000
1000
0100
0000
0100
0010
0000
,
0001
0010
0001
0000
0100
0000
0001
0000
,
0100
0000
0010
1000
0000
1000
0001
0000
,
1000
0100
0010
0001
1000
0000
0010
0000
,
1000
0000
0001
0100
0000
0100
0001
0000
,
1000
0001
1000
0000
0001
0000
0010
0000
,
0001
0000
0000
1100
0000
0000
1010
0000
,
0010
0100
0010
0000
0010
0000
1000
0000
,
0100
1000
0001
0010
,
0100
0000
0010
0100
0010
0000
0001
0000
,
1000
0010
1000
0100
,
0010
0000
0100
1000
0100
0000
0010
0000
,
0001
1000
0001
1000
0001
0000
0100
0000
,
0010
1000
0010
1000
0010
0000
1100
0000
,
1010
0000
0010
0100
0000
0100
0010
1000
,
0001
0000
1000
1000
,
0100
0000
0000
0100
0000
0000
0010
0000
0000
0000
0010
0000
0010
0000
0000
0000
,
0001
1000
0001
0000
0100
0000
0000
0000
,
0001
0000
0100
0000
,
0010
1000
0000
1000
,
0010
0000
1000
0100
,
1000
0000
0100
0000
,
1000
0000
0100
0000
,
0010
0100
0000
0100
,
0010
0000
0001
1000
,
0001
0000
0100
0000
,
0001
0000
1000
0000
,
0010
1000
0010
0000
,
0100
0001
0100
0000
,
0010
0100
0010
0000
,
1000
0000
0001
0000
,
0001
1000
0000
1000
,
0001
0000
0010
0100
,
0010
0000
0001
1000
,
0001
1000
0001
1000
,
0001
1000
0000
0000
,
2000
0000
3020
0000
,
0230
0000
0310
0000
,
1010
0000
1000
0100
,
1000
0000
0010
0000
,
0011
0000
0001
0100
,
0001
0000
1000
0000
,
0101
0000
0011
0000
,
1100
1000
0000
1000
,
0001
0100
0010
0000
,
0110
0000
0010
1000
,
0010
0000
1000
0001
,
1000
0001
0000
0001
,
0010
0100
1000
0000
,
0011
0000
2002
0000
,
0000
0000
0000
0000
,
0000
0000
3003
0000
;

//---------------dance-single - ----------------
#NOTEDATA:;
#CHARTNAME:;
#STEPSTYPE:dance-single;
#DESCRIPTION:;
#CHARTSTYLE:;
#DIFFICULTY:Beginner;
#METER:6;
#RADARVALUES:0.319655,0.581611,0.169637,0.032312,0.000000,277.000000,256.000000,21.000000,4.000000,0.000000,0.000000,0.000000,0.000000,0.000000,0.319655,0.581611,0.169637,0.032312,0.000000,277.000000,256.000000,21.000000,4.000000,0.000000,0.000000,0.000000,0.000000,0.000000;
#CREDIT:;
#NOTES:
0000
0000
0000
0000
,
0000
0000
0000
0000
,
0000
0000
0000
0000
,
0000
0000
0000
0000
,
0000
0000
0000
0000
,
0000
0000
0000
0000
,
0000
0000
0000
0000
,
0000
0000
0000
0000
,
0000
0000
0000
0000
,
0010
0000
1000
0000
,
0001
0001
1000
0000
,
0100
0000
0010
0000
,
0001
0000
1000
1000
,
0010
0000
0100
0000
,
0010
0000
1000
0000
,
0001
1000
0001
1000
,
0002
0000
0003
0000
,
1001
0000
0000
0000
,
1000
0000
0000
0000
,
0001
0000
0010
0000
,
0001
0000
0001
0000
,
0001
0000
0000
0000
,
0100
0000
0000
0000
,
0010
0000
0100
0000
,
0010
0000
0010
0000
,
0010
0000
0000
0000
,
1000
0000
0000
0000
,
0001
0000
0000
0000
,
0010
0000
0000
0000
,
0100
0000
0010
0000
,
0001
1000
0001
1000
,
0001
0000
1001
0000
,
1000
0000
0000
0000
,
0010
0000
0010
0000
,
0010
0000
0000
0000
,
1000
0000
0000
0000
,
0100
0000
0000
0000
,
0010
0000
0010
0000
,
0010
0010
0000
0000
,
0001
0001
0000
0000
,
1000
0000
1000
0000
,
0001
0000
0001
0000
,
0100
0000
0010
0000
,
1000
0000
0001
0000
,
1001
0000
0000
0000
,
0000
0000
1001
0000
,
1000
0000
0100
0000
,
1000
0000
0000
0010
,
0000
0000
0010
0000
,
0100
0000
0000
0000
,
0100
0000
0010
0000
,
0100
0000
0000
0001
,
0000
0000
0001
0000
,
1000
0000
0001
0000
,
1000
0000
0010
0000
,
1000
0000
0000
0100
,
0000
0000
1000
0000
,
0010
0000
0000
0000
,
0010
0000
1000
0000
,
0001
0000
0000
0100
,
0000
0000
0100
0000
,
0010
0000
0100
0000
,
0001
0000
1000
0000
,
0001
0000
0000
0000
,
1000
0000
0100
0000
,
1000
0000
0010
0000
,
1000
0000
0010
0000
,
1000
0000
0000
0000
,
0001
0000
0100
0000
,
0001
0000
0010
0000
,
0200
0000
0000
0000
,
0310
0000
0010
0000
,
0002
0000
0000
0000
,
1003
0000
1000
0000
,
0001
0000
0001
0000
,
0010
0000
0010
0000
,
0100
0000
0000
0000
,
1001
0000
0000
0000
,
0000
0000
1100
0000
,
0000
0000
0101
0000
,
0000
0000
0011
0000
,
0011
0000
0000
0000
,
0010
0000
0000
0000
,
0100
0000
0000
0000
,
1000
0000
0000
0010
,
0000
0000
1000
0000
,
0000
0000
1001
0000
,
0000
0000
0110
0000
,
0000
0000
0110
0000
,
1001
0000
0000
0000
,
0001
0000
0000
0000
,
1000
0000
0000
0000
,
0010
0000
1000
0000
,
0010
0000
0000
0000
,
0010
0000
0010
0000
,
1000
0000
1000
0000
,
0001
0000
0001
0000
,
1001
0000
0000
0000
,
0100
0000
0010
0000
,
0100
0000
0000
0000
,
0010
0000
0001
0000
,
1000
0000
0001
0000
,
0100
0000
0100
0000
,
0010
0000
0010
0000
,
1000
0000
1000
0000
,
1001
0000
0000
0000
,
1000
0000
0000
0000
,
0001
0000
0000
0000
,
0001
0000
0100
0000
,
0010
0000
1000
0000
,
1001
0000
1000
0000
,
0001
0000
1000
0100
,
1000
0100
1000
0000
,
0010
0000
1000
0001
,
1000
0001
1000
0000
,
0001
0000
0010
0001
,
0010
0000
0100
0010
,
0100
0000
0000
0020
,
0000
0000
1030
0000
,
0001
0000
1000
0100
,
1000
0000
0010
0000
,
0100
0000
0001
1000
,
0001
0000
0010
0100
,
1000
0000
0100
0010
,
0001
0000
1000
1000
,
0001
0001
1000
0001
,
0010
0110
0000
0000
,
0000
0000
0000
0000
,
0000
0000
1000
0000
,
0000
0000
0010
0000
,
0000
0000
1000
0000
,
0001
0000
1000
0000
,
0010
0000
1000
0000
,
0000
0000
0001
0000
,
0100
0000
0010
0000
,
0100
0000
0010
0000
,
1000
0000
0001
0000
,
0000
0000
0010
0000
,
0000
0000
0100
0000
,
0000
0000
1001
0000
,
0000
0000
1000
0000
,
0000
0000
0010
0000
,
1000
0000
0010
0000
,
0000
0000
1000
0000
,
0100
0000
1000
0000
,
0001
0000
1000
0000
,
0001
0000
1000
0000
,
0000
0000
0010
0000
,
0000
0000
0100
0000
,
0001
0000
0100
0000
,
0000
0000
0010
0000
,
1000
0000
0100
0000
,
0000
0000
0010
0000
,
0001
0000
1000
0000
,
0100
0000
0010
0000
,
0010
0000
0110
0000
,
0000
0000
1001
0000
,
0000
0000
0100
0000
,
0000
0010
0000
0000
,
0010
0000
1000
0000
,
1001
0000
0000
0000
;
