#TITLE:Uh La La La;
#SUBTITLE:;
#ARTIST:DeejayTime & Alexia;
#TITLETRANSLIT:;
#SUBTITLETRANSLIT:;
#ARTISTTRANSLIT:;
#GENRE:;
#CREDIT:;
#BANNER:Uh La La La.png;
#BACKGROUND:Uh La La La-bg.png;
#LYRICSPATH:;
#CDTITLE:;
#MUSIC:Uh La La La.ogg;
#OFFSET:2.302967;
#SAMPLESTART:36.568439;
#SAMPLELENGTH:18.285713;
#LASTBEATHINT:2.225423;
#SELECTABLE:YES;
#BPMS:0.000000=105.000000
;
#STOPS:
;
#BGCHANGES:2.625=Uh La La La.avi=1.000=1=0=0=StretchNoLoop==CrossFade==,
99999=-nosongbg-=1.000=0=0=0 // don't automatically add -songbackground-
;
#KEYSOUNDS:;
#ATTACKS:;

//---------------dance-single - ----------------
#NOTES:
     dance-single:
     :
     Hard:
     11:
     0.454573,0.479868,0.068430,0.027372,0.424268,465.000000,455.000000,10.000000,4.000000,0.000000,0.000000,0.454573,0.479868,0.068430,0.027372,0.424268,465.000000,455.000000,10.000000,4.000000,0.000000,0.000000:
// measure 0
0000
0000
0000
0000
,  // measure 1
0000
0000
0000
0000
,  // measure 2
0000
0000
0000
0000
,  // measure 3
0000
0000
0000
0000
,  // measure 4
0000
0000
0000
0000
,  // measure 5
0010
0100
0010
0000
1000
0100
0010
0001
,  // measure 6
1000
0001
0100
0000
0001
0100
0010
1000
,  // measure 7
0100
0010
0100
0000
0010
0001
0100
0010
,  // measure 8
0000
0010
1000
0100
0000
0100
0010
0001
,  // measure 9
1000
0001
1000
0000
0001
0010
0100
1000
,  // measure 10
0001
1000
0100
0000
1000
0010
0100
0001
,  // measure 11
0000
0001
1000
0001
0010
0100
1000
0010
,  // measure 12
0100
0001
1000
0001
0010
0100
0100
0000
,  // measure 13
0010
0000
0000
0001
0000
0000
0001
0000
0000
1000
0000
0000
1000
0000
0001
1000
,  // measure 14
0001
0000
0000
1000
0000
0000
1000
0000
0000
0001
0000
0000
0001
0000
0001
0000
,  // measure 15
0010
0000
0000
0100
0000
0000
0100
0000
0000
0010
0000
0000
0010
0000
0100
0010
,  // measure 16
0100
0000
0000
0000
,  // measure 17
1001
0000
0000
0000
0001
0100
0000
0010
0000
0000
0010
0000
1000
0000
0010
0000
,  // measure 18
0100
0000
0001
0000
0001
0000
0010
0100
0000
0100
0000
0000
1000
0000
0001
0000
,  // measure 19
0010
0000
0001
0000
1000
0100
0000
0010
0000
0100
0000
0000
1000
0000
0001
0000
,  // measure 20
0010
0000
0001
0000
0100
0000
0100
0010
0000
0000
0010
0000
1000
0000
0001
0000
,  // measure 21
1001
0000
0000
0000
1000
0010
0000
0100
0000
0000
0100
0000
0001
0000
1000
0000
,  // measure 22
0010
0000
1000
0000
1000
0000
0001
0010
0000
0010
0000
0000
0001
0000
0100
0000
,  // measure 23
0001
0000
1000
0000
0001
0010
0000
0100
0000
0010
0000
0000
0010
0000
0001
0000
,  // measure 24
0100
0000
0000
0000
0000
0000
0000
0000
0000
0000
0000
0100
0010
0000
1000
0000
,  // measure 25
1010
0000
0000
0010
1000
0000
0001
0000
0100
0010
0000
0010
0100
0000
0001
0000
,  // measure 26
1000
0100
0000
0100
1000
0000
0001
0000
0010
0100
1000
0000
0100
0000
0010
0000
,  // measure 27
0001
0010
0000
0010
0001
0000
1000
0000
0010
0100
0000
0100
0010
0000
1000
0000
,  // measure 28
0001
0100
0000
0100
0001
0000
0010
0000
0100
1000
0001
0000
0010
0000
0100
0000
,  // measure 29
1000
0010
0000
1000
0010
0000
1000
0000
0001
0010
0000
0001
0010
0000
0100
0000
,  // measure 30
1000
0001
0000
1000
0001
0000
0100
0000
0010
1000
0001
0000
1000
0000
0100
0000
,  // measure 31
0010
0001
0000
0010
0001
0000
1000
0000
0010
1000
0000
0010
1000
0000
0100
0000
,  // measure 32
0010
0100
0000
0010
0100
0000
1000
0000
0001
0100
0010
0000
1000
0000
0010
0000
,  // measure 33
0100
0000
0000
0001
0000
0000
0001
0000
1000
0000
0001
0000
0010
0000
0100
0000
,  // measure 34
1000
0000
0000
0010
0000
0000
0010
0000
1000
0000
0010
0000
0100
0000
0001
0000
,  // measure 35
0010
0000
0000
0100
0000
0000
0100
0000
0010
0000
0001
0000
0100
0000
0010
0000
,  // measure 36
1000
0000
0000
0001
0000
0000
0001
0000
0000
0000
0000
0000
0000
0000
0000
0000
,  // measure 37
0010
0000
0000
1000
0010
0000
1000
0000
0001
0000
1000
0000
0100
0000
0010
0000
,  // measure 38
0001
0000
0000
1000
0001
0000
0100
0000
0010
0000
0100
0000
0010
0000
1000
0000
,  // measure 39
0100
0000
0000
0010
0001
0000
0010
0000
0100
0000
1000
0000
0010
0000
0100
0000
,  // measure 40
0001
0000
0000
1000
0001
0000
1000
0000
0010
0100
0010
0000
0010
0000
1000
0000
,  // measure 41
0001
0000
0000
0100
0000
0000
0100
0000
0000
0010
0000
0000
0010
0000
1000
0001
,  // measure 42
1000
0000
0000
0100
0000
0000
0100
0000
0000
0010
0000
0000
0010
0000
0001
0000
,  // measure 43
1000
0000
0000
0001
0000
0000
0010
0000
0000
0100
0000
0000
0100
0000
1000
0001
,  // measure 44
1000
0000
0000
0000
,  // measure 45
0120
1000
0230
0001
,  // measure 46
0310
0000
1000
0000
0100
0000
0010
0000
0001
1000
0001
1000
0000
0000
0100
0100
,  // measure 47
0010
0000
0000
0010
0001
1000
0000
1000
0000
0000
0010
0000
1010
0000
0001
0000
,  // measure 48
0100
0000
0010
0000
0010
0000
0100
0001
0000
0001
0000
0000
1000
0000
0001
0000
,  // measure 49
0010
0000
0100
0010
0100
1000
0000
0001
0000
0001
0000
0000
0011
0000
1000
0000
,  // measure 50
0100
0000
0010
0000
0100
0000
0100
1000
0000
1000
0000
0001
1000
0000
0010
0000
,  // measure 51
1010
0000
0000
0010
1000
0001
0000
0001
0000
0000
0100
0000
0101
0000
1000
0000
,  // measure 52
0010
0000
0100
0000
0100
0000
0010
1000
0000
0000
1000
0000
0100
0000
0010
0000
,  // measure 53
0001
0000
1000
0001
1000
0100
0000
0010
0000
0010
0000
0000
0011
0000
1000
0000
,  // measure 54
0001
0000
0000
0000
0100
0000
0000
0000
0010
0000
0000
1000
0000
0000
1000
0000
0000
0000
0010
0000
0000
0000
0010
0000
1000
0000
0000
0000
0010
0000
1000
0000
,  // measure 55
0001
0000
0100
0001
1000
0010
0000
0010
0000
0000
1000
0000
0001
0000
0001
1000
,  // measure 56
0001
0000
0010
0100
0010
0000
0001
0000
1000
0100
0000
0100
1000
0000
0010
0000
,  // measure 57
0100
0001
0000
0001
0100
0000
0010
0000
1000
0001
1000
0000
0100
0000
0010
0000
,  // measure 58
0001
0010
0000
0010
0001
0000
1000
0000
0010
1000
0000
1000
0010
0000
0100
0000
,  // measure 59
0001
1000
0000
1000
0001
0000
0010
0000
0100
1000
0001
0000
0100
0000
0010
0000
,  // measure 60
1000
0001
0000
1000
0001
0000
0100
0000
0010
1000
0000
0010
1000
0000
0100
0000
,  // measure 61
0010
0001
0000
0010
0001
0000
0100
0000
0001
0010
0100
0000
1000
0000
0010
0000
,  // measure 62
0100
0001
0000
0100
0001
0000
1000
0000
0010
1000
0000
0010
1000
0000
0001
0000
,  // measure 63
2002
0000
0000
3003
;

//---------------dance-single - ----------------
#NOTES:
     dance-single:
     :
     Medium:
     8:
     0.253192,0.258667,0.054744,0.054744,0.003422,259.000000,251.000000,8.000000,8.000000,0.000000,0.000000,0.253192,0.258667,0.054744,0.054744,0.003422,259.000000,251.000000,8.000000,8.000000,0.000000,0.000000:
0000
0000
0000
0000
,
0000
0000
0000
0000
,
0000
0000
0000
0000
,
0000
0000
0000
0000
,
0000
0000
0000
0000
,
0010
0000
1000
0000
0001
0000
1000
0001
,
0000
0000
0001
0000
0100
0000
0010
1000
,
0000
0000
1000
0000
0100
0000
0010
0100
,
0000
0100
0010
0001
,
1001
0000
1000
0000
0010
0000
0100
0010
,
0000
0000
0010
0000
0100
0000
0001
0010
,
0000
0000
0010
0000
0001
0000
1000
0100
,
0000
0100
1000
0010
,
2000
0100
0100
3001
,
0010
0001
0010
0001
0000
0000
1000
0000
,
0002
0010
0010
1003
,
1001
0000
0000
0000
,
0001
0000
1000
0100
0001
0000
0100
0000
,
1000
0010
1000
0001
,
0010
0000
0100
0010
0001
0000
0100
0000
,
0010
1000
0100
1000
,
1000
0000
0001
0100
1000
0000
0100
0000
,
0001
0010
0100
0010
,
0001
0000
1000
0010
0100
0000
0001
0000
,
1000
0000
0000
0000
,
0001
0000
0010
0100
0010
0000
0001
0000
,
1000
0000
0100
0010
0100
0010
0100
0000
,
1000
0000
0010
1000
0010
0000
0100
0000
,
0001
0000
1000
0001
1000
0001
1000
0000
,
0010
0000
0100
0001
0100
0000
0001
0000
,
0010
0000
0100
1000
0100
1000
0100
0000
,
0010
0000
0001
1000
0100
0000
0010
0000
,
0001
0000
1000
0010
0100
0001
1000
0000
,
0001
0000
0010
0000
0100
0000
0010
0100
,
0010
0000
1000
0000
0010
0000
0100
0010
,
0100
0000
0001
0000
1000
0000
0010
1000
,
0001
0000
0000
0000
,
1000
0000
0010
0000
1000
0001
1000
0000
,
0100
0000
0010
0000
0001
1000
0001
0000
,
0100
0010
0100
0001
,
1000
1010
1000
0101
,
0020
0001
0001
0130
,
1000
0010
1000
0010
0000
0000
0100
0000
,
0020
1000
1000
0130
,
1001
0000
0000
0000
,
0020
0000
0032
0000
,
2003
0000
0000
0000
3200
0000
0000
0000
0310
0000
0010
0000
0000
0000
0001
1000
,
0001
0000
0100
0100
0100
0000
0010
0000
,
1000
0001
0010
0001
,
1000
0000
0010
0010
0010
0000
1000
0000
,
0100
0000
0010
0001
1000
0000
0100
0000
,
1000
0000
0001
0001
0001
0000
0100
0000
,
0010
1000
0001
0010
,
0001
0000
1000
1000
1000
0000
0010
0000
,
1001
0000
0000
0000
,
0000
0000
0000
0000
0000
0010
0010
0000
,
1001
0000
0100
0000
0001
1000
0001
0000
,
1000
0000
0010
0000
1000
0010
1000
0000
,
0100
0000
0010
0000
0001
1000
0001
0000
,
0100
0000
0010
0000
1000
0001
1000
0000
,
0100
0000
0010
0000
0001
1000
0001
0000
,
0010
0000
0100
0000
1000
0010
1000
0000
,
0100
0000
0010
0000
0001
0100
0010
0000
,
1001
0000
0000
0000
;

//---------------dance-single - ----------------
#NOTES:
     dance-single:
     :
     Easy:
     4:
     0.184762,0.215556,0.061587,0.000000,0.000000,189.000000,180.000000,9.000000,0.000000,0.000000,0.000000,0.184762,0.215556,0.061587,0.000000,0.000000,189.000000,180.000000,9.000000,0.000000,0.000000,0.000000:
0000
0000
0000
0000
,
0000
0000
0000
0000
,
0000
0000
0000
0000
,
0000
0000
0000
0000
,
0000
0000
0000
0000
,
0010
0000
1000
0010
,
0001
0000
0001
0010
,
1000
0000
0100
0000
,
0010
0001
0010
0100
,
1000
0000
0010
1000
,
0001
0000
0100
0100
,
0010
0000
1000
0000
,
0001
0000
0010
0100
,
0010
0000
0001
0000
,
1000
0000
0010
0000
,
1000
0000
0010
0000
,
0100
0100
0100
0000
,
1001
0001
1000
0000
,
0010
1000
0001
1000
,
0100
0010
0100
0010
,
0001
0001
0001
0000
,
1001
1000
0001
0000
,
0100
0010
0100
0001
,
1000
0010
1000
0010
,
0100
0000
0000
0000
,
1000
0100
0010
0001
,
1000
0001
0100
0100
,
0010
1000
0001
0010
,
0100
1000
0010
0010
,
1000
0001
0100
0010
,
1000
0100
0010
0010
,
0001
1000
0100
1000
,
0010
0100
0001
0001
,
1000
0000
0010
1000
,
0010
0000
1000
0001
,
1000
0000
0001
0100
,
0001
0000
1000
0000
,
0001
0001
1000
0000
,
0010
0010
1000
0000
,
1000
1000
0100
0000
,
1000
1000
0010
0000
,
1000
0000
0001
0000
,
0010
0000
0100
0000
,
0100
0000
0010
0000
,
0110
0000
0000
0000
,
0011
0000
1100
0000
,
1000
1000
0010
0000
,
0110
0010
0100
0000
,
0010
0100
0001
1000
,
0100
0010
0100
0010
,
0001
0001
0001
0000
,
0110
0100
0010
0000
,
0001
0100
0001
1000
,
0010
0100
0010
0100
,
0110
0000
0000
0000
,
0000
0000
0000
0000
,
1000
0001
0010
0100
,
1000
0010
0100
0100
,
0010
1000
0100
0010
,
0001
0100
0010
0010
,
1000
0001
0010
0001
,
1000
0100
0010
0010
,
0001
1000
0010
0100
,
1001
0000
0000
0000
;

//---------------dance-single - ----------------
#NOTES:
     dance-single:
     :
     Beginner:
     1:
     0.121219,0.150889,0.075273,0.000000,0.000000,124.000000,113.000000,11.000000,0.000000,0.000000,0.000000,0.121219,0.150889,0.075273,0.000000,0.000000,124.000000,113.000000,11.000000,0.000000,0.000000,0.000000:
0000
0000
0000
0000
,
0000
0000
0000
0000
,
0000
0000
0000
0000
,
0000
0000
0000
0000
,
0000
0000
0000
0000
,
0010
0000
1000
0000
,
0001
0000
0001
0000
,
0010
0000
0001
0000
,
1000
0000
1000
0000
,
1001
0000
0100
0000
,
0100
0000
0010
0000
,
0010
0000
1000
0000
,
0001
0000
1000
0000
,
1000
0000
0000
0000
,
0001
0000
0000
0000
,
1000
0000
0000
0000
,
0001
0000
0000
0000
,
0010
0010
0010
0000
,
1000
0000
0100
0000
,
0010
0010
0010
0000
,
0001
0000
1000
0000
,
0100
0100
0100
0000
,
1000
0000
0010
0000
,
0100
0100
0100
0000
,
0001
0000
0000
0000
,
0110
0000
0010
0000
,
1000
0000
0100
0000
,
0110
0000
0100
0000
,
0010
0000
0001
0000
,
1001
0000
0010
0000
,
1000
0000
0001
0000
,
1001
0000
0100
0000
,
0001
0000
1000
0000
,
1000
0000
0010
0000
,
0010
0000
0100
0000
,
0100
0000
0001
0000
,
0001
0000
0000
0000
,
1000
0000
0001
0000
,
0001
0000
0010
0000
,
0010
0000
0100
0000
,
0100
0000
1000
0000
,
0001
0000
0000
0000
,
1000
0000
0000
0000
,
0010
0000
0000
0000
,
0100
0000
0000
0000
,
0010
0000
0010
0000
,
0100
0100
0100
0000
,
1001
0000
1000
0000
,
0010
0010
0010
0000
,
1000
0000
0001
0000
,
0100
0100
0100
0000
,
0110
0000
0010
0000
,
1000
1000
1000
0000
,
0100
0000
0010
0000
,
0001
0000
0000
0000
,
0000
0000
0000
0000
,
1001
0000
1000
0000
,
0010
0000
1000
0000
,
1001
0000
0001
0000
,
0100
0000
0001
0000
,
0110
0000
0100
0000
,
0010
0010
0010
0000
,
1000
0000
0001
0000
,
1001
0000
0000
0000
;
