#VERSION:0.83;
#TITLE:Twelve;
#SUBTITLE:;
#ARTIST:Venetian Snares;
#TITLETRANSLIT:;
#SUBTITLETRANSLIT:;
#ARTISTTRANSLIT:;
#GENRE:;
#ORIGIN:;
#CREDIT:;
#BANNER:Twelve.png;
#BACKGROUND:Twelve-bg.png;
#PREVIEWVID:;
#JACKET:Twelve-jacket.png;
#CDIMAGE:;
#DISCIMAGE:;
#LYRICSPATH:;
#CDTITLE:;
#MUSIC:Twelve.ogg;
#OFFSET:0.023209;
#SAMPLESTART:8.790288;
#SAMPLELENGTH:14.634147;
#SELECTABLE:YES;
#BPMS:0.000=164.000,
77.000=328.000,
143.000=164.000,
166.000=328.000,
208.000=164.000,
215.000=328.000,
388.000=164.000,
412.000=328.000,
457.000=164.000,
463.000=328.000,
501.000=164.000,
504.000=328.000,
512.000=164.000,
522.500=163.400;
#STOPS:;
#DELAYS:;
#WARPS:;
#TIMESIGNATURES:0.000=4=4;
#TICKCOUNTS:0.000=4;
#COMBOS:0.000=1;
#SPEEDS:0.000=1.000=0.000=0;
#SCROLLS:0.000=1.000;
#FAKES:;
#LABELS:0.000=Song Start;
#BGCHANGES:0.500=twelve.avi=1.000=0=0=1=Centered====,
99999=-nosongbg-=1.000=0=0=0 // don't automatically add -songbackground-
;
#KEYSOUNDS:;
#ATTACKS:
;

//---------------dance-single - ----------------
#NOTEDATA:;
#CHARTNAME:;
#STEPSTYPE:dance-single;
#DESCRIPTION:;
#CHARTSTYLE:;
#DIFFICULTY:Challenge;
#METER:18;
#RADARVALUES:0.925247,1.350616,0.383538,0.405248,0.173678,895.000000,842.000000,53.000000,56.000000,0.000000,0.000000,0.000000,0.000000,0.000000,0.925247,1.350616,0.383538,0.405248,0.173678,895.000000,842.000000,53.000000,56.000000,0.000000,0.000000,0.000000,0.000000,0.000000;
#CREDIT:Daniel Van Eden;
#NOTES:
0000
0000
0000
0000
,
0000
0000
0000
0000
,
0000
0000
0000
0000
0000
0000
0000
0000
1001
0000
0000
0000
0000
0000
0001
0010
,
0001
0000
2000
0000
3000
0000
0010
0000
0100
0000
0100
0000
0001
0000
0000
0001
,
1000
0000
0000
0000
0100
0010
0100
0000
1000
0000
0001
0010
0001
0000
1000
0001
,
0100
0000
0010
0000
1000
0010
1000
0100
0010
0000
0100
0010
0001
0000
0101
0000
,
0001
1000
1000
0020
0000
0230
0301
0010
,
0100
0100
0010
0002
1003
0000
0200
0300
,
0010
0100
0100
1000
0000
1000
0002
1003
,
0010
0000
1000
0000
0100
0000
1000
0001
0010
0000
0001
0010
0001
0010
0100
1000
,
0000
1000
0010
1000
0001
0100
0010
1000
0100
0000
0000
0000
0110
0000
0010
0000
,
0001
0100
1000
1000
1000
0011
0000
0101
,
0000
1000
0100
1000
0200
0301
0100
0010
,
0010
0000
0001
0000
1000
0000
0001
0000
2000
0000
0000
0000
3001
0000
0100
0010
,
0100
0001
0010
0100
0010
0000
0011
0000
1001
0000
0000
0000
2000
0000
0000
0000
,
3010
0000
0000
0000
0100
0000
0001
0000
0101
0000
0000
0001
1000
0010
1000
0000
,
0001
1000
1010
0110
0110
0100
0001
1001
,
0010
0000
0000
0000
0000
0000
0000
0000
0000
0000
0000
0000
1010
0000
0000
0000
0000
0000
0000
0000
0000
0000
0000
0000
0000
0000
0000
0000
0000
0000
0000
1000
0000
0000
0000
0000
0000
0100
0000
0000
0000
0000
0000
0001
0000
0000
0000
0000
,
0000
2002
0000
0000
0000
0000
0000
0000
,
3003
0000
1010
0000
0010
1000
0001
0010
,
0100
0010
0001
1000
0100
0000
0100
0010
,
0100
0010
0100
0000
1000
0001
0100
0000
,
0001
1000
0100
0010
0001
0000
1001
0000
,
0001
1000
0100
0000
0020
0000
0130
1000
,
0001
0000
0001
1000
0010
1000
0001
0000
,
0100
0010
1000
0100
0001
0100
1000
0100
,
0001
0100
1000
0000
0001
0010
0100
1000
,
0010
0100
0001
0001
2000
0000
3001
0000
,
0100
0020
0000
0030
1000
0001
1000
0001
,
0200
0300
1001
1100
,
0100
0000
0011
0000
0010
0100
1000
0100
,
0010
0000
0001
1000
0001
0100
0010
0000
,
1000
0000
0001
1000
0100
0010
0001
0010
,
0001
0010
0100
0000
1000
0000
1100
0000
,
1000
0010
0001
0010
1000
0000
0001
0100
,
0001
0100
0010
1000
0100
0010
0002
0000
,
0000
0000
0000
0000
,
0003
0000
0000
0000
0000
0000
0100
0001
0010
0100
1000
0001
0100
1000
0100
0000
,
0001
0000
0010
0000
1010
0000
1010
0000
0001
1000
0001
0000
0100
0000
0010
0100
,
0001
0000
0010
0100
0010
0000
0010
0001
1000
0001
0010
0000
0100
0000
1000
0010
,
1000
0001
0100
0000
0100
0001
1000
0010
1000
0000
0001
0000
0001
0000
1000
0100
,
1000
0001
0010
0100
1000
0100
0010
0000
1001
0000
0000
0000
0100
0000
0000
0000
,
0101
0000
0100
0001
0010
0100
0010
0000
,
0010
0100
1000
0000
1010
0000
0010
1000
,
0001
0100
0002
0023
0230
2300
3002
0103
,
0010
0000
0001
0000
0001
1000
0010
1000
,
0001
0000
0100
0010
0100
0010
0100
0010
,
1000
0000
0001
1000
0001
0010
0100
0000
,
0010
0001
0010
0001
1000
0000
0001
0000
,
0011
0000
0010
0100
1000
0001
0010
0000
,
0001
0000
1000
0010
1000
0000
0001
0100
,
0001
0000
1000
0100
1000
0100
0010
0000
,
0022
0000
0000
0000
0000
0000
0000
0033
,
0000
0000
0000
0000
0000
0000
0000
0000
1000
0100
0010
0001
1000
0000
0000
0000
,
0001
0000
0101
0000
0100
0001
0100
0001
,
1000
0000
0010
1000
0010
1000
0001
0000
,
0001
0010
0100
1000
0100
1000
0100
1000
,
0020
0000
1030
0000
0001
1000
0010
0000
,
0010
1000
0001
0100
0001
0000
0011
0000
,
0110
0000
1100
0000
0010
1000
0001
0100
,
1000
0100
0001
1000
0100
0000
0110
0000
,
0010
0000
0001
0001
1000
0010
1000
0100
,
0010
0100
0010
0001
1000
0001
1000
0010
,
0100
0010
0100
1000
0100
0010
1000
0100
,
0010
0001
0010
1000
0010
0001
1000
0001
,
0100
1000
0100
1000
0100
1000
0100
0001
,
0010
1000
0010
0001
1000
0001
0100
0010
,
1000
0000
0100
0010
0001
0000
1001
0000
,
1000
0001
0010
0000
0011
0000
1000
0100
,
1000
0000
0100
0010
0001
0010
0100
0000
,
0010
0100
0010
0001
1000
0100
0010
0001
,
0010
0100
0010
0000
0100
1000
0001
1000
,
0001
0100
0010
0100
0001
0000
0001
0000
,
1000
0010
1000
0001
1000
0100
1000
0001
,
0100
0001
1000
0010
1000
0001
0100
0000
,
0010
1000
0010
0100
0001
0000
0010
0001
,
0010
0100
1000
0100
1000
0000
1000
0001
,
1000
0001
0010
0100
0010
1000
0010
0001
,
1000
0010
0100
0000
0010
0001
0000
0010
,
1000
0000
0100
0000
0100
0000
1000
0100
,
0010
0100
0010
0001
1000
0010
1000
0100
,
0010
0100
0010
0001
0010
0001
1000
0000
,
0001
0000
0100
0000
0001
1000
0100
0010
,
0100
0000
0010
0100
0010
0001
1000
0000
,
0010
0000
1000
0000
0200
0000
0310
0001
,
0100
0010
1000
0000
0001
0000
0010
0001
,
1000
0100
1000
0001
0010
0000
0001
0010
,
0100
0010
0100
0010
0100
0010
0001
1000
,
0020
0000
0230
0000
0301
1000
0100
0000
,
0010
0001
0010
0001
1000
0000
1000
0010
,
1000
0000
0001
0100
0001
0100
0010
0000
,
1000
0000
0100
0010
0002
0000
0203
0000
,
0310
1000
0100
1000
0010
1000
0010
1000
,
0010
0100
0001
1000
0001
1000
0001
0000
,
0100
0010
1000
0010
0100
0000
0002
0000
,
0013
2000
3100
0010
,
0100
0010
0100
0000
1000
0010
1000
0000
,
2020
0000
0000
3030
,
0000
0002
0000
0000
0000
0000
0000
0003
,
0000
0000
0110
0000
,
0000
0000
0000
2000
0000
0000
0000
0000
,
0000
0000
0000
3000
0000
0000
0000
0000
,
0000
0000
0000
0000
,
0020
0000
0030
1001
,
0010
1000
0001
0000
0100
0001
0100
0010
,
1000
0000
0100
1000
0100
0010
0001
1000
,
0100
1000
0001
0010
0100
0010
0001
0000
,
1000
0100
1000
0000
0001
0000
0101
0000
,
0010
0100
0010
1000
0001
0000
0100
0010
,
0100
0001
1000
0000
0001
0010
0001
1000
,
0001
0010
0100
0000
0010
0100
1000
0000
,
0100
1000
0001
0000
0001
1000
0100
1000
,
0001
0000
1000
0010
0100
0001
1000
0000
,
0110
0000
0100
0001
0100
0010
1000
0001
,
1000
0010
0200
0000
0000
0000
0000
0000
,
0300
0002
0003
1000
,
0001
0100
0001
0000
1000
0010
1000
0000
,
0100
0010
0001
0010
0100
0000
1000
0010
,
1000
0001
0100
0010
0100
0001
0010
1000
,
0010
0001
0100
0010
1000
0100
1000
0000
,
0010
0000
0110
0000
0010
0100
0001
0100
,
0010
0000
0010
1000
0001
1000
0100
1000
,
0010
0100
0001
0010
0100
0010
0001
0000
,
1000
0001
1000
0000
0100
0000
1100
0000
,
0100
1000
0010
0100
0001
0000
0001
0100
,
0010
1000
0020
0100
0100
0100
0100
0130
,
1000
0000
0001
0100
0010
0000
0100
0001
,
0010
0100
1000
0000
0002
0000
0000
0000
,
1003
0000
0000
0000
,
0000
0000
0000
0000
,
0000
0000
0000
0000
0000
0000
0000
0000
0000
0000
0010
0100
0010
0100
0010
0000
,
1010
0000
0001
0000
0100
0001
0100
0001
0010
0000
0100
0000
0200
0000
0310
0000
,
0000
0000
1001
0000
1000
0000
0001
0000
0001
0000
0100
0000
0010
1000
0010
0000
,
0001
1000
0200
0301
1000
0020
0031
0100
,
2000
0000
3100
0000
0100
0000
0100
0000
0022
0033
0000
0000
2020
3030
0000
0000
,
1000
0000
0020
0030
2000
3000
0002
0003
0220
0330
0000
0000
1001
0000
0000
0000
,
0001
1000
0010
0020
0030
1100
0000
0110
,
0011
0101
1010
2002
,
0000
3003
0000
0000
;

//---------------dance-single - ----------------
#NOTEDATA:;
#CHARTNAME:;
#STEPSTYPE:dance-single;
#DESCRIPTION:;
#CHARTSTYLE:;
#DIFFICULTY:Hard;
#METER:17;
#RADARVALUES:0.783617,1.204889,0.274990,0.224334,0.130258,758.000000,720.000000,38.000000,31.000000,0.000000,0.000000,0.000000,0.000000,0.000000,0.783617,1.204889,0.274990,0.224334,0.130258,758.000000,720.000000,38.000000,31.000000,0.000000,0.000000,0.000000,0.000000,0.000000;
#CREDIT:Daniel Van Eden;
#NOTES:
0000
0000
0000
0000
,
0000
0000
0000
0000
,
0000
0000
0000
0000
0000
0000
0000
0000
1001
0000
0000
0000
0000
0000
1000
0010
,
1000
0000
0001
0000
0000
0000
0010
0000
0001
0000
0010
0000
0100
0000
0000
0100
,
1000
0000
0000
0000
0001
0100
0001
0000
1000
0000
0001
0010
0001
0000
1000
0100
,
1000
0100
0010
0001
0010
0100
1000
0100
,
1000
1000
1000
0202
0303
0001
0010
0100
,
0100
0000
0010
0000
1000
0000
0020
0000
0031
0000
0000
0000
0200
0300
0000
0000
,
0010
0010
1000
1001
0000
1000
0200
0310
,
0001
0000
1000
0000
0001
0000
0100
0000
0010
0000
1000
0000
0100
1000
0100
0010
,
0000
0100
0000
0010
0001
0010
0100
1000
0100
0000
0000
0000
0011
0000
0000
0000
,
0010
0100
1000
0001
1000
0101
0000
1010
,
0000
0100
0010
0100
0010
0011
0000
1100
,
1100
0000
1000
0000
0010
0000
1000
0000
0020
0000
0030
0000
1000
0000
0001
0100
,
0000
0001
0100
0001
0100
0000
0010
0000
0010
0000
1000
0000
0002
0000
0000
0003
,
0100
0000
0000
0000
0010
0000
0010
0000
0010
0000
0000
0000
1000
0100
1000
0000
,
0010
1000
0001
0001
0001
0010
0100
1000
,
0001
0000
0000
0000
0000
0000
0000
0000
0000
0000
0000
1001
0000
0000
0000
0000
0000
0000
0000
0000
0000
0000
0000
0000
0000
0000
0000
0000
0000
1000
0000
0000
0000
0000
0000
0100
0000
0000
0000
0000
0000
0001
0000
0000
0000
0000
0000
0000
,
0000
0000
0000
0000
0000
0220
0000
0000
0000
0000
0000
0000
0000
0000
0000
0000
0000
0000
0000
0000
0000
0000
0000
0000
0000
0000
0000
0000
0000
0000
0000
0000
0000
0000
0000
0000
0000
0000
0000
0000
0000
0000
0000
0000
0000
0000
0000
0000
,
0000
0000
0000
0000
0000
0330
0000
0000
0000
0000
0000
0000
1000
0000
0000
0000
0000
0000
0000
0000
0000
0000
0000
0000
0001
0000
0000
0000
0000
0000
0010
0000
0000
0000
0000
0000
0001
0000
0000
0000
0000
0000
0000
0000
0000
0000
0000
0000
,
1000
0100
1000
0001
1000
0000
0001
0100
,
0001
0100
0010
0000
1000
0000
0001
0000
,
0100
0010
0100
0001
1000
0000
0001
0000
,
0010
0100
0010
0000
0001
1000
0100
1000
,
0001
0000
0000
1000
0000
0010
0000
0100
0000
0001
0000
0000
,
1000
0001
0000
1000
0001
0100
0001
0100
,
0010
1000
0010
0000
0010
1000
0100
0010
,
0001
0010
0001
0010
0200
0000
0000
0000
,
0310
0000
0001
0000
1000
0100
1000
0100
,
0020
0000
0031
1000
,
0010
0000
0100
0001
0100
0001
0100
0000
,
0010
1000
0010
1000
0010
0000
1000
0000
,
0001
1000
0000
0001
1000
0000
0010
1000
,
0010
0100
0001
0000
1000
0000
0100
0000
,
0010
0001
0010
0001
0010
0000
0100
0000
,
1000
0100
0010
0001
0100
0010
2000
0000
,
0000
0000
0000
0000
,
3000
0000
0000
0000
0000
0000
0001
0100
0010
1000
0001
0100
0010
1000
0100
0000
,
0010
0010
0001
1000
0100
1000
0010
0100
,
0001
0000
1000
0001
1000
0000
0100
0000
0010
0001
0010
0000
0100
0000
1000
0100
,
1000
0100
0010
0000
0001
0000
0100
0000
0001
0000
1000
0000
0010
0000
1000
0001
,
1000
0100
0010
0001
1000
0001
1000
0000
0010
0000
0000
0000
1000
0000
0000
0000
,
0001
0100
0001
0000
1000
0000
0100
0000
,
0010
0000
0001
0010
0100
0000
1000
0100
,
0010
0000
0001
1000
0001
1000
0001
1000
,
0001
0000
0100
0000
0010
1000
0010
1000
,
0100
0020
0000
0000
,
0130
1000
0001
1000
,
0010
0000
0100
0001
1000
0000
0100
0000
,
0010
0000
0001
0100
0000
0010
1000
0000
,
1000
0000
0001
0100
0001
0000
1000
0010
,
1000
0000
0001
1000
0001
1000
0001
0000
,
2002
0000
0000
0000
,
3003
0000
0000
1000
,
0100
0011
0001
0100
,
1010
0000
0010
0000
1000
0001
1000
0000
,
0100
0000
0010
0001
1000
0100
1000
0100
,
1000
0001
0001
0100
,
0010
0000
0100
0001
1000
0000
0010
1000
,
0001
0000
1000
0000
0100
1000
0001
0010
,
0100
0010
0100
1000
0001
0000
1000
0000
,
0010
0101
0010
0001
,
1100
0000
1000
0000
0001
1000
0010
0000
,
1000
0001
0100
0000
0010
1000
0010
1000
,
0001
1000
0001
1000
,
0100
0010
0000
0010
0000
0010
0000
0010
,
0001
0010
0100
0000
1000
0100
1000
0100
,
0010
0000
0001
0100
0001
0000
1001
0000
,
0000
1010
0000
0000
0101
0000
0000
0000
,
0100
0000
0010
1000
0010
1000
0001
0000
,
0100
0010
0100
0000
0001
0010
0001
1000
,
0100
0000
0110
0000
0000
0011
0000
0000
,
1100
0000
0001
0001
,
0010
0100
1000
0000
0010
0100
0001
0000
,
1000
0100
0010
0000
0001
0000
0101
0000
,
1000
1000
1010
0010
,
1000
0000
0001
0100
0001
0000
1000
0010
,
1000
0010
1000
0000
0001
0010
0001
1000
,
0100
0010
0001
0000
0000
1100
0000
0000
,
0101
0000
0100
0000
0010
0000
1000
0001
,
1000
0001
0100
0010
0100
0010
1000
0010
,
1000
0010
0100
0001
0100
0001
0010
0000
,
0100
0000
1000
0000
0001
0000
1000
0100
,
1000
0000
0001
0010
0001
0000
0010
0000
,
0100
0110
2000
0000
,
3010
0000
0100
0000
0001
0000
1000
0001
,
1000
0000
0100
0000
0010
0000
0001
0100
,
0001
0000
1000
0100
1000
0100
0010
0001
,
0020
0000
0032
0000
1003
0100
1000
0000
,
0010
1000
0001
1000
0001
0000
0100
0000
,
0010
0000
1000
0001
1000
0001
1000
0000
,
0100
0000
0010
0001
1000
0000
0100
0000
,
1000
0000
0010
0100
0001
0100
0001
0100
,
0001
1000
0010
1000
0010
1000
0010
0000
,
1000
0001
0010
0200
,
0310
0020
0031
1000
,
0010
0000
1000
0000
0100
0010
0100
0000
,
0200
0000
0000
0000
,
0300
0002
0000
0000
0000
0000
0000
0000
,
0000
0003
0000
0000
2000
0000
0000
0000
,
0000
0000
3000
0020
0000
0000
0000
0000
,
0000
0000
0000
0030
0000
0000
0000
0000
,
0000
0000
0000
0000
,
0000
0000
0000
0100
,
0001
0000
1000
0000
0100
0010
0100
0010
,
0100
0000
0010
0001
0010
0001
1000
0100
,
1000
0001
1000
0010
,
0100
0001
0100
0000
0010
0000
0100
0000
,
0001
0000
0010
0100
0010
0000
0001
0000
,
1000
0001
1000
0000
1000
0100
0010
0001
,
0010
0100
1000
0000
0001
0000
0101
0000
,
0000
0000
1000
0000
0010
0000
0100
0010
,
1000
0000
0001
0010
0100
0000
0010
0000
,
0001
0000
1000
0100
1000
0100
0010
0001
,
0010
0001
1000
0000
0000
0000
0000
0000
,
0000
0000
0000
0010
,
0100
0001
1000
0000
0100
0000
1000
0000
,
0001
0010
0001
0010
0001
0000
1000
0100
,
1000
0000
0010
1000
0100
0000
0010
0001
,
0100
0000
0001
1000
0010
1000
0010
0000
,
1000
0000
1100
0000
0000
0000
0010
0001
,
1000
0000
0100
0000
1000
0100
0010
0000
,
0010
0000
0001
0100
0001
0100
0001
0000
,
1000
0001
1000
0000
1000
0000
0100
0000
,
1000
0010
1000
0010
1000
0000
0001
0100
,
0001
0100
0002
0000
0000
0000
0000
0000
,
1003
0000
0001
0000
0010
0000
0100
0010
,
0100
0010
0100
0000
1000
0000
0010
0000
,
2002
0000
0000
0000
,
3003
0000
0000
0000
,
0000
0000
0000
0000
0000
0000
0000
0000
0000
0000
0001
1000
0001
1000
0001
0000
,
1000
0100
0010
0000
0100
0010
0001
0101
,
0000
1000
1000
0100
0010
0100
0010
0001
,
0100
1000
0100
0001
0010
1000
0010
0001
,
1000
0100
0100
0100
0011
0000
1010
0000
,
0100
0001
0100
0001
1010
0000
1100
0000
,
0100
0010
0001
2001
0000
0100
0000
3020
,
0100
1030
0101
2002
,
0000
0000
0000
3003
;

//---------------dance-single - ----------------
#NOTEDATA:;
#CHARTNAME:;
#STEPSTYPE:dance-single;
#DESCRIPTION:;
#CHARTSTYLE:;
#DIFFICULTY:Medium;
#METER:13;
#RADARVALUES:0.536540,0.897154,0.173678,0.079602,0.054274,519.000000,495.000000,24.000000,11.000000,0.000000,0.000000,0.000000,0.000000,0.000000,0.536540,0.897154,0.173678,0.079602,0.054274,519.000000,495.000000,24.000000,11.000000,0.000000,0.000000,0.000000,0.000000,0.000000;
#CREDIT:Daniel Van Eden;
#NOTES:
0000
0000
0000
0000
,
0000
0000
0000
0000
,
0000
0000
0000
0000
0000
0000
0000
0000
1001
0000
0000
0000
0000
0000
0010
1000
,
0010
0000
1000
0000
0000
0000
0001
0000
0100
0000
0010
0000
0100
0000
0000
0100
,
0001
0000
0000
0000
0010
0001
0010
0000
0100
0000
1000
0000
0001
0000
1000
0000
,
0010
0100
0001
0010
0100
0010
0001
1000
,
0100
1000
0100
0020
0030
0001
1000
0010
,
0010
1000
0001
0100
0010
0000
1000
0000
,
0001
0001
1000
0001
0000
1000
0200
0300
,
0010
0100
0010
0000
0001
0010
0001
1000
,
0100
0010
0001
0010
0100
0000
1001
0000
,
0000
0000
0100
0100
0100
0011
0000
1010
,
0000
1000
0001
1000
0001
0101
1000
0010
,
0010
1000
0100
1000
0200
0000
0300
0010
,
0000
0010
0000
0000
0010
0000
0001
0000
0001
0000
0010
0000
0200
0000
0300
0000
,
1000
0000
0010
1000
0010
0000
1000
0100
,
0010
0001
0010
0001
0100
0010
1000
0001
,
1000
0000
0000
0000
0000
0000
0000
0000
0000
0000
0000
1001
0000
0000
0000
0000
0000
0000
0000
0000
0000
0000
0000
0000
0000
0000
0000
0000
0000
1000
0000
0000
0000
0000
0000
0100
0000
0000
0000
0000
0000
0001
0000
0000
0000
0000
0000
0000
,
0000
0000
0000
0000
0000
0110
0000
0000
0000
0000
0000
0000
0000
0000
0000
0000
0000
0000
0000
0000
0000
0000
0000
0000
0000
0000
0000
0000
0000
0000
0000
0000
0000
0000
0000
0000
0000
0000
0000
0000
0000
0000
0000
0000
0000
0000
0000
0000
,
0000
1000
0001
0100
,
0001
1000
0100
1000
,
0010
0100
0010
1000
,
0100
0010
0001
1000
,
0100
0010
0001
1000
,
0001
0100
0010
1000
,
0000
1000
0000
0000
1000
0000
0001
0000
,
0000
0110
0000
1000
,
0010
1000
0100
1000
,
0000
0010
0100
0010
,
0200
0000
0301
1000
,
0100
0010
0001
0010
,
0000
0100
1000
0001
,
0000
0001
0000
0000
0001
0000
0100
0000
,
0000
1001
0000
0010
,
1010
0000
1000
0010
,
0100
0001
1000
1100
,
0000
0000
0000
0000
,
0000
0000
0000
0000
0000
0000
0010
0100
0010
0100
0010
0100
0010
0000
0001
0000
,
1000
1000
0001
0000
0000
0000
0000
0000
,
0010
0000
1000
0100
1000
0000
0000
0000
0100
0000
0010
0000
0001
0000
0010
0000
,
0100
1000
0010
0000
1000
0001
1000
0000
,
0000
0101
0000
1010
1000
0000
0001
0000
,
0100
0001
0010
0100
,
0010
0001
1000
0000
,
0001
1000
0010
0000
,
1000
0001
0010
0100
,
1000
0100
1000
0010
,
0100
0000
0001
1000
,
0010
0000
1000
0010
,
1000
0001
0100
0010
,
0100
0001
0010
0000
,
0100
1000
0100
0000
,
0011
0000
0000
0000
,
0000
0000
0000
1000
,
0001
0001
1000
0001
,
0001
0100
0010
0100
,
0010
1000
0100
0010
,
0000
0001
1000
0100
,
1000
0001
0000
1000
,
0010
1000
0001
1000
,
0001
0100
0000
0001
,
1000
1000
0001
1000
,
1000
0010
0100
0010
,
0100
0001
0010
0100
,
0000
0010
0100
0010
,
0000
0001
0010
0001
,
0010
0100
1000
0100
,
1000
0010
0000
1000
,
0010
0010
1000
0000
,
0010
1000
0001
1000
,
0000
0100
0010
0001
,
0000
0010
0100
0100
,
0010
0000
0001
0010
,
0100
1000
0000
0010
,
1000
0010
0000
0100
,
0001
0001
0100
0000
,
0010
1000
0001
1000
,
0001
1000
0100
0010
,
0000
0000
1100
0000
0000
0011
0000
0000
,
1100
0000
0000
0010
,
0100
0010
0001
0010
,
0100
0010
1000
0010
,
0001
1000
0000
0100
,
1000
0100
1000
0001
,
0000
0100
0010
0100
,
0000
0001
1000
0010
,
0000
1000
0001
1000
,
0100
0010
0000
0001
,
0100
0010
0000
0100
,
0001
1000
0000
0010
,
1000
0001
1000
0100
,
0000
0010
0001
1000
,
0000
0001
1000
0001
,
0000
0100
0010
1000
,
0100
1000
0000
0010
,
0001
0010
0100
0010
,
0000
0001
1000
0001
,
0100
0000
0000
0000
,
0000
0000
0000
0000
,
0000
0000
1001
0000
,
0000
0000
0000
0000
,
0000
0000
0000
0000
,
0000
0000
0000
0000
,
0000
0000
0000
0010
,
1000
0001
1000
0100
,
0010
0001
0000
0010
,
0100
0010
0001
1000
,
0000
0010
1000
0001
,
1000
0100
0010
0001
,
0000
0100
0010
0100
,
0001
0100
0000
0010
,
1000
0001
1000
0010
,
0100
0001
0000
1000
,
0100
0010
0001
1000
,
0000
0010
0000
0000
,
0000
0000
0000
0000
,
0000
1000
0100
1000
,
0010
1000
0001
0100
,
0000
0001
0100
0010
,
1000
0001
0000
0010
,
0100
0010
0001
1000
,
0100
0010
0000
0100
,
1000
0001
1000
0010
,
0000
1000
0001
0100
,
0001
1000
0010
0100
,
0000
0002
0000
0000
,
1003
0100
1000
0100
,
0010
0001
0010
0001
,
0200
0000
0000
0000
,
0300
0000
0000
0000
,
0000
0000
0000
0000
0000
0000
0000
0000
0000
0000
0010
0100
0010
0100
0010
0000
,
1000
0001
1000
0000
0100
0010
0001
0010
,
0000
0101
0000
1000
1000
0010
1000
0001
,
0100
0010
0100
0001
0010
0100
1000
0100
,
0010
0001
1000
0001
1100
0000
0101
0000
,
1000
0010
1000
0010
0101
0000
1010
0000
,
1000
0010
0010
0020
0000
0230
0000
0301
,
2000
3200
0310
1001
;

//---------------dance-single - ----------------
#NOTEDATA:;
#CHARTNAME:;
#STEPSTYPE:dance-single;
#DESCRIPTION:;
#CHARTSTYLE:;
#DIFFICULTY:Easy;
#METER:10;
#RADARVALUES:0.391809,0.702852,0.173678,0.079602,0.007237,379.000000,355.000000,24.000000,11.000000,0.000000,0.000000,0.000000,0.000000,0.000000,0.391809,0.702852,0.173678,0.079602,0.007237,379.000000,355.000000,24.000000,11.000000,0.000000,0.000000,0.000000,0.000000,0.000000;
#CREDIT:Daniel Van Eden;
#NOTES:
0000
0000
0000
0000
,
0000
0000
0000
0000
,
0000
0000
1001
0000
,
0001
1000
0000
1000
0001
0000
1000
0000
,
0101
0000
0100
0010
0100
0000
0010
1000
,
0010
0000
1000
0100
0010
0000
0001
1000
,
0001
0000
0001
2000
3000
1000
0010
0000
,
0010
0100
0000
0200
0301
0000
1000
0000
,
0100
0100
0010
0100
0000
1001
0000
0000
,
0001
0000
1000
0000
0010
1000
0010
0000
,
1000
0100
1000
0000
0001
0000
0101
0000
,
0000
0000
1000
0000
0000
0101
0000
0101
,
0000
0000
0010
0000
0000
1100
0000
1100
,
0000
1000
1001
0000
,
0001
1000
0001
0000
1000
0000
0200
0000
,
0310
0000
0001
0100
0001
0000
1000
0000
,
0010
0000
1000
0100
0010
0000
0001
0000
,
1000
0000
0000
0000
0000
0000
0000
0000
0000
0000
0000
0101
0000
0000
0000
0000
0000
0000
0000
0000
0000
0000
0000
0000
0000
0000
0000
0000
0000
0000
0000
0000
0000
0000
0000
0000
0000
0000
0000
0000
0000
0000
0000
0000
0000
0000
0000
0000
,
0000
0000
0000
0000
0000
1001
0000
0000
0000
0000
0000
0000
0000
0000
0000
0000
0000
0000
0000
0000
0000
0000
0000
0000
0000
0000
0000
0000
0000
0000
0000
0000
0000
0000
0000
0000
0000
0000
0000
0000
0000
0000
0000
0000
0000
0000
0000
0000
,
0000
0010
0000
1000
,
0010
0000
1000
0010
,
0000
0100
0000
0001
,
0000
1000
0000
0001
,
0000
0010
0001
0000
,
0010
0001
0000
0100
,
0000
0100
0000
0010
,
0000
1000
0000
0001
,
1000
0000
1000
0001
,
0000
1000
0000
0010
,
0000
1000
0000
0100
,
0000
0010
0100
0000
,
0100
0010
0000
0001
,
0000
0001
0000
0001
,
0000
0100
0000
0010
,
1000
0000
1000
0010
,
0000
1000
0001
1000
,
0000
0000
0000
0000
,
0000
0000
0000
0002
0000
1003
0010
0100
,
0010
0000
1000
0000
0000
0000
0100
0010
,
0100
0010
0100
0000
0010
0001
0100
0001
,
0010
0000
0001
0000
1000
0010
1000
0000
,
0001
0000
0100
0010
0100
0000
0000
0000
,
0001
0000
1000
0001
,
1000
0000
0010
0000
,
1000
0000
0100
0000
,
0010
0000
0001
0010
,
0001
0000
1000
0000
,
0100
1000
0100
0000
,
1000
0000
0010
0000
,
1000
0000
0001
0100
,
0001
0000
1000
0000
,
0010
0000
1000
0000
,
0001
0000
0000
0000
,
0000
0000
0000
1010
,
0000
0000
1100
0000
,
0000
1000
0000
0001
,
0010
0001
0010
0001
,
0000
0101
0000
0000
,
1010
0000
0000
0100
,
0000
0001
1000
0001
,
1000
0001
0000
1100
,
0000
0000
0101
0000
,
0000
0010
0000
1000
,
0001
1000
0000
0100
,
0010
0100
0000
0010
,
0000
0001
0000
1000
,
0100
1000
0000
0001
,
0010
0001
0000
0100
,
0000
0000
0110
0000
,
0000
0010
0000
1000
,
0001
1000
0000
0001
,
1000
0001
0000
0000
,
0101
0000
0000
1000
,
0000
0010
1000
0010
,
0000
1000
0100
1000
,
0000
0000
1100
0000
,
0000
0010
0000
0001
,
0100
0001
0000
0010
,
0100
0000
0010
0000
0000
0100
0000
0000
,
0010
0000
0000
0001
,
0000
0100
0000
0010
,
0000
1000
0000
0100
,
0000
0010
0000
0001
,
0000
1000
0100
1000
,
0000
0010
0000
1000
,
0000
0001
0000
0100
,
0000
0001
0000
1000
,
0100
1000
0000
0001
,
0000
0010
0000
0100
,
0000
0001
0000
1000
,
0000
0010
1000
0010
,
0000
0100
0000
0001
,
0000
0010
0000
0001
,
0000
1000
0000
0001
,
1000
0001
0000
1000
,
0000
0010
0000
1000
,
0000
0100
0000
0010
,
0010
0000
0000
0000
,
0000
0000
0000
0000
,
0000
0000
1001
0000
,
0000
0000
0000
0000
,
0000
0000
0000
0000
,
0000
0000
0000
0000
,
0000
0000
0000
0001
,
1000
0001
0000
1000
,
0010
1000
0000
0010
,
0000
0100
0000
0001
,
0000
0010
0100
0010
,
0000
0001
1000
0001
,
0000
1000
0000
0100
,
0000
0010
0000
0100
,
1000
0100
0000
0010
,
0001
0010
0000
0001
,
0000
0100
0000
0010
,
0000
2000
0000
0000
,
0000
3000
0000
1001
,
0000
0001
0000
0100
,
0010
0000
0010
1000
,
0000
0100
1000
0100
,
0000
0010
0000
0001
,
0000
1000
0100
0000
,
0100
0010
0000
0001
,
0010
0001
0000
0100
,
0000
0001
0000
1000
,
0010
0000
0010
1000
,
0000
0200
0000
0000
,
0310
0000
0001
0010
,
0000
0010
0001
0000
,
0202
0000
0000
0000
,
0303
0000
0000
0000
,
0000
0000
0000
0000
0000
2000
0000
3001
,
0100
0001
1000
0000
0100
1000
0000
0100
,
0000
0010
0000
0001
0100
0001
0000
1000
,
0010
0000
1000
0100
0000
0010
0001
0000
,
0010
0100
0000
0100
1000
0000
1000
0000
,
1000
0010
0000
0010
0100
0000
0100
0000
,
0100
0001
0000
1000
0000
0001
0000
0010
,
0100
0010
0100
2002
,
0000
0000
0000
3003
;

//---------------dance-single - ----------------
#NOTEDATA:;
#CHARTNAME:;
#STEPSTYPE:dance-single;
#DESCRIPTION:;
#CHARTSTYLE:;
#DIFFICULTY:Beginner;
#METER:7;
#RADARVALUES:0.264652,0.451833,0.057893,0.028946,0.007237,256.000000,248.000000,8.000000,4.000000,0.000000,0.000000,0.000000,0.000000,0.000000,0.264652,0.451833,0.057893,0.028946,0.007237,256.000000,248.000000,8.000000,4.000000,0.000000,0.000000,0.000000,0.000000,0.000000;
#CREDIT:Daniel Van Eden;
#NOTES:
// measure 0
0000
0000
0000
0000
,  // measure 1
0000
0000
0000
0000
,  // measure 2
0000
0000
1001
0000
,  // measure 3
0010
0000
1000
0001
,  // measure 4
1000
0000
0100
0010
,  // measure 5
0001
0010
0100
1000
,  // measure 6
0001
0000
0000
0100
0000
0000
0100
0000
,  // measure 7
0000
0010
0000
0000
1000
0000
0001
0000
,  // measure 8
1000
0000
0000
1001
0000
0000
0000
0000
,  // measure 9
0010
1000
0001
1000
,  // measure 10
0100
0010
0001
0011
,  // measure 11
0000
0000
0010
0000
0000
1000
0000
1000
,  // measure 12
0000
0000
0001
0000
0001
0000
0000
0100
,  // measure 13
0100
0010
0110
0000
,  // measure 14
0000
0000
0000
0000
,  // measure 15
0001
1000
1000
0001
,  // measure 16
1000
0100
0010
0001
,  // measure 17
1000
0000
0000
0000
0000
0000
0000
0000
0000
0000
0000
0001
0000
0000
0000
0000
0000
0000
0000
0000
0000
0000
0000
0000
0000
0000
0000
0000
0000
0000
0000
0000
0000
0000
0000
0000
0000
0000
0000
0000
0000
0000
0000
0000
0000
0000
0000
0000
,  // measure 18
0000
0000
0000
0000
0000
1001
0000
0000
0000
0000
0000
0000
0000
0000
0000
0000
0000
0000
0000
0000
0000
0000
0000
0000
0000
0000
0000
0000
0000
0000
0000
0000
0000
0000
0000
0000
0000
0000
0000
0000
0000
0000
0000
0000
0000
0000
0000
0000
,  // measure 19
0000
1000
0000
0000
,  // measure 20
0000
0010
0000
1000
,  // measure 21
0000
0010
0000
1000
,  // measure 22
0000
0100
0000
0010
,  // measure 23
0000
0000
0000
0001
,  // measure 24
0000
0010
0000
0001
,  // measure 25
0000
0100
0000
0010
,  // measure 26
0000
1000
0000
0000
,  // measure 27
0000
0001
0000
1000
,  // measure 28
0000
0100
0000
1000
,  // measure 29
0000
0001
0000
0100
,  // measure 30
0000
0000
0000
0010
,  // measure 31
0000
1000
0000
0001
,  // measure 32
0000
1000
0000
0100
,  // measure 33
0000
0010
0000
0000
,  // measure 34
0010
0000
0001
0000
,  // measure 35
1000
0000
0100
0020
,  // measure 36
0000
0000
0000
0030
,  // measure 37
0000
0000
0010
0100
,  // measure 38
0100
0000
1000
0000
,  // measure 39
0001
0000
0100
0000
,  // measure 40
0010
0000
1000
1000
,  // measure 41
1000
0000
0001
0000
,  // measure 42
1000
0000
0001
0000
,  // measure 43
0000
0000
1000
0000
,  // measure 44
0010
0000
1000
0000
,  // measure 45
0001
0000
0100
0000
,  // measure 46
0001
0000
0000
0000
,  // measure 47
1000
0000
0010
0000
,  // measure 48
1000
0000
0100
0000
,  // measure 49
0010
0000
0100
0000
,  // measure 50
0000
0000
0001
0000
,  // measure 51
0010
0000
0100
0000
,  // measure 52
1000
0000
0000
0000
,  // measure 53
0000
0000
0000
1000
,  // measure 54
0000
0000
0001
0000
,  // measure 55
0000
1000
0000
0010
,  // measure 56
0000
1000
0000
0010
,  // measure 57
0000
0100
0000
0000
,  // measure 58
0000
0001
0000
0000
,  // measure 59
0000
0010
0000
0100
,  // measure 60
0000
0010
0000
0001
,  // measure 61
0000
0000
1000
0000
,  // measure 62
0000
0001
0000
1000
,  // measure 63
0000
0010
0000
1000
,  // measure 64
0000
0001
0000
1000
,  // measure 65
0000
0001
0000
0010
,  // measure 66
0000
0100
0000
0010
,  // measure 67
0000
0001
0000
1000
,  // measure 68
0000
0000
0001
0000
,  // measure 69
0000
1000
0000
0010
,  // measure 70
0000
0010
0000
0010
,  // measure 71
0000
0100
0000
0000
,  // measure 72
0001
0000
0000
0100
,  // measure 73
0000
0001
0000
0001
,  // measure 74
0000
0001
0000
0010
,  // measure 75
0000
0000
0100
0000
,  // measure 76
0000
1000
0000
0100
,  // measure 77
0000
0100
0000
0100
,  // measure 78
0000
0010
0000
0000
,  // measure 79
0010
0000
0000
0001
,  // measure 80
0000
1000
0000
0000
,  // measure 81
0000
0000
0000
1000
,  // measure 82
0000
0001
0000
1000
,  // measure 83
0000
0000
0000
0100
,  // measure 84
0000
0010
0000
0100
,  // measure 85
0000
1000
0000
0001
,  // measure 86
0000
1000
0000
0000
,  // measure 87
0000
0001
0000
0100
,  // measure 88
0000
0001
0000
1000
,  // measure 89
0000
0010
0000
1000
,  // measure 90
0000
0000
0000
0001
,  // measure 91
0000
0100
0000
0001
,  // measure 92
0000
1000
0000
0100
,  // measure 93
0000
1000
0000
0000
,  // measure 94
0000
0001
0000
0010
,  // measure 95
0000
0001
0000
0100
,  // measure 96
0000
0010
0000
0000
,  // measure 97
0000
0000
0000
0000
,  // measure 98
0000
0000
0000
0000
,  // measure 99
0000
0000
1000
0000
,  // measure 100
0000
0000
0000
0000
,  // measure 101
0000
0000
0000
0000
,  // measure 102
0000
0000
0000
0000
,  // measure 103
0000
0000
0000
0100
,  // measure 104
0000
0010
0000
0100
,  // measure 105
0000
0010
0000
0001
,  // measure 106
0000
0100
0000
0001
,  // measure 107
0000
0100
0000
0010
,  // measure 108
0000
1000
0000
0001
,  // measure 109
0000
1000
0000
0100
,  // measure 110
0000
0010
0000
0100
,  // measure 111
0000
0010
0000
0001
,  // measure 112
0000
1000
0000
0001
,  // measure 113
0000
1000
0000
0010
,  // measure 114
0000
0100
0000
0000
,  // measure 115
0000
0000
0000
0010
,  // measure 116
0000
1000
0000
0001
,  // measure 117
0000
1000
0000
0100
,  // measure 118
0000
0010
0000
0001
,  // measure 119
0000
1000
0000
0100
,  // measure 120
0000
0010
0000
0100
,  // measure 121
0000
1000
0000
0010
,  // measure 122
0000
1000
0000
0001
,  // measure 123
0000
0100
0000
0010
,  // measure 124
0000
1000
0000
0001
,  // measure 125
0000
2000
0000
0000
,  // measure 126
3100
0000
0010
0000
,  // measure 127
0001
0000
1000
0000
,  // measure 128
0100
0000
0000
0000
,  // measure 129
0000
0000
0000
0000
,  // measure 130
0000
0000
0000
0000
0000
0010
0000
0000
,  // measure 131
0000
1000
0000
0000
0000
0001
0000
0100
,  // measure 132
0000
0001
0000
0000
0000
0010
0000
0100
,  // measure 133
0000
0010
0000
0001
0000
1000
0000
0100
,  // measure 134
0000
0010
0000
0000
1001
0000
0000
0000
,  // measure 135
0000
0100
0000
0000
1010
0000
0000
0000
,  // measure 136
0000
0100
0000
0100
0000
0001
0000
0000
,  // measure 137
1000
0010
1000
2002
,  // measure 138
0000
0000
0000
3003
;
