#TITLE:Turn It Up;
#SUBTITLE:;
#ARTIST:DJ Noriken feat. Kanae Asaba;
#TITLETRANSLIT:;
#SUBTITLETRANSLIT:;
#ARTISTTRANSLIT:;
#GENRE:;
#CREDIT:;
#BANNER:Turn It Up.png;
#BACKGROUND:Turn It Up-bg.png;
#LYRICSPATH:;
#CDTITLE:;
#MUSIC:Turn It Up.ogg;
#OFFSET:0.292298;
#SAMPLESTART:88.868042;
#SAMPLELENGTH:10.971436;
#SELECTABLE:YES;
#BPMS:0.000000=175.000000
;
#STOPS:206.000000=0.343000
;
#BGCHANGES:;
#KEYSOUNDS:;
#ATTACKS:;

//---------------dance-single - ----------------
#NOTES:
     dance-single:
     :
     Challenge:
     17:
     0.835226,0.968994,0.585495,0.518581,0.669137,699.000000,629.000000,70.000000,62.000000,0.000000,0.000000,0.835226,0.968994,0.585495,0.518581,0.669137,699.000000,629.000000,70.000000,62.000000,0.000000,0.000000:
0000
0000
0000
0000
,
0000
0000
0000
0000
,
0000
0000
0000
0000
,
0000
0000
0000
0000
,
0000
0000
0000
0000
,
0000
0000
0000
0000
,
0000
0000
0000
0000
,
0000
0000
0000
0000
,
0000
0000
0000
0000
,
0010
0000
1000
0001
0001
1000
0010
0000
,
1000
0000
0001
1000
1000
0001
0000
0010
,
0100
0000
1000
0001
0001
0010
0000
0100
,
1000
0000
0010
0000
1000
0010
1000
0010
,
0100
0000
0001
1000
1000
0001
0000
0100
,
0010
0000
1000
0010
0010
0100
0000
0001
,
0100
0000
0001
0010
0010
0100
0000
1000
,
0200
0000
0320
0000
0031
1000
0001
0010
,
0100
0000
1000
0001
1000
0000
0010
1000
,
0000
1000
0010
0100
0001
0010
0001
0000
,
1000
0000
0001
0010
0001
0000
0100
0001
,
0000
0001
0100
0010
1000
0000
0001
1000
,
0100
0000
1000
0001
1000
0000
0010
0100
,
0000
0100
0010
1000
0001
0100
0001
0000
,
0010
0001
0010
0001
0010
0100
1000
0100
,
0000
0100
1000
0010
0100
0001
1000
0000
,
1001
0000
0010
0000
0011
0000
0001
0100
,
0101
0001
0100
0010
0110
0010
1000
0000
,
1100
0000
0010
0000
0101
0000
0001
1000
,
1010
0010
0100
0001
0101
0000
0100
0010
,
1010
0000
0100
0000
1100
0000
1000
0100
,
0110
0010
0001
1000
1001
0001
0100
0000
,
0010
1000
0010
1000
0001
0100
0001
0100
0010
1000
0100
0010
0001
1000
0100
1000
,
0002
1000
1000
0103
,
1000
0000
0001
0000
0010
0100
1000
0000
0010
0000
1000
0010
0000
0100
0001
0000
,
1000
0000
0001
0000
0010
0100
1000
0000
0010
0000
0100
0000
0001
1000
0010
0000
,
0100
0000
0010
0000
1000
0001
0100
0000
0010
0000
1000
0001
0000
0100
0010
0000
,
1000
0010
0100
0001
0010
0000
0001
0100
0010
1000
0100
0000
0010
0001
1000
0000
,
0001
0000
1000
0000
0010
0100
0001
0000
0010
0000
0001
0010
0000
0100
1000
0000
,
0001
0000
1000
0000
0010
0100
0001
0000
0010
0000
0100
0000
1000
0001
0100
0000
,
0010
0000
1000
0000
0001
1000
0100
0000
0010
0000
0001
0100
0000
0010
1000
0000
,
0010
1000
0010
0100
0001
0000
0100
0010
1000
0000
0000
0000
1001
0000
0000
0000
,
0001
0000
1000
0001
1000
0100
0010
0001
0010
0000
0001
0100
0000
0001
1000
0000
,
0001
0000
1000
0001
1000
0010
0100
0001
0010
0000
0100
0010
0100
1000
0010
0000
,
1000
0000
0001
1000
0001
0010
0100
1000
0100
0000
1000
0010
0000
1000
0001
0000
,
0100
0001
1000
0010
0100
0000
0010
1000
0100
0010
0001
0010
0100
0000
1000
0000
,
0001
0000
0100
0010
1000
0010
0100
0000
0001
0000
1000
0100
0000
0010
0100
0000
,
1000
0000
0001
0010
0001
0100
0010
1000
0100
0000
1000
0100
0010
0001
0010
0000
,
0001
0000
1000
0100
1000
0010
0100
0010
1000
0000
0001
0010
0000
0001
0100
0000
,
0020
2030
3200
0320
0032
0203
0310
0000
,
2020
0000
3030
0000
0202
0000
0303
0000
0001
0100
0010
1000
0100
0010
0022
0000
,
0033
0000
0001
1000
0100
1000
0001
1000
1100
0000
0000
0110
0000
0000
0011
0000
,
1001
0000
0000
0101
0000
0000
1010
0000
1001
0000
0000
0000
1010
0000
0000
1100
,
0000
0000
0110
0000
2002
0000
3003
0000
1000
0100
0010
0001
2002
0000
3003
0000
,
0202
0000
0303
0000
0001
0100
0101
0000
1010
0000
2200
0000
3300
0000
0100
0010
,
0001
1000
0100
0010
0011
0000
1000
0001
0000
0010
0001
0000
1001
0000
0001
1000
,
0000
0010
1000
0000
1100
0000
0100
0010
0001
0000
0001
0000
0020
0000
0032
0000
,
0203
0320
2030
3200
0320
0032
0003
0000
,
1001
0000
0001
0000
1000
0010
1000
0001
0100
0000
0110
0000
0000
0000
0010
1000
,
0001
0000
0100
0001
1000
0000
0000
1100
0000
0000
0110
0000
0011
0000
0000
1001
,
0000
0000
1010
0000
0110
0000
0000
0101
0000
0000
1001
0000
1100
0000
0000
0101
,
0000
0000
0011
0000
2020
0000
3030
0000
0001
0100
0010
1000
0001
0000
1000
0100
,
1000
0001
0100
0010
1000
0000
1010
0000
1100
0000
0022
0000
0033
0000
0010
0100
,
1000
0000
0010
1000
0001
0000
0100
0010
0000
0100
0001
0000
1001
0000
0010
1000
,
0000
0100
1000
0000
1100
0000
0010
0001
0000
0100
0001
0000
0202
0000
0303
0000
,
2020
3030
0002
0203
0320
2030
3100
0010
,
0100
1000
0001
0000
0100
0001
0100
0010
1000
0001
0100
0000
0010
0000
1000
0000
,
0001
1000
0100
0000
0010
0001
0100
0010
1000
0100
0010
0000
0011
0000
0010
0001
,
0100
0000
0001
0000
0101
0000
0100
0010
1000
0000
0010
0000
1010
0000
0010
1000
,
0100
0000
1000
0000
1100
0000
0000
0000
0100
1000
0001
0010
0100
0000
0010
0000
,
0001
1000
0100
0000
1000
0010
1000
0001
0100
0000
0202
0000
0303
0000
0001
0100
,
0010
1000
0100
0010
0100
0000
1000
0001
0000
0010
0001
0000
0011
0000
0010
0100
,
0000
0010
0100
0000
1100
0000
0100
1000
0000
0100
1000
0000
0020
0000
2030
0000
,
3002
0203
0320
2030
3200
0320
0030
0000
,
2002
0000
3003
0000
0010
0001
1000
0100
0010
0001
0100
0000
0010
0000
0100
0000
,
0001
0100
0010
0000
1000
0100
1000
0001
0100
0001
1000
0000
1010
0000
0010
0100
,
0001
0000
0100
0000
0101
0000
0001
1000
0010
0000
1000
0000
1010
0000
1000
0100
,
0010
0000
0100
0000
0011
0000
0000
0000
0001
1000
0100
0010
0001
0000
0100
0000
,
0001
1000
0010
0000
0100
0010
0100
0001
1000
0000
2002
0000
3003
0000
0100
0001
,
0100
0010
1000
0100
0010
0000
0001
0100
0000
0001
1000
0000
0010
1000
0100
0010
,
0100
1000
0001
0100
0001
0010
0100
0010
0001
0100
0010
1000
0002
0000
0000
0000
,
0023
0230
1300
0220
,
0000
0000
0000
0000
,
0000
0000
0000
0330
;

//---------------dance-single - ----------------
#NOTES:
     dance-single:
     :
     Hard:
     16:
     0.690645,0.830566,0.267655,0.384754,0.522763,578.000000,546.000000,32.000000,46.000000,0.000000,0.000000,0.690645,0.830566,0.267655,0.384754,0.522763,578.000000,546.000000,32.000000,46.000000,0.000000,0.000000:
0000
0000
0000
0000
,
0000
0000
0000
0000
,
0000
0000
0000
0000
,
0000
0000
0000
0000
,
0000
0000
0000
0000
,
0000
0000
0000
0000
,
0000
0000
0000
0000
,
0000
0000
0000
0000
,
0000
0000
0000
0000
,
0010
0000
1000
0000
0010
0100
0000
0100
,
0010
0000
1000
0000
0100
0010
0000
0010
,
0100
0000
0010
0000
0001
0100
0000
0100
,
0001
0000
0010
0000
0001
1000
0001
0000
,
1000
0000
0010
0000
1000
0100
0000
0100
,
1000
0000
0010
0000
0100
0010
0000
0010
,
0100
0000
0001
0000
0010
0001
0000
0001
,
0020
0000
0230
0000
1300
0010
1000
0100
,
0010
0000
0001
0000
0001
0000
1000
0010
,
0000
0010
1000
0100
0010
0001
1000
0000
,
0001
0000
0010
0000
0010
0000
0001
0100
,
0000
0100
0010
0100
0001
0000
1000
0000
,
0001
0000
0100
0000
0001
0000
1000
0010
,
0000
0010
1000
0001
0100
0010
1000
0000
,
0000
0001
1000
0001
1000
0010
1000
0001
,
0000
0001
0100
0010
1000
0000
0100
0010
,
0001
0000
0010
0000
0011
0000
0010
0100
,
1000
0100
0010
0001
0100
0001
1000
0000
,
1010
0000
0010
0000
0110
0000
0100
0010
,
1000
0010
0100
0001
1001
0000
1000
0010
,
1000
0000
0100
0000
0011
0000
0010
0001
,
1000
0001
0010
0100
1000
0010
0100
0000
,
0001
0100
0001
0100
0010
1000
0010
1000
0100
1000
0100
1000
0010
1000
0010
1000
,
0002
0000
0003
1001
,
0010
0000
0001
0000
1000
0001
1000
0000
0010
0000
0000
1000
0000
0000
0001
0000
,
0100
0000
0001
0000
1000
0001
1000
0000
0010
0000
1000
0000
0100
0010
0100
0000
,
0010
0000
0001
0000
1000
0001
1000
0000
0010
0000
0000
0100
0000
0000
0001
0000
,
0100
0001
0100
0001
0010
0000
0100
1000
0100
1000
0010
0000
0100
0010
1000
0000
,
0010
0000
1000
0000
0001
1000
0001
0000
0010
0000
0000
0001
0000
0000
1000
0000
,
0100
0000
1000
0000
0001
1000
0001
0000
0100
0000
0010
0000
1000
0010
1000
0000
,
0001
0000
0010
0000
0100
1000
0100
0000
0010
0000
0000
0001
0000
0000
0100
0000
,
0010
0100
0010
0100
0010
1000
0010
1000
0001
0000
0000
0000
1001
0000
0000
0000
,
0010
0000
0000
0010
0001
0000
0100
0000
0001
0000
0100
0010
0000
0100
0010
0000
,
1000
0000
0000
1000
0010
0000
1000
0000
0100
0000
0010
0100
0000
0010
0100
0000
,
1000
0000
0000
1000
0001
0000
0100
0000
0010
0000
0100
0001
0000
1000
0001
0000
,
1000
0010
1000
0010
0100
0000
0001
0010
0001
0010
0100
0000
1000
0100
0010
0000
,
0001
0000
0010
0001
0010
0000
0001
0000
0100
0000
0001
0100
0000
0001
0100
0000
,
0010
0000
1000
0010
1000
0000
0100
0000
1000
0000
0100
1000
0000
0100
1000
0000
,
0010
0000
1000
0001
1000
0000
0100
0000
0010
0000
0001
1000
0000
0001
1000
0000
,
0200
2300
3200
0320
0032
0203
0310
0000
,
1001
0000
0000
0000
1001
0000
0000
0000
1000
0100
0010
0001
1000
0100
0020
0000
,
0030
0000
0001
0010
0001
0010
0001
0010
0001
0000
0000
0001
0000
0000
0001
0000
,
1000
0000
0000
1000
0000
0000
1000
0000
0010
0000
0000
0000
0010
0000
0000
1000
,
0000
0000
0001
0000
1001
0000
0000
0000
0001
0100
0010
1000
0001
0000
0000
0000
,
1001
0000
0000
0000
0100
1000
0100
0000
0100
0000
0011
0000
0000
0000
0001
0100
,
0010
1000
0100
0010
0001
0000
0001
1000
0000
0001
1000
0000
0100
0000
0100
0010
,
0000
0100
0010
0000
0001
0000
0001
1000
0000
0001
1000
0000
0020
0000
2030
0000
,
3200
0320
0032
0203
0320
2030
3000
0000
,
2002
0000
3003
0000
0001
0000
0100
0000
0010
0000
2020
0000
3030
0000
1000
0100
,
1000
0000
0100
0000
0110
0000
0000
0010
0000
0000
0100
0000
1000
0000
0000
0001
,
0000
0000
1000
0000
1010
0000
0000
0100
0000
0000
0010
0000
1000
0000
0000
0001
,
0000
0000
0100
0000
0101
0000
0000
0000
0010
1000
0001
0100
0010
0000
0000
1000
,
0010
0000
0100
0000
0010
0100
0010
0000
0010
0000
1001
0000
0000
0000
0010
1000
,
0010
0000
1000
0000
0100
0000
0000
0100
0000
0000
0010
0000
0001
0000
0010
0001
,
0000
0010
0001
0000
1000
0000
0100
1000
0000
0100
1000
0000
2010
0000
0000
0000
,
3002
0000
0013
0100
1000
0100
0011
0000
,
0011
0000
0000
0000
0001
0100
0010
1000
0001
0100
0020
0000
0030
0000
1000
0000
,
0100
0000
1000
0000
0010
0000
0100
0001
0000
0100
0001
0000
0010
0000
0100
1000
,
0000
0100
1000
0000
0001
0000
0100
0010
0000
0100
0010
0000
1000
0000
0001
0100
,
0000
0001
0100
0000
0010
0000
1000
0000
0100
0000
0010
0000
0001
0000
0000
0000
,
0011
0000
0000
0000
0100
0000
1000
0000
1000
0000
2002
0000
3003
0000
0001
0100
,
0001
0100
0010
1000
0010
0000
1000
0001
0000
1000
0001
0000
0100
0000
0001
1000
,
0000
0001
1000
0000
0010
0000
1000
0001
0000
1000
0001
0000
0202
0000
0303
0000
,
0022
0033
2200
3300
0002
2003
3000
0000
,
2020
3030
0000
0010
0100
2002
3003
0100
,
0001
0000
0010
0000
0100
0000
1000
0100
0000
1000
0100
0000
0010
0000
0001
1000
,
0000
0001
1000
0000
0010
0000
0100
0001
0000
0100
0001
0000
1000
0000
0100
0010
,
0000
0100
0010
0000
1001
0000
0000
0000
0010
0001
1000
0100
0010
0000
0000
0000
,
1010
0000
0000
0000
1000
0000
0001
0000
0001
0000
0202
0000
0303
0000
1000
0010
,
1000
0000
0001
0000
0100
0000
0010
0100
0000
0010
0100
0000
0010
0000
1000
0100
,
0000
1000
0100
0000
0010
0000
0001
0100
0000
0001
0100
0000
0020
0000
0000
0000
,
2030
3200
0310
2002
,
0000
0000
0000
0000
,
0000
0000
0000
3003
;

//---------------dance-single - ----------------
#NOTES:
     dance-single:
     :
     Medium:
     13:
     0.553233,0.692138,0.284383,0.225834,0.171466,463.000000,429.000000,34.000000,27.000000,0.000000,0.000000,0.553233,0.692138,0.284383,0.225834,0.171466,463.000000,429.000000,34.000000,27.000000,0.000000,0.000000:
0000
0000
0000
0000
,
0000
0000
0000
0000
,
0000
0000
0000
0000
,
0000
0000
0000
0000
,
0000
0000
0000
0000
,
0000
0000
0000
0000
,
0000
0000
0000
0000
,
0000
0000
0000
0000
,
0000
0000
0000
0000
,
0010
0000
0000
0010
1000
0000
0010
0000
,
0000
1000
0010
0000
1001
0000
0001
0010
,
0001
0000
0000
0001
0100
0000
0001
0000
,
0000
0001
0100
0000
0010
1000
0001
0000
,
1000
0000
0000
0001
1000
0000
0001
0000
,
0000
0001
0100
0000
0010
0000
1010
0000
,
1000
0000
0000
0001
1000
0000
0001
0000
,
0002
0000
0023
0000
0130
1000
0100
0000
,
0010
0000
0001
0000
0001
0000
0000
1000
,
0000
1000
0010
0100
0010
1000
0001
0000
,
0000
0000
0010
0000
0010
0000
0000
0100
,
0000
0100
0010
0001
0100
0000
0010
0000
,
0000
0000
1000
0000
1000
0000
0000
0010
,
0000
0010
1000
0001
0100
0010
1000
0000
,
0000
0001
1000
0001
0010
0001
0100
0010
,
0000
0010
1000
0100
0010
0000
0001
0000
,
1001
0000
0001
0000
0101
0000
1000
0010
,
1000
0000
0001
0000
0100
0010
0100
0000
,
0110
0000
0010
0000
1010
0000
1000
0001
,
0000
0001
1000
0000
1100
0000
0100
0010
,
0001
0000
0010
0000
0110
0000
0100
1000
,
0000
1000
0010
0100
0010
1000
0001
0000
,
0100
0001
1000
0010
1000
0001
0100
0010
,
2000
3200
0320
0031
,
1000
0000
0010
0000
1000
0000
0001
0000
0100
0000
0000
0010
0000
0000
1000
0000
,
0001
0000
0010
0000
0001
0000
0100
0000
0010
0000
0000
1000
0000
0000
0100
0000
,
0010
0000
0001
0000
0010
0000
0100
0000
1000
0000
0000
0100
0000
0000
0010
0000
,
0001
0100
0010
1000
0100
0010
0001
1000
,
0100
0000
1000
0000
0100
0000
0010
0000
0001
0000
0000
1000
0000
0000
0010
0000
,
0100
0000
0001
0000
0100
0000
0010
0000
1000
0000
0000
0001
0000
0000
0010
0000
,
0100
0000
1000
0000
0100
0000
0010
0000
0001
0000
0000
0100
0000
0000
0010
0000
,
1000
0001
0100
0001
1000
0000
1000
0000
,
0001
0000
0000
0100
0001
0000
0010
0000
0001
0000
0000
1000
0000
0000
0001
0000
,
1000
0000
0000
0010
1000
0000
0100
0000
1000
0000
0000
0001
0000
0000
1000
0000
,
0010
0000
0000
0100
0010
0000
1000
0000
0100
0000
0000
0010
0000
0000
0001
0000
,
0100
0010
0100
0001
1000
0010
0100
0001
,
0010
0000
0000
0100
0010
0000
0001
0000
1000
0000
0000
0100
0000
0000
1000
0000
,
0010
0000
0000
1000
0010
0000
0100
0000
0001
0000
0000
0100
0000
0000
0001
0000
,
1000
0100
0010
0001
1000
0100
0010
0002
,
0000
0103
0010
0100
0001
1000
0001
0000
,
1001
0000
1001
0000
0001
0100
0010
2020
,
3030
0000
0000
0000
0000
0000
0000
0000
1000
0000
0000
0100
0000
0000
1000
0000
,
0010
0000
0000
0100
0000
0000
0010
0000
1000
0000
0000
0000
0001
0000
0000
1000
,
0000
0001
0020
0000
0030
0000
1100
0000
,
0101
0000
1000
0010
0010
0220
0330
0010
,
0100
0000
0001
0000
1000
0000
0010
1000
0000
0000
1000
0000
0001
0000
0100
0001
,
0000
0000
0001
0000
1000
0000
0100
1000
0000
0000
2000
0000
0000
0000
3001
0000
,
0010
0100
1000
0010
1000
0001
0000
0000
,
2002
3003
0001
0100
0010
2020
3030
1000
,
0100
0000
0010
0000
0001
0000
0000
0100
0000
0000
0001
0000
1000
0000
0000
0010
,
0000
0000
1000
0000
0001
0000
0000
1000
0000
0000
0001
0000
0100
0000
0000
0010
,
0000
1000
2002
3003
0000
0000
0110
0000
,
1010
0000
1000
0001
0001
0202
0303
0100
,
0001
0000
0100
0000
0010
0000
0100
0010
0000
0000
1000
0000
0001
0000
1000
0001
,
0000
0000
1000
0000
0100
0000
0010
0100
0000
0000
0010
0000
0002
0000
0000
0000
,
0203
0000
0310
1000
0001
0100
0010
0000
,
1010
0000
1001
0000
0100
0101
0000
0001
,
0010
0100
1000
0001
1000
0000
0010
0000
,
1100
0000
0101
0000
0001
0010
0001
1000
,
0100
1000
0010
0000
1000
0010
0100
0000
,
0101
0000
1000
0100
0100
0110
0000
0010
,
0100
0000
0010
0000
0001
0000
0100
0001
0000
0100
0001
0000
1000
0000
0010
0100
,
0000
0010
0100
0000
0001
0000
0010
0100
0000
0010
0100
0000
1000
0000
0100
0000
,
1000
0010
0100
0001
0010
0001
0000
0000
,
0110
0000
0100
1000
0010
1010
0000
1000
,
0010
0100
0010
1000
0001
0000
0100
0000
,
0101
0000
1010
0000
0010
0100
0000
0100
,
0001
0010
0001
0000
1000
0100
1000
0000
,
1010
0000
0100
0001
0001
0101
0000
0100
,
0010
0000
1000
0000
0100
0000
1000
0010
0000
1000
0010
0000
0100
0000
0001
1000
,
0000
0001
1000
0000
0100
0000
1000
0001
0000
1000
0001
0000
0020
0000
0000
0000
,
0230
2300
3001
2002
,
0000
0000
0000
0000
,
0000
0000
0000
3003
;

//---------------dance-single - ----------------
#NOTES:
     dance-single:
     :
     Easy:
     10:
     0.401482,0.449890,0.125463,0.192377,0.129645,336.000000,321.000000,15.000000,23.000000,0.000000,0.000000,0.401482,0.449890,0.125463,0.192377,0.129645,336.000000,321.000000,15.000000,23.000000,0.000000,0.000000:
0000
0000
0000
0000
,
0000
0000
0000
0000
,
0000
0000
0000
0000
,
0000
0000
0000
0000
,
0000
0000
0000
0000
,
0000
0000
0000
0000
,
0000
0000
0000
0000
,
0000
0000
0000
0000
,
0000
0000
0000
0000
,
1000
0000
0001
0000
0000
1000
0000
0000
,
0010
0000
1000
0000
0000
0001
0000
0000
,
0100
0000
0001
0000
0000
1000
0000
0000
,
0100
0010
0001
0010
,
0100
0000
1000
0000
0000
0010
0000
0000
,
0100
0000
0001
0000
0000
0010
0000
0000
,
0001
0000
1000
0000
0000
0001
0000
0000
,
0200
0000
0320
0000
1030
0001
1000
0000
,
0001
0000
0000
0001
0100
0000
0010
0000
,
0000
0010
1000
0100
,
1000
0000
0000
1000
0001
0000
1000
0000
,
0000
0100
0010
0001
,
0100
0000
0000
0100
0010
0000
0100
0000
,
0000
0100
0001
0000
,
1000
0000
0000
1000
0001
0000
0010
0000
,
0001
0010
0100
1000
,
1001
1000
0010
0100
,
0010
0000
1000
0000
0001
1000
0001
0000
,
0100
0001
0010
0001
,
1000
0000
0010
0000
1000
0000
0100
0010
,
0100
0010
0010
0001
,
1000
0100
0100
1000
,
0010
0000
1000
0000
0001
0000
0100
0020
,
0000
0030
1000
0000
0001
0000
1000
0000
,
0100
0000
0000
0000
0100
0000
0000
0000
0010
0000
0000
0010
0000
0000
0010
0000
,
0001
0000
0000
0000
0001
0000
0000
0000
0100
0000
0000
0100
0000
0000
0100
0000
,
0010
0000
0000
0000
0010
0000
0000
0000
1000
0000
0000
1000
0000
0000
1000
0000
,
0001
1000
0001
0000
1000
0010
1000
0000
,
0001
0000
0000
0000
0001
0000
0000
0000
0010
0000
0000
0010
0000
0000
0010
0000
,
0100
0000
0000
0000
0100
0000
0000
0000
1000
0000
0000
1000
0000
0000
1000
0000
,
0010
0000
0000
0000
1000
0000
0000
0000
0010
0000
0000
0010
0000
0000
0010
0000
,
0200
0302
1003
1000
,
0010
0000
0000
0000
1000
0000
0000
0000
0001
0000
0000
1000
0000
0000
0001
0000
,
1000
0000
0000
0000
0010
0000
0000
0000
1000
0000
0000
0100
0000
0000
1000
0000
,
0100
0000
0000
0000
0010
0000
0000
0000
0001
0000
0000
0100
0000
0000
0001
0000
,
0100
0010
0100
0000
0001
1000
0001
0000
,
1000
0000
0000
0000
0010
0000
0000
0000
1000
0000
0000
0010
0000
0000
1000
0000
,
0100
0000
0000
0000
0010
0000
0000
0000
0001
0000
0000
0010
0000
0000
0001
0000
,
0100
0000
0000
0000
0100
0000
0000
0000
0010
0000
0000
0010
0000
0000
0020
0000
,
0000
0000
1030
0000
1000
0100
0010
0000
,
0011
0000
0011
0000
1001
0000
0000
2200
,
3300
0000
0000
0000
0000
0000
0000
0000
1000
0000
0000
1000
0000
0000
1000
0000
,
0001
0000
0000
0001
0000
0000
0001
0000
1000
0000
0000
0000
1000
0000
0000
1000
,
0000
1000
0010
0000
0000
0000
1001
0000
,
1001
0000
0010
0001
0010
0002
0000
0003
,
1000
0000
0000
0000
0100
0000
0000
0100
0000
0000
0100
0000
0010
0000
0000
0010
,
0000
0000
0010
0000
0100
0000
0000
0100
0000
0000
0200
0000
0000
0000
0300
0000
,
1000
0000
0100
0010
0001
0000
0000
0000
,
1001
0000
0000
0010
1000
0010
0000
0000
,
1000
0000
0000
0000
0100
0000
0000
0100
0000
0000
0100
0000
1000
0000
0000
1000
,
0000
0000
1000
0000
0010
0000
0000
0010
0000
0000
0010
0000
1000
0000
0000
1000
,
0000
1000
0002
0003
0000
0000
0011
0000
,
0011
0000
0000
0100
0001
0200
0300
0000
,
0110
0000
0000
0000
0010
0000
0000
0010
0000
0000
0010
0000
1000
0000
0000
1000
,
0000
0000
1000
0000
0001
0000
0000
0001
0000
0000
0001
0000
2000
0000
0000
0000
,
3002
0000
0103
0010
1000
0001
0100
0000
,
0010
0000
0010
0000
0000
1001
0000
1000
,
0001
0000
1000
0001
0100
0000
0010
0000
,
1000
0000
0001
0000
0000
0001
0000
0001
,
0010
0001
0100
0000
0010
0000
1000
0000
,
0010
0000
0100
0010
0010
1000
0000
1000
,
0001
0000
0000
0000
0010
0000
0000
0010
0000
0000
0010
0000
0001
0000
0000
0001
,
0000
0000
0001
0000
0100
0000
0000
0100
0000
0000
0100
0000
0020
0000
0000
0000
,
2030
3200
0320
0030
,
1001
0000
1000
0000
0000
1010
0000
0010
,
0100
0000
0001
0100
0001
0000
1000
0000
,
0010
0000
1000
0000
0000
0100
0000
0100
,
1000
0100
0010
0000
0001
0000
0001
0000
,
1000
0000
0010
1000
1000
0001
0000
0001
,
1000
0000
0000
0000
0100
0000
0000
0100
0000
0000
0100
0000
1000
0000
0000
1000
,
0000
0000
1000
0000
0010
0000
0000
0010
0000
0000
0010
0000
0200
0000
0000
0000
,
0302
2003
3010
2002
,
0000
0000
0000
0000
,
0000
0000
0000
3003
;

//---------------dance-single - ----------------
#NOTES:
     dance-single:
     :
     Beginner:
     7:
     0.287968,0.337705,0.083642,0.000000,0.000000,241.000000,231.000000,10.000000,0.000000,0.000000,0.000000,0.287968,0.337705,0.083642,0.000000,0.000000,241.000000,231.000000,10.000000,0.000000,0.000000,0.000000:
// measure 0
0000
0000
0000
0000
,  // measure 1
0000
0000
0000
0000
,  // measure 2
0000
0000
0000
0000
,  // measure 3
0000
0000
0000
0000
,  // measure 4
0000
0000
0000
0000
,  // measure 5
0000
0000
0000
0000
,  // measure 6
0000
0000
0000
0000
,  // measure 7
0000
0000
0000
0000
,  // measure 8
0000
0000
0000
0000
,  // measure 9
0010
0000
0010
1000
,  // measure 10
0000
1000
0001
0000
,  // measure 11
1000
0000
0001
0100
,  // measure 12
0000
0100
0010
0000
,  // measure 13
1000
0000
1000
0010
,  // measure 14
0000
0010
0100
0000
,  // measure 15
0001
0000
1000
0001
,  // measure 16
1001
0000
0000
0000
,  // measure 17
0001
0000
0010
0000
,  // measure 18
0001
0100
0001
0000
,  // measure 19
1000
0000
0010
0000
,  // measure 20
0100
0010
0100
0010
,  // measure 21
1000
0000
0001
0000
,  // measure 22
1000
0001
1000
0000
,  // measure 23
0010
0000
1000
0000
,  // measure 24
0100
0100
0010
0010
,  // measure 25
0001
1000
0001
0000
,  // measure 26
0100
0010
0100
0000
,  // measure 27
0010
1000
0010
0000
,  // measure 28
1000
0001
1000
0000
,  // measure 29
0100
0000
0010
0000
,  // measure 30
0001
0010
0001
0000
,  // measure 31
0001
0100
0010
1000
,  // measure 32
1001
0000
0000
0000
,  // measure 33
1000
0010
1000
0000
,  // measure 34
1000
0001
0100
0000
,  // measure 35
0001
0100
0001
0000
,  // measure 36
0001
0000
0000
1000
0000
0000
0001
0000
,  // measure 37
1000
1000
0001
0000
,  // measure 38
1000
0010
1000
0000
,  // measure 39
0100
0010
0001
0000
,  // measure 40
0100
0010
1000
0000
,  // measure 41
0010
0010
0010
1000
,  // measure 42
0001
0001
1000
0001
,  // measure 43
1000
1000
1000
0100
,  // measure 44
1000
0010
1000
0001
,  // measure 45
1000
0100
1000
1000
,  // measure 46
0001
0100
0010
0010
,  // measure 47
0100
0001
0010
0100
,  // measure 48
1000
0000
0000
0000
,  // measure 49
1001
0000
1001
0000
0000
0000
0000
0110
,  // measure 50
0000
0000
0010
1000
,  // measure 51
0100
0100
0010
0010
,  // measure 52
0001
1000
0001
0100
,  // measure 53
0100
0000
0000
0010
0010
0010
0000
0000
,  // measure 54
0010
0000
1010
0000
0000
1000
1000
0000
,  // measure 55
0000
0001
0001
0000
0000
0010
0010
0000
,  // measure 56
0100
1000
0001
0000
,  // measure 57
1001
0000
0100
0010
,  // measure 58
0000
0100
0001
1000
,  // measure 59
1000
0001
0001
1000
,  // measure 60
1000
0010
0000
1000
,  // measure 61
1000
0000
0000
0001
0001
0001
0000
0000
,  // measure 62
0010
0000
0100
0000
0000
0100
0100
0000
,  // measure 63
0000
1000
1000
0000
0000
0010
0010
0000
,  // measure 64
1000
0001
0000
1001
,  // measure 65
1000
1000
0000
0001
,  // measure 66
0010
0001
0100
0010
,  // measure 67
0100
0010
0000
1000
,  // measure 68
0010
1000
0001
1000
,  // measure 69
1000
0000
0000
0100
0100
0100
0000
0000
,  // measure 70
0010
0000
0001
0000
0000
1000
1000
0000
,  // measure 71
0000
0010
0010
0000
0000
0100
0100
0000
,  // measure 72
0001
1000
0010
0000
,  // measure 73
1001
0000
0000
0100
0000
0001
0000
0000
,  // measure 74
0001
1000
0010
1000
,  // measure 75
0100
0010
0001
0100
,  // measure 76
0001
1000
0000
0010
,  // measure 77
0010
0000
0000
1000
1000
1000
0000
0000
,  // measure 78
1000
0000
0001
0000
0000
0100
0100
0000
,  // measure 79
0000
0010
0010
0000
0000
1000
1000
0000
,  // measure 80
0001
0010
0100
1001
;
