#VERSION:0.83;
#TITLE:Troubled;
#SUBTITLE:(Fairlane Remix);
#ARTIST:Elephante feat. Deb's Daughter;
#TITLETRANSLIT:;
#SUBTITLETRANSLIT:;
#ARTISTTRANSLIT:;
#GENRE:;
#ORIGIN:;
#CREDIT:;
#BANNER:Troubled (Fairlane Remix).png;
#BACKGROUND:Troubled (Fairlane Remix)-bg.png;
#PREVIEWVID:;
#JACKET:Troubled (Fairlane Remix)-jacket.png;
#CDIMAGE:;
#DISCIMAGE:;
#LYRICSPATH:;
#CDTITLE:;
#MUSIC:Troubled (Fairlane Remix).ogg;
#OFFSET:-0.182243;
#SAMPLESTART:61.222206;
#SAMPLELENGTH:17.454544;
#SELECTABLE:YES;
#BPMS:0.000=110.000,
127.500=27.500,
127.750=110.000,
157.750=27.500,
158.000=110.000;
#STOPS:115.000=0.273,
129.750=0.273,
145.250=0.273,
160.000=0.273;
#DELAYS:;
#WARPS:;
#TIMESIGNATURES:0.000=4=4;
#TICKCOUNTS:0.000=4;
#COMBOS:0.000=1;
#SPEEDS:0.000=1.000=0.000=0;
#SCROLLS:0.000=1.000;
#FAKES:;
#LABELS:0.000=Song Start;
#BGCHANGES:;
#KEYSOUNDS:;
#ATTACKS:
;

//---------------dance-single - ----------------
#NOTEDATA:;
#CHARTNAME:;
#STEPSTYPE:dance-single;
#DESCRIPTION:;
#CHARTSTYLE:;
#DIFFICULTY:Hard;
#METER:13;
#RADARVALUES:0.477191,0.631760,0.187947,0.299007,0.670631,391.000000,369.000000,22.000000,35.000000,0.000000,0.000000,0.000000,0.000000,0.000000,0.477191,0.631760,0.187947,0.299007,0.670631,391.000000,369.000000,22.000000,35.000000,0.000000,0.000000,0.000000,0.000000,0.000000;
#CREDIT:;
#NOTES:
// measure 0
0000
0000
0000
0000
,  // measure 1
0000
0000
0000
0000
,  // measure 2
0000
0000
0000
0000
,  // measure 3
0000
0000
0000
0000
0000
0000
0000
1000
,  // measure 4
1000
0000
0010
0000
1000
0000
0100
1000
0100
0000
0010
0000
0020
0000
0000
0000
,  // measure 5
0001
0000
0000
0001
0000
0000
0001
0000
0000
0000
0000
0100
0000
0000
0130
0000
,  // measure 6
1000
0000
0001
0010
0001
0100
0000
0100
0010
1000
0010
0000
0200
0000
0000
0000
,  // measure 7
0001
0000
0000
0001
0000
0000
0001
0000
0000
0000
0000
0010
0000
0000
0310
0000
,  // measure 8
1000
0000
0010
0000
0100
0000
0010
0100
0010
0000
1000
0000
0001
0000
2000
0000
,  // measure 9
0000
0000
0000
0100
0000
0000
0100
0000
0000
0000
0000
0010
0000
0000
3010
0000
,  // measure 10
0100
0000
0010
0100
0000
0100
0001
0000
0010
0000
0100
0000
1000
0000
0000
0000
,  // measure 11
0002
0000
0000
0100
0000
0000
0013
0000
0001
0000
1000
0000
0100
0000
0010
0000
,  // measure 12
0110
0000
0000
0010
0100
0000
1000
0000
0001
1000
0000
0001
1000
0000
0010
0000
,  // measure 13
1000
0000
0000
0010
0100
0000
0101
0000
0000
0010
0000
0100
0010
0000
1000
0000
,  // measure 14
0001
0000
0000
0010
0000
0000
0010
0000
0100
0010
0000
0100
1000
0000
0010
0000
,  // measure 15
1000
0000
0000
0001
0000
0000
0100
0000
0010
0100
0000
0001
1000
0000
0010
0000
,  // measure 16
1000
0000
0000
0001
0000
0000
1010
0000
0000
0010
0000
1000
0010
0000
0100
0010
,  // measure 17
0100
0000
0000
0001
0100
0000
1000
0000
0100
0010
0000
0100
0001
1000
0000
1000
,  // measure 18
0100
0000
0000
0010
0000
0000
1100
0000
0000
0001
0000
1000
0001
0000
1000
0001
,  // measure 19
0100
0000
0000
0010
0100
0000
0001
0000
1000
0000
0100
0010
0000
0100
0000
0000
,  // measure 20
2000
0000
0000
0000
3001
0200
0000
0000
0301
0020
0000
0000
0031
2000
0000
0000
,  // measure 21
3010
0000
0000
0000
0200
0000
0000
0020
0000
0000
0000
0000
0330
0000
0000
0000
,  // measure 22
0020
0000
0000
0000
1030
0200
0000
0000
1300
0020
0000
0000
1030
0002
0000
0000
,  // measure 23
1003
0000
0000
0000
0020
0000
0000
0200
0000
0000
0000
0000
0330
0000
0000
0000
,  // measure 24
0010
0000
0000
0000
0100
2000
0000
0000
3100
0002
0000
0000
0103
2000
0000
0000
,  // measure 25
3001
0000
0000
0000
0001
0000
0100
0000
0100
0000
0010
0100
0000
0001
0000
0000
,  // measure 26
1000
0000
0000
0000
0001
0100
0000
0000
0010
1000
0000
0000
0001
0100
0000
0000
,  // measure 27
2000
0000
0000
0002
0000
3000
2000
0000
0000
0000
3003
0000
0110
0000
0000
0000
,  // measure 28
0010
1000
0000
0010
0100
0000
0001
0100
0000
0010
1000
0000
1001
0000
0001
0010
,  // measure 29
0000
0100
1000
0000
0001
0100
0000
0010
1000
0000
1100
0000
0100
0000
0010
0001
,  // measure 30
0010
0001
0010
0000
0100
0000
0010
0100
0010
0100
1000
0000
1000
0000
0100
0010
,  // measure 31
0100
1000
0001
0000
1000
0000
0010
0000
0100
0010
0000
0010
0100
0000
0102
1003
,  // measure 32
0000
0010
1000
0000
0001
0100
0000
0110
0000
1000
0001
0000
0010
0100
0000
0010
,  // measure 33
0001
0000
1000
0100
0000
0010
0000
0100
0000
1000
0100
1000
0010
0100
0000
0010
,  // measure 34
0000
0100
0001
0100
0010
1000
0000
0001
0000
1000
0001
1000
0001
0010
0000
1100
,  // measure 35
0000
0100
1000
0100
0010
0001
1000
0010
0100
0010
0000
1000
0000
1010
0000
0100
,  // measure 36
0000
0010
0000
0011
0000
1001
0000
1001
0000
1000
0000
0010
0000
0100
0001
0100
,  // measure 37
0000
0010
0000
1000
0000
0100
0001
0100
0010
0100
0010
0100
0000
1000
0000
0010
,  // measure 38
1000
0010
0100
0001
0000
1000
0000
0001
0010
0001
0010
0001
0000
0010
0000
0100
,  // measure 39
1000
0100
0010
0100
0010
0001
0000
1020
0130
0000
0101
0000
0001
0000
0101
0000
,  // measure 40
1010
0000
1100
0000
0001
0000
1100
0000
1001
0000
0010
0000
1000
0000
0001
0010
,  // measure 41
0000
0100
1000
0100
0010
0001
0100
0000
0001
0000
0100
0001
0100
0010
1000
0000
,  // measure 42
0010
0000
0100
0010
0000
1000
0001
0000
0010
0100
0010
0100
1000
0010
1000
0001
,  // measure 43
1000
0001
0200
0000
0000
0010
0000
0000
0010
0000
0000
0000
0000
0001
0000
0000
,  // measure 44
0301
0000
0020
0000
0000
0100
0000
0000
0100
0000
0000
0000
0000
0001
0000
0000
,  // measure 45
0031
0000
2000
0000
0000
0010
0000
0000
0010
0000
0000
0000
0000
0100
0000
0000
,  // measure 46
3100
0000
0002
0000
0000
1000
0000
0000
1000
0000
0000
0000
0000
0010
0000
0000
,  // measure 47
0013
0200
0000
0020
0000
0030
2000
0000
,  // measure 48
3300
2002
0000
0000
0000
0000
0000
3003
,  // measure 49
0000
2000
0000
0000
0000
0002
0000
0000
,  // measure 50
3003
0000
0010
0000
0000
0100
0000
0000
1000
0000
0000
0000
0010
0100
0000
0000
,  // measure 51
0100
0000
0000
0000
;

//---------------dance-single - ----------------
#NOTEDATA:;
#CHARTNAME:;
#STEPSTYPE:dance-single;
#DESCRIPTION:;
#CHARTSTYLE:;
#DIFFICULTY:Medium;
#METER:8;
#RADARVALUES:0.289244,0.304240,0.034172,0.145232,0.303279,237.000000,233.000000,4.000000,17.000000,0.000000,0.000000,0.000000,0.000000,0.000000,0.289244,0.304240,0.034172,0.145232,0.303279,237.000000,233.000000,4.000000,17.000000,0.000000,0.000000,0.000000,0.000000,0.000000;
#CREDIT:;
#NOTES:
0000
0000
0000
0000
,
0000
0000
0000
0000
,
0000
0000
0000
0000
,
0000
0000
0000
0000
,
0100
1000
0100
1000
0010
0100
0100
0000
,
0010
1000
0000
0001
,
0010
0001
0010
0000
0010
0100
0100
0000
,
1000
0000
0010
0000
0000
0000
0010
0100
,
0100
0001
1000
0010
1000
0100
0100
0000
,
0010
0000
0001
0000
0000
0000
0001
1000
,
0010
1000
0100
0000
0100
1000
0010
0000
,
0100
0000
0001
0000
0000
0000
0001
1000
,
1000
0000
0000
0000
0010
0000
1000
0000
0000
1000
0000
0000
0100
0000
0000
0000
,
0010
0000
0000
0000
0001
0000
0100
0000
0000
0010
0000
0000
1000
0000
0000
0000
,
0010
0000
0000
0000
1000
0000
0001
0000
0000
1000
0000
0000
0100
0000
0000
0000
,
0001
0000
0000
0000
0100
0000
0010
0000
0000
0100
0000
0000
0001
0000
1000
0000
,
0001
0000
0000
0000
0010
0000
0100
0000
0000
0100
0000
0000
1000
0000
0000
0000
,
0100
0000
0000
0000
1000
0000
0001
0000
0000
0100
0000
0000
0010
0000
0000
0000
,
0010
0000
0000
1000
0000
0000
0001
0000
0000
0000
0000
0000
0000
0000
0000
0000
,
0100
0000
0000
0010
0000
0000
0010
0000
0000
0000
0010
0000
1000
0000
0000
0000
,
0000
0000
0000
0000
0001
1000
0000
0000
0001
1000
0000
0000
0001
1000
0000
0000
,
0000
0000
0000
0000
0010
0000
0000
0200
0000
0000
0000
0000
0000
0000
0000
0000
,
0300
0000
0000
0000
0010
0001
0000
0000
0010
0001
0000
0000
0010
0001
0000
0000
,
0000
0000
0000
0000
0100
0000
0000
2000
0000
0000
0000
0000
0000
0000
0000
0000
,
3010
0000
0000
0000
0100
0010
0000
0000
0100
0010
0000
0000
0100
0010
0000
0000
,
1000
0000
0000
0000
0001
0000
0000
2000
0000
0000
0100
0000
0100
0000
0000
0000
,
3010
0000
0000
0000
0100
0001
0000
0000
0100
0001
0000
0000
0100
0001
0000
0000
,
0001
0000
0000
0010
0000
0000
0010
0000
0000
0000
0000
0000
1001
0000
0000
0000
,
1000
0000
0000
0010
0000
0000
0100
0000
0000
0001
0000
0000
0110
0000
1000
0000
,
0000
0001
0000
0000
0010
0000
0000
0001
0000
0000
0100
0000
0010
0000
1000
0000
,
0000
0000
0002
0000
1000
0000
1000
0000
0000
1000
0000
0000
1000
0000
0103
0000
,
0000
0000
0000
0000
0010
0000
0100
0000
0010
0000
1000
0000
0000
0000
0200
0300
,
0000
0010
0000
0000
1000
0000
0000
1001
0000
0001
0000
0000
0100
0000
0000
0010
,
0000
0000
0100
0000
0000
0010
0000
1000
0000
0100
0000
0000
0000
0020
0000
0001
,
0000
0001
0000
0000
0001
0000
0000
0001
0000
0130
0000
0000
0000
0100
0000
1000
,
0000
0100
0000
1000
0000
0100
0000
0000
0000
0020
0000
0000
0000
0031
0000
2000
,
0000
0000
0000
0010
0000
3010
0000
0001
0000
0000
0000
1000
0000
0001
0000
0000
,
0000
0001
0000
1000
0000
0000
0000
0010
0000
0000
0000
1000
0010
0000
0000
1000
,
0010
0000
0000
1000
0010
0000
0000
0100
0000
0000
0000
0001
0000
0010
0000
0010
,
0000
0000
0010
0000
0000
0001
0000
2000
3020
0000
0000
0000
0030
0000
0010
0000
,
1000
0100
0000
0010
0100
0010
0000
0011
,
0000
0000
1000
0000
0000
0000
0001
0100
0000
0000
0001
0100
0000
0000
0001
0100
,
0000
0000
0010
0000
0000
1000
0000
0000
0001
0000
0000
0000
0010
0000
0001
0000
,
0000
2000
0000
0010
0000
0000
0000
3010
,
0000
0002
0000
0100
0000
0000
0000
0103
,
0000
0020
0000
0100
0000
0000
0000
0130
,
0000
0002
0000
0010
0000
0000
0000
0013
,
0000
2000
0000
0010
0000
0000
0001
3000
,
0000
0200
0000
0010
0000
0000
0000
0310
,
0000
0010
0000
0002
0000
0000
0000
1003
,
0000
0000
1000
0000
0000
0001
0000
0000
1000
0000
0000
0000
1000
0000
0001
0000
;

//---------------dance-single - ----------------
#NOTEDATA:;
#CHARTNAME:;
#STEPSTYPE:dance-single;
#DESCRIPTION:;
#CHARTSTYLE:;
#DIFFICULTY:Easy;
#METER:4;
#RADARVALUES:0.158657,0.195583,0.034172,0.128146,0.106788,130.000000,126.000000,4.000000,15.000000,0.000000,0.000000,0.000000,0.000000,0.000000,0.158657,0.195583,0.034172,0.128146,0.106788,130.000000,126.000000,4.000000,15.000000,0.000000,0.000000,0.000000,0.000000,0.000000;
#CREDIT:;
#NOTES:
0000
0000
0000
0000
,
0000
0000
0000
0000
,
0000
0000
0000
0000
,
0000
0000
0000
0000
,
0010
0000
1000
0001
,
0100
0000
0001
0010
,
0001
0000
1000
1000
,
0010
0000
1000
0000
,
0001
0010
0100
0100
,
1000
0000
0001
0000
,
0100
0001
0100
0000
,
0001
1000
0001
0000
,
1000
0000
0000
0010
0000
0000
0010
0000
,
0100
0000
0000
0100
0000
0000
0001
0000
,
1000
0000
0000
0001
0000
0000
1000
0000
,
0010
0000
0000
0010
0000
0000
0000
0000
,
0100
0000
0000
0100
0000
0000
0000
0000
,
0001
0000
0000
1000
0000
0000
0000
0000
,
1000
0000
0000
0010
0000
0000
0010
0000
,
0100
0000
0000
0001
0000
0000
1000
0000
,
2000
0010
0000
3010
,
0000
0110
0000
1001
,
0002
0010
0000
0013
,
0000
0110
0000
0100
,
2000
0001
0000
3001
,
0020
1000
0000
1030
,
0001
1000
0010
0100
,
0001
0000
0000
1001
,
1000
0000
0000
0000
0000
0000
0000
0000
0000
0000
0000
0000
0001
0000
0000
0000
0000
0000
0000
0000
0000
0000
0000
0000
0200
0300
0000
0000
0010
0000
0000
0000
,
0000
0000
1000
0000
0000
0001
0000
0100
,
0000
0010
0000
0100
0000
0010
0000
1000
,
0000
0000
0001
0000
0000
1000
0000
0000
,
0000
0000
0010
0000
0000
0000
0000
0000
0000
0000
0000
0000
0000
0000
0200
0300
0000
0000
0010
0000
0000
0000
0000
0000
0000
0000
0000
0000
0000
0000
1000
0000
,
0000
0000
0000
0000
0000
0001
0000
0000
0000
0100
0000
0000
0000
0001
0000
0000
,
0000
0100
0000
0000
0000
0001
0000
0000
0000
0010
0000
0000
0000
0000
0000
0100
,
0000
0000
0000
0000
0000
1000
0000
0000
0000
0010
0000
0000
0000
0000
0000
1000
,
0000
0000
0000
0000
0000
0000
0000
0000
0000
0000
0002
0003
0000
0000
1000
0000
0000
0000
0000
0000
0000
0000
0000
0000
0000
0000
0100
0000
0000
0000
0000
0000
,
0000
0000
0000
0010
0000
0000
0000
1000
0000
0000
0000
0001
0000
0000
0000
1000
,
0000
0000
0000
0001
0000
0000
0000
0100
0000
0000
0000
0000
0000
0010
0000
0000
,
0000
0000
0000
1000
0000
0000
0000
0000
0000
0000
0001
0000
0000
0000
0000
0000
,
2000
3000
0000
0000
0010
0000
0000
0000
0000
0000
0000
0000
0000
0000
0000
0000
0100
0000
0000
0000
0000
0000
0000
0000
0000
0000
0000
0000
0100
0000
0000
0000
,
0000
0001
0000
0010
0000
0001
0000
0010
,
0000
0001
0000
0000
1000
0000
0000
0010
,
0000
0200
0000
0000
0000
0000
0000
0000
,
0000
0320
0000
0000
0000
0000
0000
0000
,
0000
0032
0000
0000
0000
0000
0000
0000
,
0000
2003
0000
0000
0000
0000
0000
0000
,
0000
3200
0000
0000
0000
0000
0000
0000
,
0000
0320
0000
0000
0000
0000
0000
0000
,
0000
0032
0000
0000
0000
0000
0000
0000
,
0000
1003
0000
0000
0001
0000
0000
1000
;

//---------------dance-single - ----------------
#NOTEDATA:;
#CHARTNAME:;
#STEPSTYPE:dance-single;
#DESCRIPTION:;
#CHARTSTYLE:;
#DIFFICULTY:Beginner;
#METER:2;
#RADARVALUES:0.111060,0.152120,0.042715,0.000000,0.064073,91.000000,86.000000,5.000000,0.000000,0.000000,0.000000,0.000000,0.000000,0.000000,0.111060,0.152120,0.042715,0.000000,0.064073,91.000000,86.000000,5.000000,0.000000,0.000000,0.000000,0.000000,0.000000,0.000000;
#CREDIT:;
#NOTES:
0000
0000
0000
0000
,
0000
0000
0000
0000
,
0000
0000
0000
0000
,
0000
0000
0000
0000
,
0010
0000
0000
0000
,
1000
0000
0000
0000
,
0001
0000
0000
0000
,
0001
0000
0000
0000
,
0010
0000
0000
0000
,
0100
0000
0000
0000
,
0010
0000
0000
0000
,
0001
0000
0000
0000
,
1000
0000
0010
0000
,
0010
0000
0100
0000
,
0001
0000
1000
0000
,
1000
0000
0001
0000
,
0010
0000
0001
0000
,
0100
0000
0010
0000
,
1000
0000
1000
0000
,
0001
0000
0100
0000
,
0000
0010
0010
0010
,
0000
0010
0000
0000
,
0000
1000
1000
1000
,
0000
1000
0000
0000
,
0000
0001
0001
0001
,
0000
0001
0000
0000
,
0000
0100
0100
0100
,
0000
0000
0000
1001
,
0000
0000
0000
0110
,
0000
0001
0000
0000
0000
1000
0000
0000
,
0000
1000
0000
0000
0000
0001
0000
0000
,
0000
1000
0000
0000
0000
0010
0000
0000
,
0000
0000
0000
0000
0000
0000
0000
1001
0000
0000
0000
0000
0000
0010
0000
0000
,
0000
0000
0000
0000
0000
0100
0000
0000
0000
0000
0000
0000
0000
0001
0000
0000
,
0000
0000
0000
0000
0000
1000
0000
0000
0000
0000
0000
0000
0000
0001
0000
0000
,
0000
0000
0000
0000
0000
0100
0000
0000
0000
0000
0000
0000
0000
0000
0000
0000
,
0000
0000
0000
0000
0000
0110
0000
0000
0000
0000
0000
1000
0000
0000
0000
0000
,
0000
0000
0000
0001
0000
0000
0000
0000
0000
0000
0000
1000
0000
0000
0000
1000
,
0000
0000
0000
1000
0000
0000
0000
0000
0000
0000
0000
0100
0000
0000
0000
0000
,
0000
0000
0000
0010
0000
0000
0000
0000
0000
0000
0000
0000
0000
0000
0000
0000
,
1001
0000
0000
0001
0000
0000
0000
0010
,
0000
0000
0000
0001
0000
0001
0000
0001
,
0000
0000
0000
0100
0000
0000
0000
0010
,
0000
0000
0000
0010
0000
0000
0000
0010
,
0000
0000
0000
0100
0000
0000
0000
0100
,
0000
0000
0000
0010
0000
0000
0000
0010
,
0000
0000
0000
1000
0000
0000
0000
1000
,
0000
0000
0000
0001
0000
0000
0000
0001
,
0000
0000
0000
0100
0000
0000
0000
0010
,
0000
0000
0000
1000
0000
0000
0000
0001
,
0000
0000
0000
0100
0000
0000
0000
0001
;
