#TITLE:Tropicana;
#SUBTITLE:;
#ARTIST:813 feat. Della;
#TITLETRANSLIT:;
#SUBTITLETRANSLIT:;
#ARTISTTRANSLIT:;
#GENRE:;
#CREDIT:;
#BANNER:banner.png;
#BACKGROUND:background.png;
#LYRICSPATH:;
#CDTITLE:;
#MUSIC:Tropicana.ogg;
#OFFSET:-0.160426;
#SAMPLESTART:87.431297;
#SAMPLELENGTH:17.454544;
#SELECTABLE:YES;
#BPMS:0.000000=110.000000
;
#STOPS:
;
#BGCHANGES:;
#KEYSOUNDS:;
#ATTACKS:;

//---------------dance-single - ----------------
#NOTES:
     dance-single:
     :
     Beginner:
     1:
     0.112677,0.154980,0.041512,0.000000,0.000000,114.000000,108.000000,6.000000,0.000000,0.000000,0.000000,0.112677,0.154980,0.041512,0.000000,0.000000,114.000000,108.000000,6.000000,0.000000,0.000000,0.000000:
0000
0000
0000
0000
,
0000
0000
0000
0000
,
0000
0000
0000
0000
,
0000
0000
0000
0000
,
0000
0000
0000
0000
,
0000
0000
0000
0000
,
0000
0000
0000
0000
,
0000
0000
0000
0000
,
0010
0000
1000
0000
,
0100
0000
0000
0000
,
0100
0000
0010
0000
,
0001
0000
0001
0000
,
0010
0000
0001
0000
,
0100
0000
0000
0000
,
0010
0000
1000
0000
,
1001
0000
0000
0000
,
0010
0000
0100
0100
,
0100
0000
1000
1000
,
1000
0000
0001
0000
,
0010
0000
0001
0000
,
0100
0000
0001
0001
,
0001
0000
0010
0010
,
0010
0000
0001
0000
,
0100
0000
0000
0000
,
1001
0000
0000
0010
,
0010
0000
0000
0000
,
1000
0000
0000
0100
,
0100
0000
0010
0000
,
0110
0000
0000
0001
,
0001
0000
0000
0000
,
0100
0000
0000
0010
,
0010
0000
1000
0000
,
0001
0000
1000
0000
,
0010
0000
0000
0000
,
0100
0000
0001
0000
,
1000
0000
0000
0000
,
0100
0000
0010
0000
,
0100
0000
0000
0000
,
0010
0000
0001
0000
,
1000
0000
0000
0000
,
1000
0000
0010
0010
,
0010
0000
0100
0100
,
0100
0000
0010
0000
,
1000
0000
0001
0000
,
1000
0000
0010
0010
,
0010
0000
0100
0100
,
0100
0000
0001
0000
,
0010
0000
0000
0000
,
0110
0000
0000
1000
,
1000
0000
0000
0000
,
0010
0000
0000
0100
,
0100
0000
0001
0000
,
1001
0000
0000
0100
,
0100
0000
0000
0000
,
0010
0000
0000
1000
,
1000
0000
0001
0000
,
1000
0000
0001
0000
,
0001
0000
0001
0000
,
0010
0000
0100
0000
,
0100
0000
0100
0000
,
0001
0000
1000
0000
,
1000
0000
1000
0000
,
0100
0000
0010
0000
,
0010
0000
0010
0000
,
1001
0000
0000
0000
;

//---------------dance-single - ----------------
#NOTES:
     dance-single:
     :
     Easy:
     4:
     0.198667,0.287820,0.159131,0.000000,0.000000,201.000000,178.000000,23.000000,0.000000,0.000000,0.000000,0.198667,0.287820,0.159131,0.000000,0.000000,201.000000,178.000000,23.000000,0.000000,0.000000,0.000000:
0000
0000
0000
0000
,
0000
0000
0000
0000
,
0000
0000
0000
0000
,
0000
0000
0000
0000
,
0000
0000
0000
0000
,
0000
0000
0000
0000
,
0000
0000
0000
0000
,
0000
0000
0000
0000
,
0010
1000
0010
0000
,
0100
0000
0100
0000
,
0010
0100
0010
0000
,
0100
0000
0001
0001
,
1000
0001
1000
0000
,
0010
0000
0100
0000
,
0010
1000
0010
0000
,
1001
0000
1000
1000
,
0001
0000
0010
0100
,
0010
0000
0001
0100
,
0010
0000
0010
1000
,
0001
1000
0100
0000
,
0110
0000
0010
0001
,
0010
0000
0100
0100
,
0100
0000
1000
0010
,
1000
0000
0001
0000
,
1001
0010
0010
0010
,
0110
0100
0100
0100
,
1100
1000
1000
1000
,
1010
0010
1000
0001
,
0101
0100
0100
0100
,
0110
0010
0010
0010
,
1010
1000
1000
1000
,
1001
0001
0010
0001
,
0100
0100
0010
0000
,
0010
0010
1000
0000
,
1000
1000
0001
0000
,
0010
0010
0001
0001
,
0100
0100
0001
0000
,
0010
0010
0100
0000
,
0100
0100
1000
0000
,
1001
0000
1000
0010
,
1000
0000
0001
1000
,
0100
0000
0010
0010
,
0010
0000
0010
0001
,
0100
0000
0010
0000
,
1000
0000
0010
0010
,
1000
0000
0100
0100
,
0100
0000
0010
0010
,
0001
0000
1000
0000
,
1001
1000
1000
1010
,
0110
0100
0100
0100
,
0110
0010
0010
0110
,
0101
0001
0010
0001
,
0011
0010
0010
0110
,
1100
1000
1000
1000
,
1001
0001
0001
0101
,
0110
0010
0010
0010
,
1000
0000
1000
0001
,
1000
0000
0100
0100
,
0010
0000
0010
0010
,
0001
0000
1000
0000
,
0010
0000
1000
1000
,
0001
0000
0100
0000
,
0010
0000
1000
1000
,
0001
0000
0010
0000
,
0100
0000
0000
0000
;

//---------------dance-single - ----------------
#NOTES:
     dance-single:
     :
     Medium:
     8:
     0.321227,0.354239,0.131456,0.089944,0.000000,325.000000,306.000000,19.000000,13.000000,0.000000,0.000000,0.321227,0.354239,0.131456,0.089944,0.000000,325.000000,306.000000,19.000000,13.000000,0.000000,0.000000:
0000
0000
0000
0000
,
0000
0000
0000
0000
,
0000
0000
0000
0000
,
0000
0000
0000
0000
,
0000
0000
0000
0000
,
0000
0000
0000
0000
,
0000
0000
0000
0000
,
0000
0000
0000
0000
,
1000
0000
0010
1000
0010
0000
0100
0000
,
0010
0000
0100
0001
0100
0000
0001
0000
,
1000
0000
0001
1000
0010
0000
1000
0000
,
0100
0000
1000
0000
0001
0000
0010
0010
,
0010
0000
0001
0000
0100
0000
0001
0100
,
0010
0000
0100
0000
0010
0000
1000
0001
,
1000
0000
0001
0000
0010
0000
0000
0010
,
0100
0000
0100
0000
0010
0100
1000
0000
,
2001
0000
3001
0000
0001
0001
0100
0010
,
0200
0000
0301
0000
0001
0001
0010
0100
,
0200
0000
0310
0000
0010
0001
1000
0010
,
1000
0000
0101
0000
1000
0001
0100
0000
,
2001
0000
3010
0000
0010
0010
0100
0010
,
2000
0000
3001
0000
0001
0001
0010
0100
,
0200
0000
0310
0000
0010
0001
0010
0001
,
0100
0000
0001
1000
0000
1010
0000
0000
,
0110
0000
0001
0100
0010
0100
0001
0100
,
0010
0000
0010
1000
0001
1000
0010
1000
,
0100
0000
0100
0010
0001
0010
0001
0010
,
0100
0000
0010
0100
1000
0000
1001
0000
,
1010
0000
0010
0100
0001
0100
0010
0000
,
1100
0000
0010
0001
0100
0001
0010
0000
,
1001
0000
0100
0001
0010
0001
0100
0010
,
1000
0000
0001
1000
0100
0000
0011
0000
,
1000
0000
0010
0000
1000
0010
0100
0000
,
0010
0000
1000
0000
0001
1000
0001
0000
,
0010
0000
0100
0000
0010
0000
0100
1000
,
0200
0000
0010
0000
0010
0000
1300
1000
,
0010
0000
0100
0000
1000
0000
0010
1000
,
0001
0000
0100
0000
0001
0000
0010
0100
,
0010
0000
0001
1000
0001
0000
1001
0000
,
1010
0000
0100
0000
0010
0100
0010
0000
,
2000
0000
3001
0000
0001
0001
0010
0001
,
0200
0000
0310
0000
0010
0010
1000
0100
,
0200
0000
1300
0000
0001
1000
0001
0100
,
0001
0000
0010
0100
0000
0110
0000
0000
,
2000
0000
3010
0000
0001
0001
0100
0010
,
2000
0000
3001
0000
0010
0010
0001
0100
,
0200
0000
0301
0000
0010
0001
0010
0001
,
0100
0000
0010
1000
0000
1001
0000
0000
,
1001
0000
0010
1000
0001
1000
0010
1000
,
0100
0000
0010
0001
1000
0001
0010
0100
,
1000
0000
0010
0100
1000
0010
1000
0010
,
0100
0000
1001
0000
0001
0010
0100
0000
,
0110
0000
0001
0100
1000
0100
0001
1000
,
0001
0000
1000
0100
0001
0100
1000
0010
,
0100
0000
0010
1000
0001
0100
0001
0100
,
0010
0000
1001
0000
1000
0100
0010
0000
,
0010
0100
0010
0001
,
0010
0000
0100
0000
1000
0001
1000
0010
,
0100
0010
0100
0001
,
1000
0001
0010
0100
,
0010
0001
1000
0001
,
0100
0000
0010
0000
0100
0010
1000
0000
,
0001
1000
0100
0010
,
0100
0010
0001
1000
,
1001
0000
0000
0000
;

//---------------dance-single - ----------------
#NOTES:
     dance-single:
     :
     Hard:
     10:
     0.397333,0.420659,0.131456,0.484312,0.162590,402.000000,383.000000,19.000000,70.000000,0.000000,0.000000,0.397333,0.420659,0.131456,0.484312,0.162590,402.000000,383.000000,19.000000,70.000000,0.000000,0.000000:
// measure 0
0000
0000
0000
0000
,  // measure 1
0000
0000
0000
0000
,  // measure 2
0000
0000
0000
0000
,  // measure 3
0000
0000
0000
0000
,  // measure 4
0000
0000
0000
0000
,  // measure 5
0000
0000
0000
0000
,  // measure 6
0000
0000
0000
0000
,  // measure 7
0000
0000
0000
0000
,  // measure 8
0110
0000
0100
1000
0010
0000
0010
1000
,  // measure 9
0001
0000
0010
0001
0010
0100
0010
0001
,  // measure 10
0100
0000
0010
1000
0001
0000
0100
0001
,  // measure 11
2000
0000
0010
0100
0100
0100
0100
3001
,  // measure 12
0010
0000
0001
0100
0001
0000
1000
0010
,  // measure 13
1000
0000
0100
0010
0001
0010
0100
1000
,  // measure 14
0010
0000
1000
0001
1000
0000
1010
0010
,  // measure 15
0100
0000
0010
0000
0100
0100
0001
0000
,  // measure 16
0010
0000
0000
0001
0010
0000
0100
0000
0010
0000
0100
0000
1000
0000
0001
0000
,  // measure 17
1000
0000
0000
0010
1000
0000
0010
0000
1000
0000
0001
0000
1000
0000
0100
0000
,  // measure 18
0010
0000
0000
0100
0010
0000
0001
0000
0100
0000
0001
0000
1000
0000
0010
0000
,  // measure 19
1000
0000
0000
0001
1000
0000
0001
0000
1000
0001
0000
0001
1000
0000
0010
0000
,  // measure 20
0100
0000
0000
0010
0100
0000
0001
0000
1000
0000
0100
0000
0010
0000
0001
0000
,  // measure 21
1000
0000
0000
0000
0001
0000
0000
0001
0100
0000
0010
0000
0100
0000
0001
0000
,  // measure 22
0001
0000
0000
0010
0001
0000
0010
0000
0100
0000
1000
0000
0010
0000
1000
0000
,  // measure 23
0002
0000
0100
0100
0000
2000
0000
3003
,  // measure 24
0220
0330
0020
1030
0020
1030
0200
0310
,  // measure 25
0022
0033
0002
1003
0002
1003
0020
0130
,  // measure 26
0202
0303
2000
3010
0200
0301
0200
0310
,  // measure 27
1010
0000
0000
0000
2000
0000
3100
0000
0010
0100
0000
1000
0000
1000
0100
0000
,  // measure 28
0220
0330
0020
0031
0020
0031
0200
0310
,  // measure 29
2020
3030
2000
3001
2000
3001
0020
0130
,  // measure 30
2200
3300
0002
0013
0200
1300
0200
0310
,  // measure 31
0011
0000
0000
0000
0002
0000
0013
0000
0100
0010
0000
0100
0000
0100
0010
0000
,  // measure 32
0001
0000
1000
0001
1000
0000
0010
1000
,  // measure 33
0100
0000
0010
0001
0010
0100
0010
0000
,  // measure 34
0001
0000
1000
0001
0100
0000
0010
0100
,  // measure 35
0010
0000
1000
0000
0001
0000
0010
0100
,  // measure 36
1000
0000
0001
1000
0001
0000
0010
0001
,  // measure 37
0100
0000
0010
1000
0001
1000
0100
0000
,  // measure 38
0010
0000
0100
0010
0001
0000
1000
0000
,  // measure 39
1001
0000
0002
0000
0010
0010
0013
0000
,  // measure 40
0001
0000
0000
1000
0001
0000
0100
0000
0010
0000
0010
0000
1000
0000
0001
0000
,  // measure 41
1000
0000
0000
0001
1000
0000
0100
0000
0010
0000
0010
0000
0001
0000
0100
0000
,  // measure 42
0100
0000
0000
0010
0100
0000
0010
0000
1000
0000
0001
0000
0100
0000
0010
0000
,  // measure 43
1000
0000
0000
0000
0010
0000
1000
0000
0001
1000
0000
1000
0001
0000
1000
0000
,  // measure 44
0010
0000
0000
0100
0010
0000
1000
0000
0001
0000
0001
0000
0010
0000
0100
0000
,  // measure 45
0010
0000
0000
0100
0010
0000
0100
0000
1000
0000
1000
0000
0010
0000
0100
0000
,  // measure 46
0100
0000
0000
0001
0100
0000
0001
0000
1000
0000
1000
0000
0010
0000
1000
0000
,  // measure 47
0001
0000
0010
0200
0000
0020
0000
0330
,  // measure 48
2002
3003
0002
1003
0002
1003
0020
0130
,  // measure 49
0202
0303
0002
1003
0002
1003
0200
0310
,  // measure 50
0022
0033
2000
3001
0020
0130
0020
0031
,  // measure 51
1100
0000
0000
0000
2000
0000
3100
0000
1000
0010
0000
0100
0000
0100
0010
0000
,  // measure 52
2002
3003
2000
3001
2000
3001
0200
0310
,  // measure 53
2020
3030
2000
3001
2000
3001
0020
0130
,  // measure 54
2200
3300
0002
1003
0200
0310
0200
1300
,  // measure 55
0011
0000
0000
0000
0002
0000
0013
0000
0001
0100
0000
0010
0000
0010
0100
0000
,  // measure 56
0001
0000
0000
0001
0000
0000
0001
0000
0010
0000
0000
0010
0000
0000
0010
0000
,  // measure 57
0100
0000
0000
0100
0000
0000
0100
0000
1000
0010
0000
1000
0010
0000
0100
0000
,  // measure 58
0001
0000
0000
0001
0000
0000
0001
0000
1000
0000
0000
1000
0000
0000
1000
0000
,  // measure 59
0010
0000
0000
0010
0000
0000
0010
0000
0100
0000
0000
0001
0000
0000
0000
0000
,  // measure 60
1000
0000
0000
1000
0000
0000
1000
0000
0100
0000
0000
0100
0000
0000
0100
0000
,  // measure 61
0010
0000
0000
0010
0000
0000
0010
0000
0001
0100
0000
0001
0100
0000
0010
0000
,  // measure 62
1000
0000
0000
1000
0000
0000
1000
0000
0010
0000
0000
0010
0000
0000
0010
0000
,  // measure 63
0100
0000
0000
0100
0000
0000
0100
0000
0001
0000
0000
1000
0000
0000
0001
0000
,  // measure 64
0100
0000
0000
0000
;

//---------------dance-single - ----------------
#NOTES:
     dance-single:
     :
     Challenge:
     13:
     0.536696,0.597779,0.574255,0.622687,0.411665,543.000000,460.000000,83.000000,90.000000,0.000000,0.000000,0.536696,0.597779,0.574255,0.622687,0.411665,543.000000,460.000000,83.000000,90.000000,0.000000,0.000000:
0000
0000
0000
0000
,
0000
0000
0000
0000
,
0000
0000
0000
0000
,
0000
0000
0000
0000
,
0000
0000
0000
0000
,
0000
0000
0000
0000
,
0000
0000
0000
0000
,
0000
0000
0000
0000
,
1000
0000
0000
0001
1000
0000
0100
0000
0010
0000
0000
0001
0100
0001
1000
0000
,
0001
0000
0000
1000
0001
0100
0001
1000
0010
1000
0000
1000
0100
0000
0010
0000
,
0001
0000
0000
1000
0001
0000
0100
0000
0010
0000
0000
1000
0100
0010
0001
0000
,
0001
0000
0000
0100
0001
0010
0100
0000
0010
0000
0010
0010
0100
0000
1000
0000
,
0010
0000
0000
0100
0001
0000
1000
0000
0100
0000
0000
0010
0001
0000
1000
0000
,
0010
0000
0000
1000
0001
1000
0100
0000
0010
0100
0000
0100
0010
0000
0001
0000
,
0100
0000
0000
0001
0100
0000
0010
0000
1000
0000
0000
0010
1000
0001
0100
0000
,
0012
0000
1000
0000
0203
1000
0310
0000
,
1001
0000
0000
0001
1000
0000
0010
0000
0100
0000
0100
0001
1000
0000
0100
0000
,
1001
0000
0000
1000
0001
0000
0010
0000
0100
0010
0000
0010
0100
0000
1000
0000
,
1100
0000
0000
1000
0001
0000
0100
0000
0001
0000
0010
0001
0010
0100
1000
0000
,
0001
0000
0000
0001
1000
0000
0100
0000
0010
0100
0000
0100
0010
0000
0001
0000
,
0011
0000
0000
0010
0100
0000
1000
0000
0010
0000
0010
1000
0001
0000
1000
0000
,
1010
0000
0000
0010
0100
0000
0001
1000
0010
0100
0000
0100
0010
0000
1000
0000
,
0001
0000
0000
1000
0001
0000
0010
0000
0100
0000
0010
0100
0010
0001
1000
0000
,
0100
0000
0000
0000
0000
0000
0100
0000
0000
0000
0000
0000
0100
0000
0000
0000
0010
0000
0000
0000
0000
0000
0001
0100
0010
0000
1000
0000
0001
0000
0000
0000
,
2002
3003
2010
3100
0012
0103
2010
3001
,
0202
0303
0120
1030
2100
3001
0120
1030
,
2002
3003
1200
0310
0201
1300
2010
3001
,
0022
0000
0033
0000
0210
0000
1300
0000
1000
0010
0000
0010
1000
0100
0010
0000
,
0022
0033
0210
1300
1020
0031
2010
3100
,
0220
0330
2010
3001
0102
0013
0120
1030
,
2002
3003
0102
0013
0120
1030
2100
3001
,
0202
0000
0303
0000
2010
0000
3001
0000
0001
0010
0000
0010
0100
1000
0001
0000
,
0010
0000
0000
0100
0010
0000
0001
0000
0100
0000
0000
0010
0100
0001
1000
0000
,
0010
0000
0000
1000
0010
1000
0001
1000
0100
0000
0010
0000
0001
0000
0100
0000
,
0010
0000
0000
0100
0010
0000
1000
0000
0100
0000
0000
0010
0100
0010
0001
0000
,
1000
0000
0000
0001
1000
0000
0010
0000
1000
0001
0000
0001
0010
0000
0100
0000
,
0010
0000
0000
0001
0010
0000
0001
0000
1000
0000
0000
0100
1000
0010
1000
0000
,
0001
0000
0000
1000
0010
1000
0001
0000
0100
0010
0000
0010
0100
0001
1000
0000
,
0100
0000
0000
1000
0100
0000
0010
0000
0001
0000
0000
0100
0001
1000
0010
0000
,
2010
0000
0001
0000
3200
0001
0010
0000
,
0310
0000
0000
0001
0010
0000
0001
0000
0101
0000
0101
0000
1100
0000
0110
0000
,
1001
0000
0000
1000
0001
0000
1000
0000
1010
0000
1010
0000
0110
0000
0101
0000
,
0011
0000
0000
0001
1000
0000
0010
0000
1000
0000
0100
1000
0100
0010
0001
0000
,
1000
0000
0000
0010
1000
0000
0001
0000
0100
0010
0000
0010
0100
0000
0001
0000
,
0100
0000
0000
0010
0100
0000
0001
0000
1010
0000
1010
0000
0110
0000
1001
0000
,
1100
0000
0000
0000
0011
0000
0000
0010
0001
0000
0011
0000
0110
0000
1100
0000
,
1001
0000
0000
1000
0001
0000
0100
0000
0010
0000
0000
0100
0001
0100
0010
0000
,
1000
0000
0000
0000
0000
0000
1000
0000
0000
0000
0000
0000
0001
0000
0000
0000
0001
0000
0000
0000
0000
0000
1000
0100
0010
0000
0001
0000
1000
0000
0000
0000
,
2002
3003
0102
0013
2100
3010
0102
1003
,
2020
3030
0210
0301
0012
1003
0210
0301
,
2002
3003
0021
0130
1020
0031
0102
1003
,
2200
0000
3300
0000
0120
0000
0031
0000
0001
0100
0000
0100
0001
0010
0100
0000
,
2200
3300
0120
0031
0201
1300
0102
0013
,
0220
0330
0102
1003
2010
3100
0210
0301
,
2002
3003
2010
3100
0210
0301
0012
1003
,
2020
0000
3030
0000
0102
0000
1003
0000
1000
0100
0000
0100
0010
0001
1000
0000
,
0020
0000
0000
1000
0000
0000
1030
0000
2000
0000
0000
0100
0000
0000
3100
0000
,
0200
0000
0000
0010
0000
0000
0310
0000
0001
0010
0000
0001
0100
0000
0010
0000
,
0200
0000
0000
0001
0000
0000
0301
0000
0002
0000
0000
0010
0000
0000
0013
0000
,
0020
0000
0000
0100
0000
0000
0130
0000
2000
0000
0000
0002
0000
0000
3003
0000
,
0200
0000
0000
0001
0000
0000
0301
0000
0002
0000
0000
0010
0000
0000
0013
0000
,
0020
0000
0000
0100
0000
0000
0130
0000
1000
0100
0000
0010
0100
0000
1000
0000
,
0002
0000
0000
0100
0000
0000
0103
0000
0200
0000
0000
0010
0000
0000
0310
0000
,
0020
0000
0000
0000
0000
0000
1000
0000
0000
0000
0000
0000
1030
0000
0000
0000
0100
0000
0000
0000
0000
0000
0010
0001
1000
0000
0100
0000
0010
0000
0000
0000
,
0001
0000
0000
0000
;
