#TITLE:Tokyo Snorkel;
#SUBTITLE:;
#ARTIST:Yunomi feat. nicamoq;
#TITLETRANSLIT:;
#SUBTITLETRANSLIT:;
#ARTISTTRANSLIT:;
#GENRE:;
#CREDIT:;
#BANNER:Tokyo Snorkel.png;
#BACKGROUND:Tokyo Snorkel-bg.png;
#LYRICSPATH:;
#CDTITLE:;
#MUSIC:Tokyo Snorkel.ogg;
#OFFSET:1.237659;
#SAMPLESTART:60.279827;
#SAMPLELENGTH:12.000004;
#LASTBEATHINT:0.550299;
#SELECTABLE:YES;
#BPMS:0.000000=160.000000
;
#STOPS:
;
#BGCHANGES:;
#KEYSOUNDS:;
#ATTACKS:;

//---------------dance-single - ----------------
#NOTES:
     dance-single:
     :
     Beginner:
     3:
     0.153356,0.284388,0.077915,0.000000,0.000000,124.000000,115.000000,9.000000,0.000000,0.000000,0.000000,0.153356,0.284388,0.077915,0.000000,0.000000,124.000000,115.000000,9.000000,0.000000,0.000000,0.000000:
0000
0000
0000
0000
,
0000
0000
0000
0000
,
0000
0000
0000
0000
,
0000
0000
0000
0000
,
0000
0000
0000
0000
,
0000
0000
0000
0000
,
0000
0000
0000
0000
,
0000
0000
0000
0000
,
0000
0000
0000
0000
,
0000
0000
0010
0000
,
0000
0000
1000
0000
,
0000
0000
0001
0000
,
0000
0000
1000
0000
,
0000
0000
0100
0000
,
0000
0000
1000
0000
,
0000
0000
0010
0000
,
0000
0000
1000
0000
,
0010
0000
0010
0000
,
1000
0000
0100
0000
,
0010
0000
0010
0000
,
0001
0000
1000
0000
,
0100
0000
0100
0000
,
1000
0000
0010
0000
,
0100
0000
0001
0000
,
1000
0000
0010
0000
,
0001
0000
0001
0000
,
1000
0000
1000
0000
,
0001
0000
0010
0000
,
0100
0000
1000
0000
,
0010
0000
0010
0000
,
1000
0000
1000
0000
,
0001
0000
0001
0000
,
0000
1000
1000
1001
,
0001
0000
1001
0000
,
1000
0000
1001
0000
,
0001
0000
1001
0000
,
1000
0000
1001
0000
,
0010
0000
0110
0000
,
0100
0000
0110
0000
,
0010
0000
0110
0000
,
0100
0100
0100
0000
,
1000
0000
0010
0000
,
1000
0000
0001
0000
,
0100
0000
0010
0000
,
0100
0000
0001
0000
,
0010
0000
0100
0000
,
0010
0000
0001
0000
,
1000
0000
0001
0000
,
1000
1000
1000
0000
,
1001
0000
1000
0000
,
0001
0000
0010
0000
,
0001
0000
0100
0000
,
0001
0000
1000
0000
,
0010
0000
1000
0000
,
0100
0000
1000
0000
,
0010
0000
1000
0000
,
0001
0001
0001
0000
,
1000
0000
0000
0000
,
0001
0000
0000
0000
,
1000
0000
0000
0000
,
0010
0010
0010
0000
,
1000
0000
0000
0000
,
0001
0000
0000
0000
,
1000
0000
0000
0000
,
0100
0100
0100
0000
,
1000
0000
0100
0000
,
0000
0000
0100
0000
,
0000
0000
0010
0000
,
0000
0000
0010
0000
,
0001
0000
0100
0000
,
0000
0000
0010
0000
,
0000
0000
0010
0000
,
0000
0000
0100
0000
,
1000
0000
0000
0000
;

//---------------dance-single - ----------------
#NOTES:
     dance-single:
     :
     Easy:
     6:
     0.252295,0.324103,0.121201,0.000000,0.000000,204.000000,190.000000,14.000000,0.000000,0.000000,0.000000,0.252295,0.324103,0.121201,0.000000,0.000000,204.000000,190.000000,14.000000,0.000000,0.000000,0.000000:
0000
0000
0000
0000
,
0000
0000
0000
0000
,
0000
0000
0000
0000
,
0000
0000
0000
0000
,
0000
0000
0000
0000
,
0000
0000
0000
0000
,
0000
0000
0000
0000
,
0000
0000
0000
0000
,
0000
0000
0000
0000
,
0010
0000
1000
0000
,
1000
0100
0001
0000
,
0010
0000
0001
0000
,
1000
0000
0001
1000
,
0001
0000
0100
0000
,
0001
0010
1000
0000
,
0001
0000
1000
0000
,
0100
0000
1000
0001
,
1000
0000
1000
0000
,
0010
1000
0010
0000
,
0100
0000
0100
0000
,
0001
0000
0010
0001
,
0010
0000
0001
0000
,
0100
0001
0100
0000
,
0001
0000
1000
0000
,
0010
0000
0010
1000
,
0001
0000
1000
1000
,
1000
0000
0001
0001
,
0001
0000
0010
0100
,
0010
0000
0001
0000
,
1000
0000
0100
0100
,
0100
0000
1000
0001
,
1000
0000
0010
0000
,
1000
0100
0010
1001
,
1000
0000
1001
0001
,
0100
0000
0110
0000
,
0010
0000
1010
1000
,
0001
0000
1001
1000
,
0001
0000
0011
0010
,
0100
0000
1100
0000
,
1000
0000
1001
0001
,
1000
0010
1000
0000
,
0001
0001
0010
0001
,
0100
0010
1000
0001
,
1000
0000
1001
0000
,
0010
0010
0011
0000
,
1000
0010
1000
0100
,
0010
0001
0100
0001
,
1000
0000
1001
0000
,
0001
0001
0101
0000
,
0010
1000
0001
1000
,
0100
0010
0001
0010
,
0100
1000
0001
0100
,
0010
0010
1010
0000
,
0001
0100
0001
0010
,
0100
1000
0010
1000
,
0001
0100
0010
0100
,
0001
0001
1001
0000
,
0010
0000
0000
0000
1000
0000
0000
0001
,
0000
0000
0000
0000
0001
0000
0000
1000
,
0000
0000
0010
0000
,
1000
0001
0010
0100
,
1000
0000
0000
0000
0010
0000
0000
1000
,
0000
0000
0000
0000
1000
0000
0000
0100
,
0000
0000
0010
0000
,
0010
0001
0100
0001
,
1000
0000
0001
1000
,
0010
0000
1000
0001
,
0010
0000
0001
1000
,
0100
0000
1000
0001
,
0100
0000
0010
0100
,
0001
0000
1000
0100
,
0010
0000
0010
0001
,
1000
0000
0010
1000
,
0001
0000
1000
0000
,
0010
0000
0000
0000
1000
0000
0000
0001
;

//---------------dance-single - ----------------
#NOTES:
     dance-single:
     :
     Medium:
     10:
     0.374732,0.421334,0.103886,0.121201,0.012986,303.000000,291.000000,12.000000,14.000000,0.000000,0.000000,0.374732,0.421334,0.103886,0.121201,0.012986,303.000000,291.000000,12.000000,14.000000,0.000000,0.000000:
0000
0000
0000
0000
,
0000
0000
0000
0000
,
0000
0000
0000
0000
,
0000
0000
0000
0000
,
0000
0000
0000
0000
,
0000
0000
0000
0000
,
0000
0000
0000
0000
,
0000
0000
0000
0000
,
0000
0000
0000
0000
,
0010
0000
1000
0000
0001
1000
0000
1000
,
0100
0000
0010
0001
0000
0001
0010
0000
,
0001
0000
0100
0010
0100
0000
0001
1000
,
0000
0010
0000
0010
1000
0000
0001
0010
,
0000
0010
0100
0010
0100
0000
1000
0010
,
0000
1000
0000
1000
0001
0000
0010
0100
,
0000
0100
0010
0100
0010
0000
0001
0200
,
0000
0000
0300
0000
,
0001
0000
1000
0000
0100
0010
0000
0010
,
0100
0000
1000
0001
0000
0001
1000
0000
,
0010
0000
0100
0001
0100
0000
0001
1000
,
0000
0010
0000
0010
1000
0000
0001
0010
,
0000
0010
0100
0010
0100
0000
1000
0001
,
0000
0010
0000
0001
1000
0000
1000
0010
,
0000
0010
0100
0010
0100
0000
0100
0002
,
0000
0000
0003
0000
,
0010
0000
0001
1000
0001
0000
0100
0000
,
0010
0000
1000
0010
1000
0000
0001
0000
,
0010
0000
0100
1000
0100
0000
0010
0000
,
0001
1000
0001
0010
,
0100
0000
0010
0001
0010
0000
0001
0000
,
1000
0000
0010
1000
0010
0000
1000
0000
,
0001
0100
0010
1000
,
0100
0000
0110
0000
0010
0100
1000
0000
,
0001
0100
0001
0000
0000
0000
0100
0010
,
1000
0010
1000
0000
0000
0000
0000
1000
,
0001
0010
0001
0000
0000
0000
0010
0100
,
1000
0100
1000
0000
0000
0001
0010
0001
,
1000
0010
1000
0000
0000
0000
0010
0100
,
0001
0100
0001
0000
0000
0000
0000
0000
,
1000
0001
1000
0000
0000
0000
0010
1000
,
0010
0000
0000
0100
0000
0000
0001
0000
0010
0000
0100
0000
1000
0000
0000
0000
,
0010
0000
0100
0001
0100
0000
0010
1000
,
0000
1000
0001
0000
0010
0000
0100
2000
,
0000
0000
0000
0000
3010
0100
0000
0200
,
0000
0000
0301
1000
,
0001
0000
0010
0100
0010
0000
0001
1000
,
0000
1000
0001
0000
0010
0000
0100
2000
,
0000
0000
0000
0000
3001
0000
0010
0001
,
0100
0000
0000
0001
0000
0000
1000
0000
0010
0000
1000
0000
0001
0000
0000
0000
,
1001
0000
1000
0000
0010
0000
1000
0100
,
0000
0100
0010
0000
0001
0000
0100
0020
,
0000
0000
0000
0000
1030
0100
0000
0200
,
0000
0000
0310
0001
,
1000
0000
0001
0000
0100
0000
0010
0100
,
0000
0100
0001
0000
1000
0000
0100
0020
,
0000
0000
0000
0000
0031
0000
1000
0010
,
1000
0000
0000
0001
0000
0000
1000
0000
0100
0000
0010
0000
0001
0000
0000
0000
,
1200
0000
0000
0000
0310
0000
0000
0020
,
0000
0000
0000
0000
0031
0000
0000
0002
,
0000
0000
1003
0000
,
0010
1000
0001
0100
0000
0001
1000
0000
,
0021
0000
0000
0000
0130
0000
0000
0200
,
0000
0000
0000
0000
1300
0000
0000
2000
,
0000
0000
3010
0000
,
0001
0010
0100
1000
0000
0001
1000
0000
,
0100
0010
0011
0001
,
1000
0001
0101
0100
,
0010
1000
1001
0001
,
0010
0100
0110
0010
,
0001
1000
1010
0100
,
0001
1000
1001
0001
,
0100
0001
0110
0010
,
1000
0100
1100
1000
,
0010
0100
0010
0000
1000
0000
0001
0100
,
0000
0100
0001
0000
1000
0100
0010
0001
;

//---------------dance-single - ----------------
#NOTES:
     dance-single:
     :
     Hard:
     13:
     0.563954,0.680617,0.069257,0.034629,0.069257,456.000000,448.000000,8.000000,4.000000,0.000000,0.000000,0.563954,0.680617,0.069257,0.034629,0.069257,456.000000,448.000000,8.000000,4.000000,0.000000,0.000000:
// measure 0
0000
0000
0000
0000
,  // measure 1
0000
0000
0000
0000
,  // measure 2
0000
0000
0000
0000
,  // measure 3
0000
0000
0000
0000
,  // measure 4
0000
0000
0000
0000
,  // measure 5
0000
0000
0000
0000
,  // measure 6
0000
0000
0000
0000
,  // measure 7
0000
0000
0000
0000
,  // measure 8
0000
0000
0000
0000
,  // measure 9
0000
0000
1000
0001
0000
0010
0000
0010
,  // measure 10
0001
0010
0100
1000
0000
0010
1000
0001
,  // measure 11
0100
0010
0100
0001
1000
0001
0010
0100
,  // measure 12
0000
1000
0000
0100
1000
0100
0010
0001
,  // measure 13
0000
0001
0010
0100
0010
0100
1000
0001
,  // measure 14
0000
0100
0000
0010
0100
0001
1000
0010
,  // measure 15
0000
0010
0100
0001
1000
0001
0100
0010
,  // measure 16
1000
0001
0010
0100
0000
0010
0001
0000
,  // measure 17
1001
0000
1000
0010
1000
0010
0100
0010
,  // measure 18
0100
0001
1000
0100
0000
1000
0001
0010
,  // measure 19
0100
0000
0100
0000
1000
0010
0100
0001
,  // measure 20
0000
0010
0000
0100
1000
0001
0010
0001
,  // measure 21
0000
0001
1000
0100
1000
0001
0010
0100
,  // measure 22
0000
0010
0000
0100
1000
0010
0100
0001
,  // measure 23
0000
1000
0001
1000
0010
0100
0001
1000
,  // measure 24
0001
0100
0010
1000
0000
0010
1000
0100
,  // measure 25
0010
0001
1000
0001
1000
0010
0100
0001
,  // measure 26
0000
1000
0001
1000
0001
0010
0100
1000
,  // measure 27
0000
0001
1000
0001
0100
0010
0100
0001
,  // measure 28
1000
0100
0010
0001
0000
0010
0001
0100
,  // measure 29
0010
0100
0010
0100
0001
0100
0010
1000
,  // measure 30
0100
0010
0100
0010
0001
1000
0100
0010
,  // measure 31
0001
0100
0001
0100
0010
1000
0010
1000
,  // measure 32
0001
0000
0000
0000
0110
0000
0000
0000
1000
0000
0001
0100
0010
0000
0000
0000
,  // measure 33
1000
0001
1000
0000
0011
0000
0010
0100
,  // measure 34
1000
0000
0100
0000
1000
0000
0000
0000
1010
0000
0000
0000
0000
0000
0001
0100
,  // measure 35
0001
0010
0001
0000
1100
0000
0010
0100
,  // measure 36
1000
0010
0100
0000
0010
0100
0001
0100
,  // measure 37
0001
1000
0001
0000
0011
0000
0010
0001
,  // measure 38
1000
0100
1000
0000
0110
0000
0000
0000
,  // measure 39
1000
0010
1000
0000
1001
0000
0001
0100
,  // measure 40
0010
0000
0100
0001
1000
0000
0001
0000
1000
0000
0010
1000
0010
0000
0100
0000
,  // measure 41
0001
0100
1000
0100
0001
0000
1000
0010
,  // measure 42
0000
1000
0001
0010
0001
0010
0100
1000
,  // measure 43
0010
0000
1000
0000
0100
0010
0100
1000
,  // measure 44
0010
0100
0001
0100
0010
1000
0001
0000
,  // measure 45
1000
0100
0001
0100
1000
0000
0001
0010
,  // measure 46
0000
0010
0001
0100
0001
0100
0010
1000
,  // measure 47
0001
0000
0010
0000
0001
0100
0010
1000
,  // measure 48
0010
0000
1000
0001
0100
0000
0010
0000
1000
0000
0001
0010
0001
0000
0010
0000
,  // measure 49
0100
1000
0010
1000
0100
0000
1000
0010
,  // measure 50
0000
0010
0100
0001
1000
0100
0010
0001
,  // measure 51
0010
0000
0001
0000
1000
0010
0100
0010
,  // measure 52
1000
0001
0010
0100
0000
0010
0100
0000
,  // measure 53
0010
0001
0100
0001
0010
0000
0001
0100
,  // measure 54
0000
0100
0010
0100
0001
1000
0010
1000
,  // measure 55
0001
0000
0010
0000
0001
0010
0100
1000
,  // measure 56
0100
0000
1000
0001
1000
0000
0001
0000
0010
0100
1000
0000
0001
0100
0010
0000
,  // measure 57
2000
0000
0000
0010
3001
0000
0100
0001
,  // measure 58
0100
0010
0000
0010
0100
0000
0001
0010
,  // measure 59
0002
0000
0000
0010
1003
0000
0010
0100
,  // measure 60
0001
0010
0100
1000
0000
0001
1000
0000
,  // measure 61
0002
0000
0000
0100
1003
0000
0010
1000
,  // measure 62
0001
0010
0000
0010
0001
0000
1000
0100
,  // measure 63
2000
0000
0000
0100
3001
0000
0010
0001
,  // measure 64
0010
0000
0001
1000
0100
0000
0010
0000
0100
1000
0001
0000
0010
0000
0001
0100
,  // measure 65
0001
1000
0001
0000
1000
0000
0010
0100
,  // measure 66
0010
0100
0001
0000
0010
0000
0100
1000
,  // measure 67
0100
1000
0010
0000
1000
0000
0001
0100
,  // measure 68
0001
0100
0010
0000
1000
0001
0010
0100
,  // measure 69
0010
0001
0010
0000
0001
0000
1000
0010
,  // measure 70
1000
0001
0100
0000
0001
0000
1000
0100
,  // measure 71
1000
0001
0010
0000
0100
0000
0010
0001
,  // measure 72
0010
0000
0001
1000
0010
0000
1000
0000
0001
1000
0001
0100
0010
1000
0001
0000
,  // measure 73
1000
1000
0001
1000
0010
1000
0100
1000
,  // measure 74
0001
0001
0010
0001
0100
0010
1000
0001
;
