#TITLE:Tik Tok Meme Compilation;
#SUBTITLE:;
#ARTIST:Everyone;
#TITLETRANSLIT:;
#SUBTITLETRANSLIT:;
#ARTISTTRANSLIT:;
#GENRE:;
#CREDIT:;
#BANNER:banner.png;
#BACKGROUND:background.png;
#LYRICSPATH:;
#CDTITLE:;
#MUSIC:tik tok meme comp.ogg;
#OFFSET:0.000000;
#SAMPLESTART:421.887421;
#SAMPLELENGTH:13.241394;
#SELECTABLE:YES;
#BPMS:0.000000=74.000000
,12.000000=116.000000
,23.000000=200.000000
,24.000000=129.000000
,48.250000=90.000000
,49.000000=121.000000
,67.500000=65.000000
,68.000000=71.000000
,78.250000=132.000000
,80.000000=140.000000
,105.000000=141.000000
,107.000000=147.000000
,138.000000=115.000000
,148.000000=106.000000
,152.000000=185.000000
,158.000000=100.000000
,160.000000=105.500000
,184.000000=136.000000
,185.000000=141.000000
,206.000000=70.500000
,209.000000=124.000000
,215.000000=125.999992
,222.500000=150.000000
,223.000000=125.999992
,241.000000=117.000000
,242.000000=180.000000
,254.000000=120.000000
,254.333328=80.000000
,254.562500=180.000000
,260.000000=163.000000
,269.000000=326.000000
,290.000000=130.000000
,292.000000=84.000000
,310.000000=121.000000
,324.000000=240.000000
,325.000000=230.000000
,326.000000=220.000000
,327.000000=214.000000
,328.000000=106.000000
,338.000000=128.000000
,367.000000=20.000000
,370.000000=19.000000
,371.000000=155.000000
,374.000000=134.000000
,393.000000=119.000000
,403.000000=118.000000
,414.000000=145.000000
,446.000000=105.000000
,447.000000=128.000000
,478.000000=110.000000
,479.000000=128.000000
,488.000000=64.000000
,491.000000=128.000000
,499.000000=146.000000
,532.000000=110.000000
,533.000000=119.000000
,560.000000=135.000000
,591.000000=124.999992
,592.000000=162.000000
,623.000000=135.000000
,624.000000=64.000000
,630.500000=128.000000
,647.500000=105.000000
,648.500000=123.500000
,676.000000=82.000000
,688.000000=240.000000
,702.000000=170.000000
,704.000000=145.000000
,738.000000=185.000000
,739.000000=150.000000
,775.000000=95.000000
,776.000000=99.000000
,800.000000=105.000000
,802.000000=129.000000
,816.000000=130.000000
,831.000000=115.000000
,839.000000=120.000000
,846.000000=97.000000
,847.000000=128.000000
,870.000000=115.000000
,871.000000=128.000000
,899.000000=124.999992
,901.000000=100.000000
,918.000000=120.000000
,919.000000=170.000000
,938.000000=135.000000
,940.000000=112.000000
,967.000000=124.999992
,968.000000=120.000000
,1012.500000=58.333336
,1013.500000=175.000000
,1014.000000=210.000000
,1046.250000=100.000000
;
#STOPS:158.000000=20.400000,
235.250000=0.357000,
254.562500=2.750000,
271.000000=0.184000,
272.000000=0.184000,
273.000000=0.184000,
274.000000=0.184000,
275.000000=0.184000,
276.000000=0.184000,
277.000000=0.184000,
278.000000=0.184000,
279.000000=0.184000,
280.000000=0.184000,
281.000000=0.184000,
282.000000=0.184000,
283.000000=0.184000,
284.000000=0.184000,
285.000000=0.184000,
286.000000=0.184000,
287.000000=0.184000,
288.000000=0.184000,
289.000000=0.184000,
310.000000=12.762000,
324.000000=0.250000,
325.000000=0.261000,
326.000000=0.273000,
327.000000=0.280000,
338.000000=1.406000,
491.000000=0.234000,
560.250000=1.667000,
688.000000=2.950000,
702.000000=29.792999,
938.000000=15.000000,
1046.250000=34.650024
;
#BGCHANGES:0.000=Tik Tok Meme Compilation.mp4=1.000=0=0=0=StretchNoLoop====,
99999=-nosongbg-=1.000=0=0=0 // don't automatically add -songbackground-
;
#KEYSOUNDS:;
#ATTACKS:;

//---------------dance-single - ----------------
#NOTES:
     dance-single:
     :
     Challenge:
     1:
     0.463173,0.559418,0.204321,0.202737,0.266885,1790.000000,129.000000,128.000000,0.000000,0.000000,0.000000,0.463173,0.559418,0.204321,0.202737,0.266885,1790.000000,129.000000,128.000000,0.000000,0.000000,0.000000:
// measure 0
0000
0000
0000
0000
,  // measure 1
0000
0000
0000
0000
,  // measure 2
0000
0000
0000
0000
,  // measure 3
1000
0001
1100
0011
0101
0000
1001
0000
,  // measure 4
0010
1000
0001
0000
0100
0001
1000
0000
0100
1000
0010
0000
0100
0001
0010
0000
,  // measure 5
0010
0001
1000
0000
0100
1000
0001
0000
0100
0001
1000
0000
0000
0000
0000
0000
,  // measure 6
0010
0000
0000
0001
0000
0000
0010
0000
0000
0010
0000
0000
0001
0000
0100
0000
,  // measure 7
0020
0000
0030
0000
,  // measure 8
1000
0000
0100
0000
0001
0000
0100
0000
1000
0000
0010
1000
0000
0000
0100
0000
,  // measure 9
0010
0100
0000
0010
0000
0000
0001
0000
0100
0000
0010
1000
0000
0000
0001
0000
,  // measure 10
1000
0001
0000
0010
0000
0000
0100
0000
1000
0000
0010
1000
0000
0000
0100
0000
,  // measure 11
0010
0000
0000
0010
0001
0000
0100
0000
0010
1000
0000
0000
1001
0000
0000
0000
,  // measure 12
0000
0000
0000
0000
0010
0100
0010
0100
0001
0000
1000
0000
0001
0000
1000
0000
,  // measure 13
0010
0000
0100
0000
0010
0000
0100
0000
0001
0100
0010
1000
0100
0010
0001
0010
,  // measure 14
0100
1000
0001
0000
1010
0000
0000
0000
0101
0000
1000
0000
0101
0000
0010
0000
,  // measure 15
0110
0000
0100
0000
1001
0000
1100
0000
1000
0100
1000
0001
0010
0000
0001
0000
,  // measure 16
0100
0000
0010
0000
1001
0000
0200
0000
0301
0000
1000
0010
1000
0000
0100
0000
,  // measure 17
0010
1000
0200
0300
0010
0001
0200
0300
0001
1000
0200
0300
1000
0100
0002
0003
,  // measure 18
0100
1000
0020
0030
0100
0001
0020
0030
0001
1000
0200
0300
0010
0001
2000
3000
,  // measure 19
0010
0100
0002
0003
0010
0100
2000
3000
0100
0010
0000
0000
0000
0000
0000
0000
,  // measure 20
0010
0001
0000
0000
0100
0010
0000
0000
0010
1000
0000
0000
1100
0000
0000
0000
,  // measure 21
1020
0000
0000
0000
1030
0000
0000
1000
0200
0000
0310
0000
0001
0000
1000
0001
,  // measure 22
2000
0000
0000
0000
3000
0000
0100
0010
0002
0000
0003
0000
0100
0000
0010
0000
,  // measure 23
0020
0000
0000
0000
0130
0000
0000
0010
2000
0000
3000
0000
0001
0000
0000
0000
,  // measure 24
0010
1000
0000
0000
1000
0100
0000
0000
0100
0010
0000
0000
0011
0000
0001
1000
,  // measure 25
0002
0000
0000
0000
0103
0000
0000
0001
0020
0000
0030
0000
1000
0000
1000
0000
,  // measure 26
1002
0000
0003
0000
0000
0000
0001
0100
,  // measure 27
0010
0100
0001
1000
0010
0100
0002
0010
,  // measure 28
0013
0000
2100
0100
3001
0000
0100
0001
,  // measure 29
1000
0100
0010
0100
1000
0010
0200
0010
,  // measure 30
0310
0000
0012
1000
1003
0000
0100
1000
,  // measure 31
0010
0000
0100
0010
0100
0001
0020
0001
,  // measure 32
0031
0000
1200
0010
0300
0010
0001
1000
,  // measure 33
0001
0100
0010
0000
0010
0100
0002
1000
,  // measure 34
1003
0000
0000
0000
0000
0000
0000
0000
0000
0000
0000
0000
0000
0000
0000
0000
0000
1000
0000
0000
0000
0000
0000
0000
1000
0000
0000
0000
0000
0000
0000
0000
,  // measure 35
0000
1000
0000
0000
0000
0000
0000
0000
0000
0000
0000
0000
0000
0000
0000
0000
0000
0000
0000
0000
0000
0000
0000
0000
0000
0000
0000
0000
0000
1000
0000
0000
0000
1000
0000
0000
0000
0000
0000
0000
1000
0000
0000
0000
0000
0000
0000
0000
0100
0000
0000
0000
0000
0000
0000
0000
1000
0000
0000
0000
0000
0001
0000
0000
,  // measure 36
0000
0000
0000
0000
0000
0000
0000
0000
0000
0000
0000
0000
0000
0000
0000
0000
0000
0000
0000
0000
0001
0000
0000
0000
0000
0010
0000
0000
0000
0000
1000
0000
0000
0000
0000
0000
0000
0000
0000
0000
0000
0000
0000
0000
1000
0000
0000
0000
0000
0000
0000
0000
0000
0000
0000
0000
0000
0000
0000
0000
1000
0000
0000
0000
,  // measure 37
0000
0000
0000
0000
,  // measure 38
0010
1000
0100
0010
0001
1000
0100
1000
,  // measure 39
0010
0100
0001
0010
0000
0000
0000
0000
,  // measure 40
1000
0100
1000
0100
0010
0000
0100
0000
0010
0001
0010
0001
0100
0000
0010
0000
,  // measure 41
1000
0001
1000
0000
0010
1000
0100
0010
0001
0100
0001
0010
0100
0010
0100
1000
,  // measure 42
0020
0000
2030
0000
3002
0000
1003
0000
0110
0000
0000
1001
0000
0000
0011
0000
,  // measure 43
0100
0000
0100
0010
1000
0000
0100
0000
1000
0001
0100
0001
0010
0000
0001
0000
,  // measure 44
1000
0001
1000
0001
0010
0000
0100
0000
1000
0100
1000
0100
0010
0000
0001
0000
,  // measure 45
0100
0010
0100
0001
2000
0000
3000
0000
0100
1000
0100
0010
0001
0010
0100
0000
,  // measure 46
0000
0010
0000
0010
,  // measure 47
0000
0000
0010
0000
0010
0100
0010
1000
,  // measure 48
0001
1000
0100
1000
0001
0010
0001
0010
,  // measure 49
0100
0000
0010
0000
0001
0000
0100
0000
0010
1000
0010
1000
0100
1000
0100
1000
,  // measure 50
0001
0010
0001
0010
0001
0100
0001
0100
0010
0000
1000
0001
1000
0000
0100
0000
,  // measure 51
0020
0000
0031
0000
2002
3003
1010
0220
,  // measure 52
0330
0000
0202
0303
0011
0000
0000
0000
0000
0000
0000
0000
0000
0000
0000
0000
,  // measure 53
0000
0000
0000
0000
0000
0000
0000
0000
0000
0000
0000
0000
1000
0000
0001
0010
,  // measure 54
0001
0000
0100
0000
0010
0000
1000
0010
0100
0000
0000
0000
0010
0100
0001
0000
,  // measure 55
1000
0100
0010
0001
0100
0010
1000
0001
,  // measure 56
1000
0001
0100
0001
0010
0100
0010
0001
,  // measure 57
1000
0100
1000
0010
0100
0001
0100
0010
,  // measure 58
1000
0000
0001
0000
2000
0000
0000
0000
0000
0000
0000
0000
0000
3000
1001
0000
,  // measure 59
0000
0000
0010
0000
0001
1000
0001
0000
0100
0000
0010
0000
1000
0100
1000
0000
,  // measure 60
0001
0100
0000
0000
1000
0000
1000
0000
,  // measure 61
0001
0010
0001
0000
0200
0300
0000
0100
,  // measure 62
0000
0000
0010
0010
,  // measure 63
1000
0000
0000
0001
0000
0000
0100
0000
0000
0000
0000
0000
0020
0000
0000
0000
0030
0000
0000
0000
0000
0000
0000
0000
,  // measure 64
1000
0000
1000
0001
0100
0010
0000
0000
,  // measure 65
1000
0100
0001
0100
1000
0000
0101
0000
,  // measure 66
0010
0001
0100
0000
0010
0000
0010
0100
,  // measure 67
0001
0100
0010
0000
0000
0000
1000
0000
,  // measure 68
0001
1000
1000
0001
,  // measure 69
1000
0001
0001
1000
,  // measure 70
0001
1000
1000
0001
,  // measure 71
1000
0001
0001
1000
,  // measure 72
0001
1000
1000
0000
,  // measure 73
0000
0000
0100
1000
0010
1000
0100
1000
0100
0010
0100
0010
0001
0010
0100
0010
,  // measure 74
0200
0000
0000
0000
0310
0001
0100
0001
0100
0010
1000
0100
2000
0000
0000
0000
,  // measure 75
3010
0000
0100
0001
0010
0100
1000
0100
1000
0010
0100
0001
0010
0001
0100
0010
,  // measure 76
0200
0000
0000
0000
0310
1000
0100
1000
0001
0100
0010
0100
0002
0000
0000
0000
,  // measure 77
0013
0000
1100
1000
1001
0000
0100
1000
,  // measure 78
0002
0000
0013
0000
0100
0100
0010
0001
,  // measure 79
2000
0000
3020
0000
1030
0001
1000
0100
,  // measure 80
0010
0100
0010
0001
0001
0100
0010
1000
,  // measure 81
0001
1001
1001
1001
,  // measure 82
0012
0000
2003
0000
3010
0100
0010
1000
,  // measure 83
0200
0000
0320
0000
0031
0100
1000
0100
,  // measure 84
0001
0000
0000
0001
1000
0000
0000
0000
1001
0000
0000
0000
1010
0000
0000
0000
,  // measure 85
0110
0001
0110
1000
1001
0010
0101
0000
,  // measure 86
0011
0100
1010
1000
1001
0002
1003
0000
,  // measure 87
1010
0100
1001
0100
0010
1000
1100
0000
,  // measure 88
0011
0000
1000
0000
0001
0000
0100
0000
0100
0000
0020
0000
1030
0000
0000
1000
,  // measure 89
0100
0000
0001
0000
0100
1000
0001
0010
0001
0000
0100
0000
0010
0000
0000
0010
,  // measure 90
1000
0000
0001
0000
0100
0010
0100
0001
1000
0000
0020
0000
1030
0001
0100
0010
,  // measure 91
1000
0100
0010
0000
0100
1000
0100
0010
0001
0000
0000
0000
0000
0000
0000
0000
,  // measure 92
0000
0000
0000
2002
,  // measure 93
0000
0000
0000
0000
0000
0000
3003
0000
0000
0000
0000
0000
0000
0000
0000
1000
,  // measure 94
0001
0000
0000
0000
0010
0001
0010
0000
0100
0000
0010
0000
0001
0000
0000
0000
,  // measure 95
0001
0000
1000
0000
1000
0000
0010
0010
,  // measure 96
0100
0000
0100
0000
0001
0100
0001
1000
0100
0000
0000
0000
0011
0000
0000
0000
,  // measure 97
0001
0000
0100
0000
0010
0000
0000
0000
0010
1000
0010
1000
0001
0000
0100
0000
,  // measure 98
0010
0000
0000
0000
0000
0000
0000
0000
0000
0001
0010
0100
1000
0000
0000
0010
0000
0000
0000
0000
0000
0010
0000
0000
,  // measure 99
2000
0000
0000
3000
0000
0100
1000
0000
0001
0010
0000
0000
0020
0000
0000
0030
0000
0001
0100
0000
0000
0010
0000
0000
,  // measure 100
0100
0000
0001
1000
0000
0020
0000
0000
0000
0000
0000
0000
1030
0000
0000
0000
0000
0000
0000
0000
0000
0100
0000
0000
,  // measure 101
0002
0000
0000
0003
0000
0010
0001
0000
1000
0100
0000
0000
0200
0000
0000
0300
0000
0010
0001
0000
0000
1000
0000
0000
,  // measure 102
0010
0000
0001
0010
0000
2000
0000
0000
0000
0100
0000
0000
3100
0000
0000
0000
0000
0000
0000
0000
0000
0000
0000
0000
,  // measure 103
0000
0000
0000
0000
0000
0000
0000
0000
1000
0000
0100
1000
0002
0000
0000
0000
,  // measure 104
0103
0010
0100
0001
0010
0100
2000
3100
,  // measure 105
0000
0000
0011
0000
0000
0000
0100
0001
0020
0000
0000
0000
0031
0000
0000
0000
,  // measure 106
1000
0010
0100
0001
0100
1010
0000
1100
,  // measure 107
0000
0000
0011
0000
0000
0000
0000
0000
0010
0000
0100
0010
0002
0000
0000
0000
,  // measure 108
0103
0010
1000
0001
1000
0100
0020
0031
,  // measure 109
0000
0000
1010
0000
0000
0000
1000
0001
0100
0000
0000
0000
0020
0000
0000
0000
,  // measure 110
1030
0001
0010
0100
2000
3010
0000
0110
,  // measure 111
0000
0101
0000
0000
1001
0000
0000
0000
,  // measure 112
0000
0000
0000
0000
0010
1000
0100
1000
,  // measure 113
0010
0000
0000
1000
0000
0002
0000
0000
0000
0000
0000
0000
0013
0000
0100
0000
0000
0100
1000
0000
0000
0001
0000
0000
,  // measure 114
0100
0000
0000
0010
0000
2000
0000
0000
0000
0000
0000
0000
3100
0000
0000
0000
0000
0011
0000
0000
0000
0000
0000
0000
,  // measure 115
0000
0000
1000
0000
0000
0001
1000
0000
0010
0000
0000
0200
0000
0000
0000
0300
0000
0000
0000
0000
0000
0000
0000
0000
,  // measure 116
0000
0000
0000
0000
0000
0000
0000
0000
0100
0010
0000
0001
1000
0000
0000
0100
0000
0000
0001
0000
0000
0100
0000
0000
,  // measure 117
1000
0000
0001
0000
0000
0101
0000
0000
0000
0000
0000
0000
0020
0000
0000
0000
0000
0000
0230
0000
0000
0000
0000
0000
,  // measure 118
2300
0000
3002
0000
1003
0010
0001
0010
,  // measure 119
1000
0000
0100
0000
0000
0011
0000
0000
0000
0020
0000
0000
0031
0000
0000
0000
0000
0000
1000
0000
0000
0001
0000
0000
,  // measure 120
1000
0000
0101
0000
0010
1000
0100
0020
,  // measure 121
0000
0100
0130
1000
0001
1000
0010
0100
,  // measure 122
0002
0000
0013
0020
0000
0130
2002
0000
0000
0000
0000
0000
3003
0000
0010
0000
,  // measure 123
1000
0100
1000
0001
0010
0100
0010
0001
,  // measure 124
1000
0001
0100
0010
1000
0001
0000
0000
,  // measure 125
0000
0000
0020
0000
0000
2030
0000
0000
,  // measure 126
3100
0100
1000
0020
,  // measure 127
0030
0000
0000
0010
1000
0001
1000
0100
,  // measure 128
0010
0001
1000
0000
1010
0000
0001
1000
,  // measure 129
0010
1000
0020
0000
0000
0230
0000
0000
,  // measure 130
0310
0100
0001
0000
0011
0000
1000
1000
,  // measure 131
0010
0000
0100
0010
1000
0000
0001
0000
0010
0000
0001
0000
1000
0000
0001
0000
,  // measure 132
1000
0000
0100
0000
0010
0000
0001
0000
1000
0000
0001
0000
1000
0100
0010
0001
,  // measure 133
1000
0000
0010
0100
0010
0100
0001
0100
,  // measure 134
0001
0000
1000
0100
0010
0100
1000
0001
,  // measure 135
1000
0000
0010
1000
0010
0100
0010
1000
,  // measure 136
0100
0000
0000
0000
0010
0000
0200
0000
0000
0320
0000
0000
0032
0000
0000
2003
,  // measure 137
0000
3010
0200
0000
0302
0000
2003
0000
,  // measure 138
3002
0023
0230
0320
,  // measure 139
0031
0000
1010
0010
0110
0100
0101
0001
,  // measure 140
0000
1000
0100
1000
0001
0010
0000
0100
,  // measure 141
0010
0000
0001
0000
1000
0000
0001
0000
0010
0000
0100
0000
0000
0010
0000
0010
,  // measure 142
0001
1000
0000
0010
0001
1000
0000
0100
,  // measure 143
0001
0000
0010
0000
0000
0000
0100
0000
0100
0000
0100
0000
0000
1000
0000
1000
,  // measure 144
0010
1000
0000
0100
0000
1001
0000
0010
,  // measure 145
0001
0000
0100
0000
1000
0000
0100
0000
0001
0000
0010
0000
0000
0010
0000
0010
,  // measure 146
0100
2200
0000
3300
0000
0022
0000
0033
,  // measure 147
0000
2002
0000
0000
0000
3003
0000
0000
,  // measure 148
0001
0000
0000
0000
0001
0000
0000
0000
0100
0000
0000
0100
0000
0000
0100
0000
,  // measure 149
0010
0000
0000
0000
0010
0000
1000
1000
0010
0000
0000
0010
0000
0000
0010
0000
,  // measure 150
1000
0000
0100
0000
1000
0000
0100
0000
0010
0000
0100
0010
0000
0001
0010
0100
,  // measure 151
1000
0000
0001
1000
0200
0320
0230
0320
,  // measure 152
0031
0000
0100
0000
0010
0000
0100
0000
0001
0000
1000
0010
1000
0000
0001
0000
,  // measure 153
0100
0000
0010
0000
0010
0000
0100
0010
1000
0000
0000
1000
0000
0000
0001
1000
,  // measure 154
0100
0000
1100
0000
0110
0000
0011
2000
,  // measure 155
0000
0000
3010
0100
0001
0000
1000
0000
0200
0000
0000
0000
0310
0000
0000
0000
,  // measure 156
0000
2000
0000
3002
,  // measure 157
0000
0000
0023
0000
0000
0130
0000
0010
,  // measure 158
1000
0001
1000
0010
0100
0001
0010
0100
,  // measure 159
0001
0100
1000
0010
1000
0100
0100
0010
,  // measure 160
0001
0010
1000
0010
0001
0100
0010
1000
,  // measure 161
0001
1000
0010
0100
0001
0010
0010
0010
,  // measure 162
0000
0010
0001
1000
0010
1000
1000
1000
,  // measure 163
0000
0100
1000
0001
0100
0010
0010
0010
,  // measure 164
0000
0010
0000
1010
0000
1000
0000
1100
,  // measure 165
0100
0000
0000
0011
0000
1100
0000
1001
,  // measure 166
0000
0100
0001
0100
0010
1000
1000
1000
,  // measure 167
0000
0100
0010
0001
0010
0100
0100
0100
,  // measure 168
0000
0010
0000
0011
0000
0001
0001
0000
,  // measure 169
1000
0000
0000
0000
0000
0000
0001
0000
0000
0000
0010
0000
0000
0000
0100
0000
0000
0000
1000
0000
0000
0000
0000
0000
0000
1000
0000
0000
0000
0001
0000
0000
,  // measure 170
0000
2000
0000
0000
0000
0000
0000
3000
0000
0000
0000
0000
0000
0000
0000
0000
0001
0000
0100
0000
0010
0000
0000
0000
1000
0000
0000
0000
0001
0000
0000
0000
,  // measure 171
0010
0000
0000
0000
0000
0000
0000
0000
0100
0010
0001
0000
0001
0000
1000
0010
,  // measure 172
0100
0000
0001
0010
0001
0000
1000
0000
,  // measure 173
0010
1000
0000
0001
0000
0010
0000
0100
,  // measure 174
0010
0001
1000
0100
1000
0000
0010
0000
,  // measure 175
0010
0100
0000
0001
0000
0000
0000
0000
,  // measure 176
0010
0000
1000
0000
0010
0000
0100
0000
0000
0001
0000
0000
0001
0000
0010
0000
0100
0000
1000
0000
0100
0000
0010
0000
,  // measure 177
0001
0000
0000
0000
0001
1000
0000
0000
1010
0000
0000
0000
0000
0000
0010
0000
,  // measure 178
0100
0000
0010
0000
1000
0100
0000
0000
0011
0000
0000
0000
0101
0000
0000
0000
,  // measure 179
0100
0100
0010
1000
0001
0000
1000
0100
,  // measure 180
0010
0010
0001
0001
1000
0000
0010
0000
,  // measure 181
2002
0000
3003
0000
0000
0000
0001
0000
0000
0100
0000
0000
0010
0000
0000
0100
0000
0000
0001
0000
0000
0010
0000
0000
,  // measure 182
0010
0100
1000
0001
0011
0000
0110
0000
,  // measure 183
0000
0000
0000
0000
0000
0000
0100
0000
1000
0000
0000
0000
1000
0000
0000
0010
0000
0000
1000
0000
0000
0001
0000
0000
,  // measure 184
0010
0100
0010
0001
0001
0000
0000
0000
,  // measure 185
0000
0000
0000
0000
0000
0000
0000
0000
0000
0000
0000
0000
0000
0000
0001
0100
,  // measure 186
0010
1000
0010
1000
0100
0000
1000
0000
0010
0000
1000
0000
0001
0000
0100
0000
,  // measure 187
0010
1000
0000
0000
0000
0000
0000
0000
,  // measure 188
0000
0000
0010
0001
1000
0001
0100
0010
,  // measure 189
1000
0100
0000
0000
0000
0000
0000
1000
,  // measure 190
1100
0100
1000
0000
1010
0000
0101
0000
,  // measure 191
0010
0100
0010
1000
0001
0000
0010
0000
,  // measure 192
0010
0001
0000
0001
1100
0000
0101
0000
,  // measure 193
1000
0011
0000
1010
0000
0100
1001
0000
,  // measure 194
0000
0000
0010
0001
0000
0001
0100
0000
0010
0000
1000
0000
0100
0000
0010
0000
,  // measure 195
0001
1000
0010
1000
0001
0100
0010
1000
,  // measure 196
0100
0000
0010
0100
0000
0100
1000
0000
0010
0000
0100
0000
0001
0000
1000
0000
,  // measure 197
0100
0010
0001
0100
0010
1000
0001
0010
,  // measure 198
0100
0000
0010
0000
0011
0000
0000
0000
1000
0000
1000
0000
1010
0000
0010
0100
,  // measure 199
0001
0100
0010
0000
1001
0000
0000
0000
0001
0000
0001
0000
0011
0000
0010
0100
,  // measure 200
0010
0000
0000
0000
0000
0000
0001
1000
0010
0100
0010
1000
,  // measure 201
0100
0000
0000
0100
0000
0000
0000
0000
0000
0000
0000
0000
0010
0000
0001
0000
0100
0000
0001
0000
0010
0000
0100
0000
,  // measure 202
1000
0000
0010
0000
0000
0000
0000
0000
0010
1000
0001
0100
0010
1000
0100
0000
,  // measure 203
0010
0000
0010
0000
1001
0000
0000
0000
0100
1000
0001
0010
0100
1000
0010
0000
,  // measure 204
0000
0000
0010
0001
0010
0001
1000
0100
,  // measure 205
0000
0010
0000
0010
0100
0010
0001
1000
,  // measure 206
0010
0100
0001
1000
0100
0010
0001
0010
,  // measure 207
0100
1000
2000
0000
3010
0010
2001
0000
,  // measure 208
3100
0010
0001
0100
0010
0100
0002
0000
,  // measure 209
0000
0010
0013
0000
0000
0000
0200
0000
,  // measure 210
0310
0001
1000
0100
1000
0010
0100
0001
,  // measure 211
1000
0100
1000
0010
0000
0000
0010
0000
,  // measure 212
1000
0000
0100
0100
1000
0001
0010
0100
,  // measure 213
0010
0001
0100
1000
0100
0001
1000
0001
,  // measure 214
1000
0000
0001
0000
0010
0000
0000
0010
0100
0000
1000
0000
0010
0000
1010
0000
,  // measure 215
1001
0000
0100
0010
0100
0001
0011
0000
,  // measure 216
0110
0100
0110
0010
1001
1000
0010
0100
,  // measure 217
0101
0011
1010
0001
1000
0000
0001
0001
,  // measure 218
0001
0001
0001
0001
0001
0001
1001
0100
,  // measure 219
0010
0100
0010
1000
0000
1000
0001
0100
,  // measure 220
0010
0100
0001
0010
0000
0010
0001
0100
,  // measure 221
1000
0010
1000
0100
0001
0010
0100
0010
,  // measure 222
0001
0000
1000
0000
0001
0000
1000
0010
0100
0000
0001
0000
1000
0000
0000
0000
,  // measure 223
0101
0001
0100
0100
1100
1000
0010
0010
,  // measure 224
0011
0100
0001
0100
1000
0010
0100
0000
,  // measure 225
0000
0000
0001
0010
0001
0010
0001
0000
,  // measure 226
0100
0100
0100
0010
1000
0010
1000
0000
,  // measure 227
0000
0000
0000
0000
1100
0100
0000
1000
0100
0000
0010
0000
0110
0100
0000
0010
,  // measure 228
0001
0000
0100
0000
0101
0001
0000
0100
0010
0000
0100
0000
0110
0010
0000
1000
,  // measure 229
0010
0000
1000
0000
1100
0100
0000
1000
0010
0000
0000
0000
1000
0000
0010
0000
,  // measure 230
0100
0001
0001
0010
0001
1000
0100
1000
,  // measure 231
0001
0010
0100
1000
0010
1000
0001
0100
,  // measure 232
0010
0000
0100
0000
0001
0010
0001
1000
0100
1000
0010
0100
0001
0000
0100
0000
,  // measure 233
0010
1000
0100
1000
1000
0100
1000
0010
,  // measure 234
0100
0001
0001
0010
0110
0000
0000
0000
,  // measure 235
1000
0000
0000
0000
0010
0000
1000
0000
0001
0000
0000
0000
0010
0000
0001
0000
0010
0000
0100
0000
1000
0000
0001
0000
0010
0000
0100
0000
0000
0000
1000
0001
,  // measure 236
0100
0000
0000
0000
0010
0000
0000
0000
1000
0000
0001
0000
0100
0000
0010
0000
0010
0000
0000
0000
1000
0000
0000
0000
0001
0000
0100
0000
0000
0100
0001
1000
,  // measure 237
0010
0000
0000
1000
0100
0000
0100
0010
0000
0001
0100
0010
1000
0001
0000
0100
,  // measure 238
0100
0000
0000
0000
0000
0000
0001
0000
0010
0000
0001
0000
1000
0000
0100
0000
0000
0000
0010
0001
1000
0000
0000
0000
0100
0000
1000
0000
0000
0000
0000
0000
,  // measure 239
0010
0000
0000
0000
0100
0000
0000
0000
0010
0000
1000
0000
0001
0000
0010
0000
0100
0000
0010
0000
0001
0000
0000
0000
1000
0000
0010
0000
0000
0000
0100
0001
,  // measure 240
0100
0000
0000
0000
0000
0000
0100
0000
0010
0000
1000
0000
0100
0000
1000
0000
0001
0000
1000
0000
0010
0000
0000
0000
0100
0000
0001
0000
0000
1000
0100
0010
,  // measure 241
0001
0000
0010
0001
0000
0001
0100
0010
0000
0010
1000
0001
1000
0000
0000
0000
,  // measure 242
0000
0000
0000
0000
0010
1000
0001
0200
0000
0000
0000
0000
0000
0000
0000
0000
,  // measure 243
0300
0000
0000
0000
1000
0100
0010
0000
0011
0000
0000
0101
0000
0000
0110
0000
,  // measure 244
0000
0000
0000
0000
0000
0000
0000
0000
1010
0000
0000
1100
0000
0000
0100
0001
,  // measure 245
0010
0000
0000
0010
0100
0000
1000
0000
0010
0000
1000
0001
0100
0000
0001
0010
,  // measure 246
0100
0000
0000
0000
1000
0000
0010
2000
0000
0000
3001
0000
0010
0000
0001
1000
,  // measure 247
0100
0010
0000
0000
0010
0100
0000
0000
,  // measure 248
0100
0000
1000
0010
0000
0000
0000
0000
0000
0000
1001
0000
0000
0000
0000
0000
,  // measure 249
0000
0000
0001
0100
0000
0000
0000
0000
0000
0000
1000
0010
0000
0000
0000
0000
,  // measure 250
0000
0000
0010
0000
0000
0000
0000
0000
0100
0000
0010
0100
0000
0000
0001
0000
,  // measure 251
0000
0100
0000
1000
0100
0100
0000
0010
,  // measure 252
0001
0000
1001
0000
0000
0000
0000
0000
0000
0000
0001
1000
0000
0000
1100
0000
,  // measure 253
0000
0000
0000
0000
0000
0000
0202
0000
0000
0000
0000
0000
0000
0000
0000
0000
0303
0000
0000
0000
0000
0000
0000
0000
1000
0000
0000
0000
0000
0000
0001
0000
0000
0000
0000
0000
0010
0000
0000
0100
0000
0000
0010
0000
0000
0000
0000
0000
,  // measure 254
0001
0000
1000
0000
0001
0100
0001
0000
0010
0000
0100
0000
1000
0010
1000
0000
,  // measure 255
0001
0000
0100
0000
0010
0100
0010
0000
1000
0000
0001
0000
0010
0100
1000
0000
,  // measure 256
0001
0000
0100
0000
0010
0100
0001
0000
0010
0000
0100
0000
1000
0001
0100
0000
,  // measure 257
0010
0000
0100
0000
0001
1000
0010
0000
1000
0000
0100
0000
1000
0000
0001
0000
,  // measure 258
0010
0001
0100
0010
0100
0001
1000
0010
,  // measure 259
1000
0000
0100
0000
0010
0000
0001
0000
1000
0001
0010
0100
0010
0001
1000
0010
,  // measure 260
1000
0001
0100
0010
0100
0001
1000
0100
1000
0001
0010
0100
1000
0100
0010
0001
,  // measure 261
0100
0010
1000
0100
1000
0010
0100
0002
2000
0000
3003
0000
0000
0000
0000
0000
;
