#TITLE:Ti Vsegda V Pluse;
#SUBTITLE:(813 Remix);
#ARTIST:Ivan Dorn;
#TITLETRANSLIT:;
#SUBTITLETRANSLIT:;
#ARTISTTRANSLIT:;
#GENRE:;
#CREDIT:;
#BANNER:banner.png;
#BACKGROUND:background.png;
#LYRICSPATH:;
#CDTITLE:;
#MUSIC:Ti Vsegda V Pluse (813 Remix).ogg;
#OFFSET:0.851692;
#SAMPLESTART:43.924301;
#SAMPLELENGTH:14.328358;
#SELECTABLE:YES;
#BPMS:0.000000=134.000000
;
#STOPS:130.875000=0.224000,
162.375000=0.224000
;
#BGCHANGES:;
#KEYSOUNDS:;
#ATTACKS:;

//---------------dance-single - ----------------
#NOTES:
     dance-single:
     :
     Challenge:
     16:
     0.887491,0.901887,0.327477,0.202265,1.276198,645.000000,611.000000,34.000000,21.000000,0.000000,0.000000,0.887491,0.901887,0.327477,0.202265,1.276198,645.000000,611.000000,34.000000,21.000000,0.000000,0.000000:
// measure 0
0000
0000
0000
0000
,  // measure 1
1000
0001
0000
0001
0100
0000
0010
0000
1000
0010
0000
0100
0001
0000
1000
0000
,  // measure 2
0100
0000
0000
0000
0000
0000
0010
0000
0000
0100
0000
0000
0010
0000
0000
0000
0000
0000
0001
0000
0000
0000
0000
0000
0100
0000
0000
0000
0001
0000
0000
0000
0000
1000
0000
0000
0010
0000
0000
0000
0000
0000
1000
0000
0000
0000
0000
0000
,  // measure 3
0001
0000
0000
0001
1000
0000
0100
0000
1000
0010
0000
0010
1000
0000
0100
0000
,  // measure 4
0001
0000
0000
0000
0000
0000
0100
0000
0000
0010
0000
0000
0001
0000
0000
0000
0000
0000
0100
0000
0000
0000
0000
0000
0010
0000
0000
0000
1000
0000
0000
0000
0000
0001
0000
0000
0100
0000
0000
0000
0000
0000
0010
0000
0000
0000
0000
0000
,  // measure 5
1000
0000
0000
1000
0001
0000
0100
0000
0010
1000
0000
1000
0100
0000
1000
0000
,  // measure 6
0010
0000
0000
0000
0000
0000
0100
0000
0000
0001
0000
0000
0010
0000
0000
0000
0000
0000
1000
0000
0000
0000
0000
0000
0001
0000
0000
0000
0100
0000
0000
0000
0000
1000
0000
0000
0010
0000
0000
0000
0000
0000
0001
0000
0000
0000
0000
0000
,  // measure 7
0010
0000
1000
0000
0100
0000
0010
0000
0001
0000
0100
0000
0010
1000
0001
0000
,  // measure 8
0100
0000
0000
0000
1000
0000
0000
0000
0000
0001
0000
0000
0010
0000
0000
0000
0000
0000
1000
0000
0000
0000
0000
0000
0100
0000
0000
0000
0001
0000
0000
0000
0000
1000
0000
0000
0010
0000
0000
0000
0000
0000
0001
0000
0000
0000
0000
0000
,  // measure 9
1001
0000
0100
1000
0100
0000
0010
0000
0010
0001
1000
0100
0010
0000
1000
0000
,  // measure 10
1100
0000
0010
0001
0010
0000
0001
0000
0001
1000
0010
0100
0001
0000
1000
0000
,  // measure 11
1001
0000
0001
1000
0010
0000
0100
0000
0100
0010
0100
0001
0010
0000
0011
0000
,  // measure 12
0101
0000
0100
0001
1000
0000
0100
1000
0100
0001
0100
1000
0010
0000
0100
0001
,  // measure 13
0100
0010
1000
0000
1100
0000
0010
0100
0010
0001
0010
0100
1000
0000
0010
1000
,  // measure 14
0010
1000
0010
0000
1010
0000
1000
0001
0100
0010
1000
0100
0010
0000
0001
0100
,  // measure 15
1000
0000
1000
0100
0001
0000
0100
0001
0010
0001
0100
0010
1000
0000
0001
0000
,  // measure 16
1000
0001
0000
0001
0010
0000
0001
0000
0100
0010
0000
0010
1000
0000
0001
0000
,  // measure 17
1000
0000
0000
0000
0100
0000
0000
0000
0000
0100
0000
0000
0010
0000
0000
0000
0000
0000
0001
0000
0000
0000
0000
0000
0100
0000
0000
0000
0010
0000
0000
0000
0000
0010
0000
0000
1000
0000
0000
0000
0000
0000
0000
0000
0000
0000
0000
0000
,  // measure 18
0010
0000
0000
0000
0000
0000
0000
0000
0000
0000
0000
0000
0000
0000
0000
0000
1000
0000
0000
0000
0000
0000
0000
0000
0000
0000
0000
0000
0000
0000
0000
0000
0000
0000
0000
0000
1000
0000
0000
0000
0000
0000
0000
0000
0000
0000
0000
0000
0100
0000
0000
0000
0000
0000
0000
0000
0000
0000
0000
0000
0000
0000
0000
0000
0000
0000
0000
0000
0000
0000
0000
0000
0010
0000
0000
0000
0000
0000
0000
0000
0000
0000
0000
0000
0001
0000
0000
0000
0000
0000
0100
0000
0000
0000
0000
0000
0001
0000
0000
0000
0000
0000
0000
0000
0000
0000
0000
0000
0000
0000
0000
0000
0001
0000
0000
0000
0000
0000
0000
0000
0000
0000
0000
0000
0000
0000
0000
0000
0000
0000
0000
0000
0001
0000
0000
0000
0000
0000
0000
0000
0000
0000
0000
0000
0100
0000
0000
0000
0000
0000
0000
0000
0000
0000
0000
0000
0000
0000
0000
0000
0000
0000
0000
0000
0000
0000
0000
0000
0010
0000
0000
0000
0000
0000
0000
0000
0000
0000
0000
0000
0000
0000
0000
0000
0000
0000
0000
0000
0000
0000
0000
0000
,  // measure 19
1000
0000
0000
0000
0010
0000
0000
0000
0000
1000
0000
0000
0100
0000
0000
0000
0000
0000
0010
0000
0001
0000
0000
0000
0100
0000
0000
0000
0001
0000
0000
0000
0000
0010
0000
0000
0100
0000
0000
0000
0000
0000
0000
0000
0000
0000
0000
0000
,  // measure 20
1000
0000
0000
0000
0000
0000
0000
0000
0000
0000
0000
0000
0000
0000
0000
0000
0001
0000
0000
0000
0000
0000
0000
0000
0000
0000
0000
0000
0000
0000
0000
0000
0000
0000
0000
0000
0010
0000
0000
0000
0000
0000
0000
0000
0000
0000
0000
0000
0100
0000
0000
0000
0000
0000
0000
0000
0000
0000
0000
0000
0000
0000
0000
0000
0000
0000
0000
0000
0000
0000
0000
0000
1000
0000
0000
0000
0000
0000
0000
0000
0000
0000
0000
0000
0010
0000
0000
0000
0000
0000
1000
0000
0000
0000
0000
0000
0010
0000
0000
0000
0000
0000
0000
0000
0000
0000
0000
0000
0000
0000
0000
0000
0010
0000
0000
0000
0000
0000
0000
0000
0000
0000
0000
0000
0000
0000
0000
0000
0000
0000
0000
0000
0100
0000
0000
0000
0000
0000
0000
0000
0000
0000
0000
0000
0001
0000
0000
0000
0000
0000
0000
0000
0000
0000
0000
0000
0000
0000
0000
0000
0000
0000
0000
0000
0000
0000
0000
0000
0001
0000
0000
0000
0000
0000
0000
0000
0000
0000
0000
0000
0000
0000
0000
0000
0000
0000
0000
0000
0000
0000
0000
0000
,  // measure 21
1000
0000
0000
0000
0100
0000
1000
0000
0010
0000
0000
0000
1000
0000
0000
0000
0000
0000
0010
0000
0000
0000
0000
0000
0100
0000
0000
0000
0001
0000
1000
0000
0010
0000
0000
0000
0100
0000
0000
0000
0000
0000
0001
0000
0000
0010
0000
0000
,  // measure 22
0100
0000
0010
0100
1000
0000
0001
0000
0000
0100
0000
0000
0010
0000
1000
0001
1000
0000
0100
0000
0000
1000
0000
0000
,  // measure 23
0010
1000
0100
0010
0001
1000
0100
0001
0100
1000
0010
0100
0010
0001
0010
1000
,  // measure 24
0100
0010
0100
0000
0010
0000
0001
0000
0100
0001
0100
0000
0010
0000
1000
0000
0001
0000
0000
0000
0000
0000
0000
0000
1001
0000
0000
0000
0000
0000
0001
0000
,  // measure 25
0100
0000
0100
0000
0001
1000
0001
1000
0020
0000
0000
1030
0000
1000
0100
0000
,  // measure 26
1001
0000
0010
0000
0101
0000
0010
0000
1100
0000
0000
1000
0001
1000
0100
0010
,  // measure 27
0001
0000
1000
0000
0010
1000
0010
1000
0002
0000
0000
0010
0000
0013
0100
0000
,  // measure 28
1100
0000
0010
0000
0011
0000
0001
0000
0101
0000
0100
0010
2020
0000
3030
0000
,  // measure 29
0010
0000
0010
0000
0001
0100
0001
0100
0020
0000
0000
0100
0000
0130
1000
0000
,  // measure 30
1200
0000
0301
0000
1020
0000
0031
0000
1100
0000
0000
0010
0100
0001
1000
0100
,  // measure 31
0010
0000
0101
0000
1000
0001
1000
0001
0010
0000
0000
0010
0001
0100
0001
0000
,  // measure 32
0010
0100
0011
0100
0010
1000
0000
1001
,  // measure 33
1001
0000
1000
0100
1000
0100
0020
0000
0000
0001
0000
0031
0100
0000
0120
0000
,  // measure 34
0031
0000
0120
0000
1030
0000
1010
0000
0000
0101
0000
0010
1000
0100
0001
0000
,  // measure 35
1000
0000
0010
0001
0010
0001
0200
0000
0000
0001
0000
0301
1000
0000
1010
0000
,  // measure 36
0100
0000
1001
0000
0010
0000
1100
0000
0010
0001
2002
0000
3003
0000
0101
0000
,  // measure 37
0100
0000
0010
0100
0010
0100
2000
0000
0000
0100
0000
3100
0010
0000
1010
0000
,  // measure 38
0100
0000
0011
0000
1000
0000
0101
0000
0000
1000
0100
0001
0100
1000
0010
0000
,  // measure 39
0010
0000
0000
0000
1000
0000
0001
0000
1000
0000
0100
0000
0010
0000
0000
0000
0001
0000
0100
0000
0001
0000
0010
0000
1000
0000
0000
0000
0010
0001
0010
0000
,  // measure 40
0001
0000
0000
0000
0000
0000
0000
0000
0000
0000
0000
0000
0100
0000
0000
0000
0000
0000
0000
0000
0000
0000
0000
0000
0010
0000
0000
0000
0000
0000
1000
0000
0000
0000
0000
0000
0010
0000
0000
0000
0000
0000
0000
0000
0000
0000
0000
0000
1000
0000
0000
0000
0000
0000
0000
0000
0000
0000
0000
0000
0100
0000
0000
0000
0000
0000
0000
0000
0000
0000
0000
0000
0010
0000
0000
0000
0000
0000
0000
0000
0000
0000
0000
0000
0000
0000
0000
0000
0000
0000
0000
0000
0000
0000
0000
0000
0001
0000
0000
0000
0000
0000
0000
0000
0000
0000
0000
0000
0000
0000
0000
0000
0000
0000
0000
0000
0000
0000
0000
0000
0000
0000
0000
0000
0000
0000
0000
0000
0000
0000
0000
0000
0000
0000
0000
0000
0000
0000
0000
0000
0000
0000
0000
0000
0010
0000
0000
0000
0000
0000
0000
0000
0000
0000
0000
0000
0000
0000
0000
0000
1000
0000
0000
0000
0000
0000
0000
0000
0000
0000
0000
0000
0000
0000
0000
0000
0001
0000
0000
0000
0000
0000
0000
0000
0000
0000
0000
0000
0000
0000
0000
0000
,  // measure 41
0100
0000
0000
0000
0000
0000
0000
0000
0000
0000
0000
0000
0000
0000
0000
0000
0010
0000
0000
0000
0000
0000
0000
0000
1000
0000
0000
0000
0000
0000
0000
0000
0010
0000
0000
0000
0000
0000
0000
0000
0000
0000
0000
0000
0000
0000
0000
0000
1000
0000
0000
0000
0000
0000
0000
0000
0000
0000
0000
0000
0000
0000
0000
0000
0100
0000
0000
0000
0000
0000
0000
0000
0000
0000
0000
0000
0000
0000
0000
0000
0001
0000
0000
0000
0000
0000
0000
0000
0000
0000
0000
0000
0000
0000
0000
0000
0100
0000
0000
0000
0000
0000
0000
0000
0000
0000
0000
0000
0000
0000
0000
0000
0010
0000
0000
0000
0000
0000
0000
0000
0000
0000
0000
0000
0000
0000
0000
0000
0001
0000
0000
0000
0000
0000
0000
0000
0000
0000
0000
0000
0000
0000
0000
0000
0100
0000
0000
0000
0000
0000
0000
0000
0000
0000
0000
0000
0000
0000
0000
0000
0000
0000
0000
0000
0000
0000
0000
0000
0001
0000
0000
0000
0000
0000
0100
0000
0000
0000
0000
0000
0001
0000
0000
0000
0000
0000
0100
0000
0000
0000
0000
0000
,  // measure 42
0001
0000
0010
0000
0100
0000
1000
0000
0100
0010
0100
0000
1000
0000
0001
0000
0100
0000
0001
0000
0100
0000
0010
0000
,  // measure 43
1000
0000
0100
0000
0010
0000
0100
0000
1000
0000
0010
0000
0100
0000
0001
1000
0001
0000
0100
0000
0001
0000
0010
0000
,  // measure 44
0001
0000
0000
0000
0000
0000
0000
0000
0000
0000
0000
0000
0000
0000
0000
0000
0001
0000
0000
0000
0000
0000
0000
0000
0000
0000
0000
0000
0000
0000
0000
0000
0001
0000
0000
0000
0000
0000
0000
0000
0000
0000
0000
0000
0000
0000
0000
0000
0100
0000
0000
0000
0000
0000
0000
0000
0000
0000
0000
0000
0000
0000
0000
0000
0010
0000
0000
0000
0000
0000
0000
0000
0000
0000
0000
0000
0000
0000
0000
0000
1000
0000
0000
0000
0000
0000
0000
0000
0000
0000
0000
0000
0000
0000
0000
0000
0001
0000
0000
0000
0000
0000
0000
0000
0000
0000
0000
0000
0000
0000
0000
0000
0000
0000
0000
0000
0000
0000
0000
0000
0100
0000
0000
0000
0000
0000
0010
0000
0000
0000
0000
0000
0100
0000
0000
0000
0000
0000
0010
0000
0000
0000
0000
0000
0100
0000
0000
0000
0000
0000
0000
0000
0000
0000
0000
0000
0000
0000
0000
0000
0010
0000
0000
0000
0000
0000
0000
0000
0000
0000
0000
0000
0000
0000
0000
0000
0100
0000
0000
0000
0000
0000
0000
0000
0000
0000
0000
0000
0000
0000
0000
0000
,  // measure 45
0001
0000
0000
0000
0000
0000
0000
0000
0000
0000
0000
0000
0000
0000
0000
0000
1000
0000
0000
0000
0000
0000
0000
0000
0001
0000
0000
0000
0000
0000
0000
0000
0010
0000
0000
0000
0000
0000
0000
0000
0000
0000
0000
0000
0000
0000
0000
0000
0100
0000
0000
0000
0000
0000
0000
0000
0000
0000
0000
0000
0000
0000
0000
0000
0010
0000
0000
0000
0000
0000
0000
0000
0000
0000
0000
0000
0000
0000
0000
0000
0100
0000
0000
0000
0000
0000
0000
0000
0000
0000
0000
0000
0000
0000
0000
0000
1000
0000
0000
0000
0000
0000
0000
0000
0000
0000
0000
0000
0000
0000
0000
0000
0010
0000
0000
0000
0000
0000
0000
0000
0000
0000
0000
0000
0000
0000
0000
0000
1000
0000
0000
0000
0000
0000
0000
0000
0000
0000
0000
0000
0000
0000
0000
0000
0010
0000
0000
0000
0000
0000
0000
0000
0000
0000
0000
0000
0000
0000
0000
0000
0000
0000
0000
0000
0000
0000
0000
0000
0100
0000
0000
0000
0000
0000
0001
0000
0000
0000
0000
0000
0100
0000
0000
0000
0000
0000
0001
0000
0000
0000
0000
0000
,  // measure 46
0100
0000
0010
0000
1000
0000
0100
0000
0010
0001
0010
0000
0100
0000
0001
0000
0100
0000
1000
0000
0010
0000
1000
0000
,  // measure 47
0100
0000
0001
0000
1000
0000
0010
0000
0001
0000
0100
0000
1000
0000
0100
0010
0100
0000
0001
0000
0100
0000
0001
0000
,  // measure 48
1000
0000
0000
0000
0000
0000
0000
0000
0000
0000
0000
0000
0000
0000
0000
0000
1000
0000
0000
0000
0000
0000
0000
0000
0000
0000
0000
0000
0000
0000
0000
0000
1000
0000
0000
0000
0000
0000
0000
0000
0000
0000
0000
0000
0000
0000
0000
0000
0010
0000
0000
0000
0000
0000
0000
0000
0000
0000
0000
0000
0000
0000
0000
0000
1000
0000
0000
0000
0000
0000
0000
0000
0000
0000
0000
0000
0000
0000
0000
0000
0100
0000
0000
0000
0000
0000
0000
0000
0000
0000
0000
0000
0000
0000
0000
0000
0010
0000
0000
0000
0000
0000
0000
0000
0000
0000
0000
0000
0000
0000
0000
0000
0000
0000
0000
0000
0000
0000
0000
0000
0100
0000
0000
0000
0000
0000
0010
0000
0000
0000
0000
0000
0100
0000
0000
0000
0000
0000
0010
0000
0000
0000
0000
0000
0002
0000
0000
0000
0000
0000
0000
0000
0000
0000
0000
0000
0000
0000
0000
0000
0000
0000
0000
0000
0000
0000
0000
0000
0000
0000
0000
0000
0000
0000
0000
0000
0000
0000
0000
0000
0000
0000
0000
0000
0000
0000
0000
0000
0000
0000
0000
0000
,  // measure 49
1003
0100
1000
0001
0100
0010
1000
0001
0010
0200
0000
0000
,  // measure 50
0310
0001
0010
0100
0001
0100
1000
0001
0100
2000
0000
0000
,  // measure 51
3100
0001
1000
0001
0100
0010
1000
0001
0010
0200
0000
0000
,  // measure 52
1000
0001
0010
2300
,  // measure 53
3010
0100
0010
1000
0001
1000
0001
1000
0010
0200
0000
0000
,  // measure 54
0301
1000
0001
0010
0001
1000
0100
1000
0001
0020
0000
0000
,  // measure 55
0031
0100
0001
1000
0010
1000
0001
1000
0010
1000
0100
0010
,  // measure 56
0001
1000
0010
0100
0001
0010
0100
1000
0001
0010
0000
0000
;

//---------------dance-single - ----------------
#NOTES:
     dance-single:
     :
     Hard:
     13:
     0.621932,0.653028,0.163739,0.077053,0.510479,452.000000,435.000000,17.000000,8.000000,0.000000,0.000000,0.621932,0.653028,0.163739,0.077053,0.510479,452.000000,435.000000,17.000000,8.000000,0.000000,0.000000:
0000
0000
0000
0000
,
0010
0000
0000
1000
0000
0000
0001
0000
0001
0000
0000
1000
0000
0000
0100
0000
,
0100
0000
0010
0100
0010
0000
0001
0000
0010
0001
0000
1000
0100
0000
1000
0000
,
0001
0000
0000
1000
0000
0000
0010
0000
1000
0000
0000
0001
0000
0000
1000
0000
,
0010
0000
0000
1000
0001
0000
1000
0000
0010
0100
0000
0010
0100
0000
0010
0000
,
1000
0000
0000
0100
0000
0000
1000
0000
0010
0000
0000
0100
0000
0000
0001
0000
,
1000
0000
0010
1000
0010
0000
0100
0000
0001
1000
0000
0001
1000
0000
0100
0000
,
0010
0000
0001
0000
1000
0000
0001
0000
0100
0000
0010
0000
1000
0001
1000
0000
,
0010
0100
0000
0010
1000
0000
0001
0000
1000
0100
0000
0100
0010
0000
0001
0000
,
1001
0000
0000
0000
0010
0000
1000
0000
0100
1000
0100
0000
0010
0000
0100
0000
,
1001
0000
0001
0000
0100
0000
0000
0000
0010
0000
1000
0010
1000
0000
0100
0000
,
0011
0000
0000
1000
0001
0000
0100
0000
0010
0100
0010
0000
1000
0000
0010
0000
,
1010
0000
1000
0000
0001
0000
0100
0000
0010
0000
0100
0001
0100
0000
0010
0000
,
1001
0000
0001
0100
0001
0000
0010
0000
0100
0010
0100
0000
1000
0000
0010
0000
,
1000
0000
0001
1000
0001
0000
0100
0000
0010
1000
0010
1000
0010
0000
1000
0000
,
0100
0000
0010
0001
0010
0000
0001
0000
1000
0001
1000
0000
0010
0000
0100
0000
,
0010
0000
0000
0000
1000
0000
0001
0000
1000
0000
0000
0010
0000
0000
1000
0000
,
0010
0000
1000
0010
0020
0000
0130
0100
,
0001
0000
0001
0010
0020
0000
0031
0001
,
1000
0000
0010
0100
0200
0000
0310
0010
,
1000
0000
0001
1000
2000
0000
3100
0100
,
0010
0100
0010
0001
1000
0010
0100
0001
,
0100
1000
0100
0001
0010
0100
1000
0010
,
0100
1000
0100
0001
0010
0100
0010
0001
,
1000
0100
1000
0100
0010
0001
0010
0001
1000
0000
0000
0000
1001
0000
0000
0000
,
0001
0000
0001
0000
0100
0001
0100
0001
1000
0000
0000
0010
0000
0010
1000
0000
,
1000
0000
0001
0000
1000
0000
0001
0000
0010
0000
0000
0100
0000
1000
0100
0000
,
0010
0000
0010
0000
0100
0010
0100
0010
0001
0000
0000
0100
0000
0010
1000
0000
,
1000
0000
0010
0000
0001
0000
0010
0000
1000
0000
0000
0100
0000
0100
0010
0000
,
0001
0000
0001
0000
0101
0000
0100
0000
0010
0000
1000
0001
1000
0001
1000
0000
,
0010
0000
0100
0000
0110
0000
0010
0000
1000
0000
0100
1000
0100
1000
0100
0000
,
0010
0000
0001
0000
1001
0000
0000
0000
0101
0000
0000
0010
0000
0010
1000
0000
,
0001
1000
0001
1000
0001
1000
0000
0001
,
0001
0000
0100
0010
0100
0010
1000
0000
0000
0010
0000
0100
0001
0000
1000
0000
,
0010
0000
1000
0000
0010
0000
0100
0000
0000
1000
0000
0100
0001
0000
0010
0000
,
0010
0000
0100
1000
0100
1000
0001
0000
0000
1000
0000
1000
0010
0000
0001
0000
,
0010
0000
1000
0000
0001
0000
0010
0000
0000
0100
0000
1000
0100
0000
0010
0000
,
0001
0000
1001
0000
1000
0000
0010
0000
1000
0001
1000
0001
1000
0000
0010
0000
,
0100
0000
0010
0000
0100
0000
0001
0000
0000
0010
0000
0100
0010
0000
0001
0000
,
0001
0000
0010
0100
0010
0100
1000
0000
0000
1000
0000
0010
1000
0000
0010
0000
,
0100
0001
0100
1000
0100
0000
1001
0000
,
0010
0000
0000
0000
0011
0000
0000
0000
0001
0000
0100
0000
0000
0000
0100
0010
,
0100
0010
1000
0001
0010
0100
1000
0000
,
0110
0000
1100
0000
1000
0010
0000
0010
,
1000
0000
0000
0000
0001
0000
0000
0000
1000
0000
0000
0000
0100
0000
0000
0000
0000
0000
0010
0000
0000
0000
0000
0000
0000
0000
0000
0000
0000
0000
0010
0000
0000
1000
0000
0000
0010
0000
0000
0000
0000
0000
0000
0000
0000
0000
0000
0000
,
0001
0000
0100
0000
1010
0000
0000
0000
0010
0000
1000
0000
0000
0000
1000
0100
,
1000
0010
0100
0100
0000
0010
1000
0000
,
0001
0000
0101
0000
0010
0100
0000
0000
,
1000
0000
0000
0000
0100
0000
0000
0000
0001
0000
0000
0000
1000
0000
0000
0000
0000
0000
0100
0000
0000
0000
0000
0000
0010
0000
0000
0000
0000
0000
0001
0000
0000
0100
0000
0000
0001
0000
0000
0000
0000
0000
0000
0000
0000
0000
0000
0000
,
0010
0000
0100
1000
0001
0000
1000
0000
0010
0000
0000
0000
,
0010
0000
0100
0001
0010
0000
0010
0000
0100
0000
0000
0000
,
0100
0000
0010
0100
1000
0000
0001
0000
1000
0000
0000
0000
,
0010
0000
1000
0010
0100
0010
0001
0010
1000
0200
0000
0000
,
0010
0000
0010
0000
0010
0000
0010
0000
0310
0002
0000
0000
,
1000
0000
1000
0000
1000
0000
1000
0000
1003
0020
0000
0000
,
0100
0000
0100
0000
0100
0000
0100
0000
0130
0002
0000
0000
,
1000
1000
1003
0000
;

//---------------dance-single - ----------------
#NOTES:
     dance-single:
     :
     Medium:
     9:
     0.388019,0.462562,0.202265,0.115580,0.052974,282.000000,261.000000,21.000000,12.000000,0.000000,0.000000,0.388019,0.462562,0.202265,0.115580,0.052974,282.000000,261.000000,21.000000,12.000000,0.000000,0.000000:
0000
0000
0000
0000
,
0010
0000
0100
0000
0010
0000
0001
1000
,
0000
1000
0001
0100
0001
0000
1000
0010
,
0000
0000
1000
0000
0100
0000
0100
0010
,
0000
0000
0010
0001
1000
0000
1000
0001
,
1000
0000
0010
0000
1000
0000
0001
0010
,
1000
0000
0001
0000
1000
0000
0001
0100
,
0001
0000
1000
0000
0010
0000
0100
0010
,
0000
0000
0010
0100
0010
0000
1001
0000
,
1000
0000
0010
0000
1000
0001
1000
0000
,
0100
0000
0010
0001
0010
0000
0001
0000
,
0100
0000
0010
0000
1000
0000
0001
1000
,
0001
0000
0001
0010
0001
0000
0100
0010
,
0100
0000
0010
0000
1000
0000
0001
1000
,
0100
0000
0010
0000
0001
0000
1000
0001
,
1000
0000
0010
0000
0100
0000
0001
0010
,
0001
0000
1000
0100
1000
0000
0001
1000
,
0001
0010
1000
0100
,
0010
0001
0100
0010
,
1000
0100
0001
0010
,
0001
1010
0010
0110
,
0100
1001
0010
1100
,
0001
1010
0100
1001
,
0001
1000
0001
1000
0001
1000
0001
1000
,
0010
0100
0010
0100
0010
0000
0110
0000
,
0010
0000
0100
0000
0010
0000
0000
0000
1000
0000
0000
0001
0000
0000
1000
0000
,
0001
0000
0100
0000
0001
0000
0000
0000
1000
0000
0000
0001
0000
0000
1000
0000
,
0010
0000
0010
0000
0010
0000
0000
0000
1000
0000
0000
0100
0000
0000
1000
0000
,
0010
0000
0100
0000
0001
0000
0000
0000
0010
0000
0000
0001
0000
0000
0010
0000
,
0001
0000
0000
0000
0011
0000
0000
0000
1000
0000
0000
0010
0000
0000
1000
0000
,
0010
0000
0000
0000
1001
0000
0000
0000
0100
0000
0000
0010
0000
0000
1000
0000
,
0001
0000
0000
0000
1001
0000
0000
0000
0010
0000
0000
0100
0000
0000
0010
0000
,
1000
0001
1000
0001
1000
0001
0000
1000
,
1000
0000
0001
0000
0000
0000
0100
0000
0000
0001
0000
0000
0100
0000
0010
0000
,
0100
0010
0100
0010
0000
1001
0000
0001
,
0001
0000
0100
0000
0000
0000
0010
0000
0000
1000
0000
0000
0010
0000
1000
0000
,
0001
1000
0001
1000
0000
1100
0000
0100
,
0000
0000
0110
0000
0000
0000
0001
0000
0000
0001
0000
0000
0100
0000
0010
0000
,
0000
0000
1010
0000
0000
0000
1000
0000
0000
0001
0000
0000
1000
0000
0100
0000
,
0000
0011
0000
0001
0000
1010
0000
0100
,
1000
0100
1000
0100
1000
0000
1002
0000
,
0000
0000
0013
0000
0001
2000
0000
0000
,
0010
3001
0010
0200
,
0000
0000
0310
0000
0100
0002
0000
0000
,
0010
1003
1001
2010
,
0000
0000
3100
0000
0100
0020
0000
0000
,
0001
1030
1100
0020
,
0000
0000
0130
0000
0100
0002
0000
0000
,
1000
0010
0103
2000
,
0000
0010
0010
3002
,
0000
0100
0100
0023
,
0000
0100
0100
0032
,
0000
1000
1003
0000
,
1000
0010
0100
0000
,
0010
0100
0001
0000
,
1000
0100
0001
0010
,
0001
0100
1000
0000
;

//---------------dance-single - ----------------
#NOTES:
     dance-single:
     :
     Easy:
     6:
     0.293078,0.352158,0.105949,0.019263,0.000000,213.000000,202.000000,11.000000,2.000000,0.000000,0.000000,0.293078,0.352158,0.105949,0.019263,0.000000,213.000000,202.000000,11.000000,2.000000,0.000000,0.000000:
0000
0000
0000
0000
,
0010
0000
1000
0000
0010
0000
0000
0010
,
0000
0100
0010
0100
,
0001
0000
1000
0000
0001
0000
0000
1000
,
0000
1000
0010
0100
,
0100
0000
0001
0000
0010
0000
0000
0001
,
0000
1000
0001
0100
,
0010
0010
1000
1000
,
0001
0001
1000
1001
,
0001
1001
1000
0010
,
0100
0110
0100
0001
,
1000
1100
0100
0010
,
0001
1010
0100
0101
,
0001
1010
1000
0001
,
1000
1100
0010
0001
,
0100
0110
0010
1000
,
0001
1000
0010
0100
,
0001
0001
1000
1000
,
0001
0001
1000
1000
,
0010
0010
0100
0100
,
0010
0010
0100
0100
,
0000
1000
0100
0010
,
0001
1000
0100
0010
,
0001
0100
0010
1000
,
0001
1000
0001
1001
,
1000
0000
0001
0000
1000
0000
0000
0100
,
0010
0010
0010
0000
,
0010
0000
0010
0000
1010
0000
0000
0010
,
1000
0001
1000
0000
,
0100
0000
0100
0000
0010
0000
0000
0010
,
0001
0001
1000
1000
,
0001
0000
0100
0000
0010
0000
0000
0010
,
1000
0000
0001
0000
1000
0000
0000
0001
,
0000
0001
0000
1000
0000
0000
1000
0100
,
0000
0100
0000
0010
0000
0010
0000
0001
,
0000
0001
0000
0100
0000
0000
0100
0010
,
0000
0010
0000
1000
0000
1000
0000
0001
,
0000
1000
0000
0001
0000
0000
0001
0100
,
0000
0001
0000
0010
0000
0100
0000
1000
,
0000
1000
0000
0100
0000
0100
0000
0010
,
0000
0001
0000
1000
0000
0000
0001
0000
,
0000
0000
1000
0000
0000
0010
0000
0000
,
0010
1000
0100
0010
,
0000
0000
0001
0000
0000
1000
0000
0000
,
1000
0001
0100
0100
,
0000
0000
0010
0000
0000
1000
0000
0000
,
1000
0001
0010
0001
,
0000
0000
0100
0000
0000
0010
0000
0000
,
0010
1000
0001
0200
,
0010
0010
0010
0000
,
0010
0010
0310
0002
,
1000
1000
1000
0000
,
1000
1000
1003
1000
,
0001
0001
0001
0000
,
1000
1000
1000
0000
,
0010
0000
0010
0100
,
0010
0100
0000
0000
;

//---------------dance-single - ----------------
#NOTES:
     dance-single:
     :
     Beginner:
     3:
     0.165115,0.163979,0.086685,0.077053,0.000000,120.000000,111.000000,9.000000,8.000000,0.000000,0.000000,0.165115,0.163979,0.086685,0.077053,0.000000,120.000000,111.000000,9.000000,8.000000,0.000000,0.000000:
0000
0000
0000
0000
,
0010
0000
1000
0000
,
0001
0001
0001
0000
,
1000
0000
0100
0000
,
0010
0010
0010
0000
,
0001
0000
0100
0000
,
0010
0010
0010
0000
,
1000
0000
0001
0000
,
0100
0000
1001
0000
,
0001
0000
1000
0000
,
0010
0000
0100
0100
,
0100
0000
0010
0000
,
1000
0000
0001
0001
,
0001
0000
1000
0000
,
0100
0000
0010
0010
,
0010
0000
0001
0000
,
1000
0000
0001
0000
,
0100
0000
0100
0000
,
0100
0000
0100
0000
,
0010
0000
0010
0000
,
0010
0000
0010
0000
,
1000
0000
0001
0000
,
1000
0000
0010
0000
,
1000
0000
0001
0000
,
0100
0000
0000
0110
,
0000
0010
0010
0000
,
1000
0000
1000
0000
,
0000
0001
0001
0000
,
0010
0000
0001
0000
,
0000
0100
0100
0000
,
0010
0010
0010
0000
,
0000
1000
1000
0000
,
0001
0000
1000
0000
,
0000
0001
0000
0001
0000
0000
0000
0010
,
0000
0000
0000
0100
0000
0000
0000
0000
,
0000
1000
0000
1000
0000
0000
0000
0010
,
0000
0000
0000
0100
0000
0000
0000
0000
,
0000
0001
0000
0001
0000
0000
0000
1000
,
0000
0000
0000
0010
0000
0000
0000
0000
,
0000
1000
0000
1000
0000
0000
0000
0100
,
0000
0000
0000
0010
0000
0000
1000
0000
,
0000
0001
0000
0000
,
0000
0101
0000
0000
,
0000
1010
0000
0000
,
0000
1001
0000
0000
,
0000
1100
0000
0000
,
0000
1010
0000
0000
,
0000
0110
0000
0000
,
0000
1001
0000
0002
,
0000
1003
0000
2000
,
0000
3010
0000
0020
,
0000
0130
0000
0200
,
0000
0301
0000
2000
,
0000
3100
0000
0020
,
0000
0031
0000
0002
,
0000
1003
0000
2000
,
0000
0000
0000
3000
;
