#TITLE:Thrilling! Is This Love?;
#SUBTITLE:(Hyper Panic Park Remix);
#ARTIST:Slime Girls;
#TITLETRANSLIT:;
#SUBTITLETRANSLIT:;
#ARTISTTRANSLIT:;
#GENRE:;
#CREDIT:;
#BANNER:Thrilling Is This Love.png;
#BACKGROUND:Thrilling Is This Love-bg.png;
#LYRICSPATH:;
#CDTITLE:;
#MUSIC:Thrilling Is This Love.ogg;
#OFFSET:-0.057176;
#SAMPLESTART:57.073475;
#SAMPLELENGTH:11.999996;
#SELECTABLE:YES;
#BPMS:0.000000=160.000000
,31.000000=320.000000
,68.000000=160.000000
,69.000000=320.000000
,122.000000=160.000000
,126.000000=320.000000
,134.000000=160.000000
,166.000000=80.000000
,178.000000=160.000000
,218.000000=80.000000
,220.000000=320.000000
,264.000000=160.000000
,265.000000=320.000000
,283.000000=80.000000
,295.000000=160.000000
;
#STOPS:31.000000=0.188000,
111.000000=0.281000,
111.500000=0.281000,
112.000000=0.188000,
112.500000=0.188000,
331.000000=0.188000,
331.250000=0.188000,
331.500000=0.094000
;
#BGCHANGES:;
#KEYSOUNDS:;
#ATTACKS:;

//---------------dance-single - ----------------
#NOTES:
     dance-single:
     :
     Hard:
     17:
     0.975519,2.014498,0.510091,0.106955,0.991386,830.000000,768.000000,62.000000,13.000000,0.000000,0.000000,0.975519,2.014498,0.510091,0.106955,0.991386,830.000000,768.000000,62.000000,13.000000,0.000000,0.000000:
// measure 0
0000
0000
0000
0000
,  // measure 1
0000
0000
0000
0000
,  // measure 2
0000
0000
0000
0000
,  // measure 3
0000
0000
0000
0000
,  // measure 4
0010
0000
0000
0000
0001
0000
0010
0000
0001
0000
0001
0100
0000
0000
0010
0000
,  // measure 5
1000
0000
0000
0000
0001
0000
1000
0000
0100
0000
0010
0000
0100
1000
0100
1000
,  // measure 6
0100
0010
0001
0100
0010
1000
0001
0010
,  // measure 7
0001
0000
0100
0000
0010
0000
1000
0000
0001
1000
0001
1000
0000
0000
0000
0000
,  // measure 8
0100
0000
1000
0001
1000
0000
0100
0000
,  // measure 9
0010
0001
0000
0101
0000
0100
0010
0100
,  // measure 10
0010
0000
1000
0010
1000
0000
0100
0000
,  // measure 11
1000
0100
0010
0001
0000
0001
0010
0001
,  // measure 12
0100
0000
0100
0001
0010
0000
1100
0000
,  // measure 13
0100
0000
1000
0010
0000
1000
0010
0100
,  // measure 14
0001
0000
1000
0001
1000
0100
0010
0000
,  // measure 15
0010
0001
1000
0001
1000
0001
0100
0010
,  // measure 16
1000
0000
0010
1000
0010
0000
0110
0000
,  // measure 17
2002
3003
0001
1000
0010
1000
0010
0000
,  // measure 18
0100
0001
0100
0000
0101
0000
0001
0000
,  // measure 19
1000
0001
0000
1000
0001
0010
0001
0000
,  // measure 20
0010
0100
0010
0000
0110
0000
0100
1000
,  // measure 21
0000
0110
0000
0010
0001
0000
0101
0000
,  // measure 22
0001
1000
0001
0010
0001
0000
0110
0000
,  // measure 23
0010
0100
0000
0000
1000
0000
1010
0000
,  // measure 24
0010
0100
0010
0000
0100
0000
0001
0000
,  // measure 25
1000
0100
0010
0100
1000
0000
0100
0000
,  // measure 26
0100
0010
0001
0000
1001
0000
1000
0000
,  // measure 27
0100
1000
0100
1000
0100
0010
0001
0101
,  // measure 28
0110
1010
1100
0000
0100
0000
0010
0001
,  // measure 29
0010
0000
0100
1000
0010
0000
1000
0001
,  // measure 30
0100
0000
0010
0000
1000
0000
0001
0000
0200
0000
0000
0010
0000
0000
0310
0000
,  // measure 31
2000
0000
0000
0100
0000
0000
3100
0000
0010
0000
0000
0000
0101
0000
0000
0000
,  // measure 32
0100
0001
1000
0010
1000
0000
1100
0000
,  // measure 33
0010
0000
0001
0000
0010
0000
0001
0000
0100
0010
0000
0100
0010
0000
1000
0000
,  // measure 34
0100
0010
0001
0000
0010
0000
0100
0000
0010
0001
0010
0001
0100
0000
0100
0000
,  // measure 35
0010
1000
0001
0000
0100
0001
0100
0010
1000
0001
0000
1000
0001
0000
0100
0000
,  // measure 36
0010
0100
0010
0000
1000
0000
0100
0000
0010
0000
0001
0010
0001
0000
1000
0000
,  // measure 37
0100
0000
0001
0000
0100
0000
1000
0000
0100
0010
0000
0100
0010
0000
0100
0000
,  // measure 38
0010
0001
0010
0000
0100
0000
1000
0000
0100
0010
0000
0100
0010
0000
0100
0000
,  // measure 39
1000
0001
1000
0000
0100
0000
0010
0000
0001
0010
0000
0001
0010
0000
0001
0000
,  // measure 40
0100
0000
0010
1000
0000
1000
0100
0010
0100
0000
0000
0011
0000
0000
0101
0000
,  // measure 41
1001
0000
0000
0000
0000
0000
0000
0000
1000
0000
0100
0000
0010
0000
0001
0000
1000
0100
1000
0001
0100
0001
0100
0010
0100
0010
1000
0010
1000
0000
0100
0000
,  // measure 42
1000
0000
0010
0000
1010
0000
0110
0000
1001
0000
0001
0100
0010
0000
1000
0001
0010
0001
0010
0100
0010
0001
1000
0010
1000
0000
0010
0000
1000
0000
0001
1000
,  // measure 43
0001
0000
0000
0001
1000
0000
0100
0000
1001
0000
0010
1000
0010
1000
0010
0000
0100
0010
0100
0010
1000
0010
1000
0001
0100
0001
0010
0001
0010
0000
0100
0000
,  // measure 44
0010
0000
0100
0000
1100
0000
1010
0000
0110
0000
0010
1000
0001
0000
1000
0001
0100
0000
0010
0000
1000
0000
0100
0000
0010
0000
0001
0000
0100
0000
0001
0000
,  // measure 45
0010
0000
0100
0000
1100
0000
0000
0000
0010
1000
0001
0100
0010
1000
0100
0010
,  // measure 46
0001
0100
0010
1000
0100
0010
0001
0010
0001
0000
0000
0001
0100
0000
0010
0000
,  // measure 47
1000
0000
0000
1000
0001
0000
0010
0000
0001
0000
0000
0001
0100
0000
0010
1000
,  // measure 48
0010
0100
0010
0000
0100
0001
0100
0001
0010
0001
0000
0010
0001
0000
0010
0000
,  // measure 49
0001
0100
0001
0100
0010
0000
1000
0100
1000
0000
0000
0101
0000
0000
1100
0000
,  // measure 50
1100
0000
0000
0000
0011
0000
0000
0000
0001
1000
0000
0001
1000
0000
0010
1000
,  // measure 51
0010
1000
0100
0000
1000
0000
0001
0000
0010
0001
0010
0001
0010
0000
0100
1000
,  // measure 52
0100
1000
0100
0010
0001
0000
0100
0010
1000
0000
0100
0000
0001
0000
0100
0000
,  // measure 53
1000
0000
0010
0000
0001
0000
0010
0000
1000
0010
0000
0010
0100
0000
0010
0000
,  // measure 54
1000
0100
0010
0001
0000
0100
0001
0010
0200
0000
1000
0000
0320
0000
0001
0000
,  // measure 55
0130
1100
1000
0010
,  // measure 56
1000
0000
0001
0100
0000
0100
0010
0100
,  // measure 57
0001
0000
0010
0100
1000
0000
0010
0000
,  // measure 58
1000
0100
1000
0010
0100
0010
0100
0001
,  // measure 59
0010
0000
0100
0000
1000
0100
0010
0000
,  // measure 60
0001
1000
0000
0001
0010
0001
0010
0001
,  // measure 61
0100
0000
0010
1000
0010
1000
0100
0000
,  // measure 62
0010
0100
0000
1100
0000
1000
0010
0000
,  // measure 63
1001
0000
0100
0001
0100
0000
0010
0000
,  // measure 64
1100
0000
0010
0001
0000
0001
0010
0100
,  // measure 65
1000
0010
1000
0000
0100
0000
1000
0000
,  // measure 66
0202
0303
0001
0100
0010
1000
0100
0000
,  // measure 67
1000
0100
1000
0000
1100
0000
0010
0001
,  // measure 68
0100
0010
1000
0100
0010
0001
0100
0000
,  // measure 69
0010
1000
0010
0000
1010
0000
1000
0001
,  // measure 70
0100
0000
0000
0000
0010
0000
0000
0000
0100
0000
0000
0000
0001
0000
0000
0000
0010
0000
0000
0000
0100
0000
0000
0000
1000
0100
1000
0100
1000
0010
1000
0010
,  // measure 71
0100
0010
0100
0001
0010
0000
0001
0000
0110
0000
0100
0000
1010
0000
1100
0000
0110
0000
0010
0100
0010
0000
0100
1000
0001
0010
0001
0010
0001
0100
0010
0100
,  // measure 72
0010
0000
1000
0000
1001
0000
0001
0000
0011
0000
0000
0100
0010
0000
0001
0000
0101
0000
0000
0100
0010
0100
0010
0100
0001
0100
0001
0100
0010
1000
0010
1000
,  // measure 73
0100
0010
0001
0010
0001
0000
1000
0000
0010
0000
1000
0000
1010
0000
0110
0000
1001
0000
0100
0010
0001
0000
0100
0001
1000
0000
0100
0000
1000
0000
0001
0000
,  // measure 74
0010
0001
0100
0010
1000
0000
0010
1000
0010
0000
0100
0000
0001
0100
0001
0100
,  // measure 75
0010
1000
0010
1000
0100
1000
0100
0010
0001
1000
0100
0010
0001
1000
0001
0000
,  // measure 76
0100
0000
0010
0000
1000
0100
0010
0000
0100
0000
0010
0000
0001
1000
0010
0000
,  // measure 77
1000
0000
0100
0000
0010
0100
0010
0001
1000
0010
0100
0001
0100
0010
0100
0010
,  // measure 78
0100
0000
0010
0000
1000
0100
0010
0001
1000
0000
0100
0000
0011
0000
0000
1001
,  // measure 79
0000
0000
1000
0000
1100
0000
0000
0110
0000
0000
0010
0000
0001
0010
0100
0000
,  // measure 80
1000
0000
0001
1000
0010
1000
0100
0000
0010
0000
0001
1000
0100
0000
0000
0000
,  // measure 81
0110
0000
0100
0010
0001
0100
0010
1000
0010
1000
0100
1000
0100
0010
0100
0000
,  // measure 82
0010
0001
0010
0001
1000
0001
0100
0000
0010
0000
1000
0000
1100
1001
0110
0022
,  // measure 83
0000
0033
0000
1000
0010
1000
0010
0200
0000
0000
0001
0000
0000
0301
0000
0020
,  // measure 84
0000
0130
0001
1000
0000
0100
0010
0001
0000
0000
0001
1000
0000
0100
0000
0010
,  // measure 85
0001
0000
0000
0101
0000
0010
0000
0100
0000
0000
0010
1000
0000
0100
0000
1000
,  // measure 86
0100
0010
0000
0001
0010
0100
1000
0010
0000
0000
0010
1000
0000
0001
0000
0100
,  // measure 87
0010
0000
0000
1010
0000
0100
0000
0001
0000
0000
0001
0100
0000
0010
0000
0110
,  // measure 88
0000
0000
0101
0000
0010
0001
0010
0200
0000
0000
0000
0000
0000
0000
0000
0000
,  // measure 89
0000
0000
0000
0000
,  // measure 90
0000
0000
0000
0000
0000
0000
0000
0000
0000
0000
0000
0300
0000
0000
0000
0000
;

//---------------dance-single - ----------------
#NOTES:
     dance-single:
     :
     Medium:
     14:
     0.713422,1.116081,0.436045,0.090500,0.436045,607.000000,554.000000,53.000000,11.000000,0.000000,0.000000,0.713422,1.116081,0.436045,0.090500,0.436045,607.000000,554.000000,53.000000,11.000000,0.000000,0.000000:
0000
0000
0000
0000
,
0000
0000
0000
0000
,
0000
0000
0000
0000
,
0000
0000
0000
0000
,
0010
0000
0000
0000
1000
0000
0100
0000
1000
0000
0000
0001
0000
0000
1000
0000
,
0100
0000
0000
0000
0010
0000
0001
0000
0010
0000
0100
0000
1000
0001
1000
0001
,
1000
0010
1000
0100
0010
0000
0001
0000
,
1001
1001
1001
0000
,
1000
0001
1000
0100
,
0010
0001
0000
0010
0000
0100
1000
0000
,
0010
1000
0001
0100
,
0010
0100
0000
0001
0000
0001
0010
0000
,
0001
1000
0100
1000
,
0010
0000
1000
0010
0000
0010
1000
0000
,
0100
0000
1000
0000
0001
0010
0001
0000
,
0010
0100
0000
0100
0000
0100
1000
0000
,
0001
1000
0010
0100
,
1001
0000
0001
1000
0001
1000
0001
0000
,
0100
0010
0100
0001
,
1000
0010
0000
0010
1000
0000
0100
0000
,
0010
0000
0001
0000
0010
0000
0001
0100
,
0000
0010
0000
0010
1000
0000
0001
0000
,
0010
0100
1000
0100
,
1000
0001
0000
0000
0001
0000
0101
0000
,
0100
0010
1000
0100
,
0010
0100
0000
0100
1000
0000
1001
0000
,
0001
1000
0010
0100
,
0001
0010
0000
0010
0001
0010
0100
0100
,
1000
1000
1000
0000
0010
0000
1000
0000
,
0010
0000
1000
0000
0100
0000
0010
0001
,
0010
0000
0001
0000
0010
0000
0001
0000
2000
0000
0000
0010
0000
0000
0010
0000
,
3002
0000
0000
0100
0000
0000
0103
0000
0010
0000
0000
0000
0100
0000
0000
0000
,
0010
1000
0010
1000
0010
0000
0100
0000
,
0001
0000
1000
0000
0001
0000
1000
0000
0001
0000
0000
0001
0010
0000
0001
0000
,
0100
0000
0110
0000
0010
1000
0001
1000
,
0100
0000
0010
0000
0100
0000
0010
0000
0100
0000
0000
0100
1000
0000
0001
0000
,
0010
0000
0101
0000
0010
1000
0001
0100
,
1000
0000
0100
0000
0001
0000
0100
0000
0010
0000
0000
0010
1000
0000
0100
0000
,
0010
0000
0000
0000
0001
0000
1000
0000
0100
0000
0000
0100
1000
0000
0010
0000
,
0100
0001
0100
0000
0001
0000
0010
0000
0110
0000
0000
0000
1100
0000
0000
0000
,
0010
0000
0001
1000
0000
0001
1000
0000
1001
0000
0000
0100
0000
0000
0010
0000
,
1010
0000
0000
0000
1001
0000
0000
0000
1000
0100
1000
0100
0010
0001
0010
0001
,
0100
0000
0110
0000
1010
0000
0000
1000
0001
0000
0100
0010
1000
0001
0100
0010
,
1000
0000
1001
0000
1001
0000
1001
0000
0001
0100
0001
0010
0100
0010
0100
1000
,
0100
0000
0110
0000
0101
0000
0010
1000
0100
0000
0000
0100
0010
0000
0001
0000
,
1000
0000
0000
1000
0100
0000
1000
0000
0010
0000
1000
0000
0001
0000
0010
0000
,
0001
0010
0001
0000
1000
0100
1000
0000
0001
0000
0010
0000
0001
0000
0100
0000
,
0001
0000
1000
0010
1000
0000
0010
0000
1000
0000
0100
0010
0100
0000
1000
0000
,
0001
0000
0100
0000
0010
1000
0010
1000
0010
0000
1000
0000
0100
0000
0001
0000
,
0100
0000
0000
1000
0000
0000
0010
0000
1001
0000
0000
0000
0011
0000
0000
0000
,
1100
0000
0000
0000
1010
0000
0000
0000
0100
1000
0100
0000
1000
0000
0001
0000
,
0100
0010
0100
0000
0010
0000
1000
0000
0001
0000
0000
0001
1000
0000
0010
0000
,
1000
0000
0100
1000
0001
0000
0010
0001
0100
0000
0200
0000
0010
0000
0320
0000
,
1000
2030
0001
3001
0011
0000
1100
0000
,
0110
0000
0000
0000
1001
0000
0000
0000
0101
0000
0010
0000
1000
0010
1000
0100
,
0010
0100
1000
0010
,
1000
0000
0001
0100
0000
0100
0001
0000
,
0010
0001
1000
0100
,
0010
0000
0001
0100
0001
0000
0100
0001
,
0100
0010
1000
0100
,
1000
0001
0000
0001
0000
0010
0100
0000
,
0010
0001
1000
0100
,
1000
0100
0000
0010
0000
0010
0100
0000
,
0110
0010
0001
1000
,
0010
0000
0100
0001
0000
0001
0100
0000
,
0101
0001
0100
0010
,
2000
0000
3100
0010
0100
0000
0010
0000
,
0001
0000
0100
0000
0010
0100
0000
0100
,
0010
1000
0010
0110
,
0100
0001
1000
1100
,
0000
0000
0110
0000
0000
0000
0000
0000
1001
0000
0000
0000
0001
1000
0001
1000
,
0010
0100
0001
0010
0001
0000
1100
0000
1010
0000
0000
0010
1000
0000
1000
0100
,
0010
0001
1000
0100
0010
0000
0101
0000
0110
0000
1010
0000
0010
1000
0001
0100
,
0010
1000
0100
0000
0110
0000
0011
0000
1001
0000
0001
0010
0100
0000
0000
0100
,
1000
0000
0010
0000
1000
0000
0000
1000
0001
0000
0010
0000
0001
0000
1000
0000
,
0100
0000
1000
0000
0010
1000
0010
1000
0001
0100
0001
0100
0001
0000
0000
0000
,
1000
0000
0010
0000
1000
0000
0001
0100
0001
0000
0100
0000
0001
0000
0010
0100
,
0010
0000
0001
0000
1000
0000
0010
0000
0100
0001
0100
0001
0100
0000
0001
0000
,
0100
0000
1000
0000
0100
0000
0000
0001
0000
0000
0100
0000
1001
0000
0000
0000
,
1100
0000
0000
0000
0011
0000
0000
0000
0101
0000
0000
0000
0010
0001
0010
0000
,
0001
0000
1000
0000
0010
0100
0010
0000
0100
0000
0001
0000
1000
0000
0000
1000
,
0001
0000
0100
0000
0001
0000
0010
0001
1000
0000
0100
1000
0010
0000
0020
0000
,
0100
0000
0230
0000
0001
0000
0302
0000
1000
0000
1003
0000
0001
0010
0100
1000
,
0000
0000
0000
1010
0000
0000
0000
0100
0000
0000
1000
0000
0000
0001
0000
0010
,
0000
0100
0010
0100
0000
1000
0000
0001
0000
1000
0000
0100
0000
0010
0000
0001
,
0000
0100
0000
0010
0000
0100
0000
0001
0000
0000
0001
0100
0000
0010
0000
1000
,
0010
1000
0000
0010
0100
0010
0000
0100
0000
0001
0000
0100
0000
0010
0000
0100
,
0000
0001
0000
1000
0000
0000
0000
0011
0000
0000
0000
1100
0000
0000
0000
1001
,
0000
0000
0000
0110
0000
0000
0000
0202
0000
0000
0000
0000
0000
0000
0000
0000
,
0000
0000
0000
0000
,
0000
0000
0000
0000
0000
0000
0000
0303
0000
0000
0000
0000
0000
0000
0000
0000
;

//---------------dance-single - ----------------
#NOTES:
     dance-single:
     :
     Easy:
     11:
     0.443097,0.855662,0.378454,0.296182,0.127523,377.000000,331.000000,46.000000,36.000000,0.000000,0.000000,0.443097,0.855662,0.378454,0.296182,0.127523,377.000000,331.000000,46.000000,36.000000,0.000000,0.000000:
0000
0000
0000
0000
,
0000
0000
0000
0000
,
0000
0000
0000
0000
,
0000
0000
0000
0000
,
0010
0000
0001
0000
0100
0001
0100
0000
,
0010
0000
1000
0000
0001
1000
0001
0000
,
0010
0100
0010
0000
,
1001
1001
1001
0000
,
0010
0000
1000
0100
,
0010
0000
0011
0000
,
0001
0000
0100
0010
,
0100
0000
1001
0000
,
0010
0000
0100
1000
,
0001
0000
0101
0000
,
0010
0000
0100
0010
,
0100
0000
1100
0000
,
0001
0000
0100
0010
,
1000
1001
0000
0100
,
0010
0100
0010
0100
,
0000
0011
0000
0001
,
1000
0001
1000
0001
,
0001
1000
0000
0010
,
0100
0010
0100
0010
,
0000
1010
0000
1000
,
0001
1000
0001
1000
,
0000
1001
0000
0010
,
0000
0100
0001
0100
,
0000
0010
1000
0002
,
2003
3000
0200
0000
,
0010
0000
0010
0000
,
0310
0000
1000
0001
,
0100
0010
1000
0000
,
0001
0000
0010
0010
,
0010
0000
1001
0001
,
0100
0010
1000
0000
1000
0000
1100
0000
,
0100
0010
0100
0010
0100
0000
0010
0000
,
0001
0100
0010
0000
1000
0000
1000
0002
,
0000
0100
0003
0100
0010
0000
1000
0000
,
0001
0000
0010
0000
0001
0010
0100
0000
,
1010
0010
1000
0001
,
0100
0010
1000
0000
2002
0000
3003
1001
,
2002
0000
0000
0000
3003
0000
0000
0000
0010
0000
0100
0000
0001
1000
0001
0000
,
0010
0000
0001
0010
0001
0000
0000
0000
0100
0000
1000
0000
0010
0000
2000
0000
,
0001
0000
0001
0000
0001
0000
3001
0000
0010
0000
0001
0000
0100
0010
1000
0000
,
1000
0000
0001
0000
0010
0000
0001
1000
0020
0000
0000
0000
0100
0000
0000
0000
,
0100
0000
0130
0000
0010
1000
0001
1000
,
0001
1000
0001
0000
0100
0000
0010
0000
,
1000
0001
1000
0000
0100
0000
0010
0000
,
0001
0010
0001
0000
0100
0000
0100
0000
,
0020
0000
0000
0030
1001
0000
1001
0000
,
1001
1001
1000
0100
,
0010
0100
0100
0000
2020
0000
3030
1010
,
2020
0000
3030
0000
0001
0100
0001
0000
,
0001
0010
0002
0000
1000
0000
1000
0000
,
1000
1003
0020
0230
,
1300
0000
0100
1000
,
0100
0000
1001
0000
,
0001
0000
0100
0001
,
0100
0000
0110
0000
,
0010
0000
1000
0001
,
1000
0000
1100
0000
,
0010
0000
0001
0100
,
0001
0000
1010
0000
,
0010
0000
1000
0100
,
1000
0000
0110
0000
,
0020
0000
0230
0000
,
0301
1000
0000
0001
,
1000
0001
1000
0001
,
0000
0010
0000
0100
,
1000
0100
1000
0200
,
0000
0000
0000
0000
0000
0000
0310
0001
,
1000
0000
0100
0000
1000
0000
0010
1000
0100
0000
0000
0000
0020
0000
0001
0000
,
0001
0031
1100
1100
0101
0101
0100
0010
,
1000
0010
1000
0000
0200
0000
0010
0000
0310
0000
0001
0010
0001
0000
0000
0000
,
1000
0000
0010
1000
0100
0000
0020
0000
,
0032
2003
3200
0310
,
0001
0000
0100
0010
0100
0000
0010
0000
,
1000
0000
0001
1000
0001
0000
0010
0000
,
0010
0200
0300
1010
,
1010
0101
0101
1000
,
0001
0000
0010
0001
0010
0000
0220
0000
,
0330
0110
0220
0000
0330
0000
1000
0001
,
1000
0000
0000
0000
0001
0000
0010
0000
0001
0000
0000
0000
0200
0000
0000
0310
,
0000
0000
0000
0001
0000
0000
0000
1000
0000
0000
0000
0010
0000
0000
0000
0100
,
0000
0010
0000
0100
0000
0000
0000
0010
0000
0000
0000
1000
0000
0000
0000
0100
,
0000
0010
0000
0001
0000
0000
0000
0002
0000
0000
0000
0000
0000
1000
0000
1003
,
0000
0000
0000
1010
0000
0000
0000
0100
0000
0000
0000
0010
0000
0000
0000
1000
,
0000
0000
0000
0000
0000
0000
0000
0011
0000
0000
0000
0011
0000
0000
0000
1010
,
0000
0000
0000
1010
0000
0000
0000
2002
0000
0000
0000
0000
0000
0000
0000
0000
,
0000
0000
0000
0000
,
0000
0000
0000
0000
0000
0000
0000
3003
0000
0000
0000
0000
0000
0000
0000
0000
;

//---------------dance-single - ----------------
#NOTES:
     dance-single:
     :
     Beginner:
     6:
     0.316162,0.595243,0.205682,0.090500,0.078159,269.000000,244.000000,25.000000,11.000000,0.000000,0.000000,0.316162,0.595243,0.205682,0.090500,0.078159,269.000000,244.000000,25.000000,11.000000,0.000000,0.000000:
0000
0000
0000
0000
,
0000
0000
0000
0000
,
0000
0000
0000
0000
,
0000
0000
0000
0000
,
0010
1000
0001
0001
,
0010
0100
0010
0010
,
0001
0001
2000
0000
,
0010
0010
0010
3000
,
0010
0000
0000
0000
,
0100
0000
0010
0000
,
1000
0000
0000
0000
,
0010
0000
1000
0000
,
0001
0000
0000
0000
,
0010
0000
0100
0000
,
0010
0000
0000
0000
,
0001
0000
1000
0000
,
0010
0000
0000
0000
,
1001
0000
0000
0001
,
0000
1000
0000
0001
,
0000
0000
0000
0010
,
0000
1000
0000
0010
,
0000
0000
0000
0100
,
0000
0001
0000
0010
,
0000
0001
0000
1000
,
0000
0100
0000
0010
,
0000
1001
0000
0001
,
0000
1000
0000
0001
,
0000
1000
0000
0010
,
0100
0000
0010
0000
,
0100
0000
0010
0000
,
0100
0000
0001
0000
,
1000
0000
1000
0000
,
0000
0000
0001
0000
,
1000
0000
0100
0000
,
0010
0000
0001
0100
,
0001
1000
0100
0000
,
0010
0000
0001
0010
,
0100
0010
0001
1000
,
1000
0001
0001
0010
,
0001
0100
0010
1000
,
0100
0000
0010
0000
0002
0000
0000
1000
,
1003
1001
0020
1030
,
1000
0100
0110
0000
0010
0100
1000
0010
,
1000
0001
1000
0001
0010
0000
0100
0000
,
1000
0010
1010
0000
0001
0000
0010
0000
,
0100
0000
1000
0000
0020
0000
0000
1000
,
1030
1001
0010
1000
,
0100
1000
0001
0010
,
0100
0010
0001
0001
,
1001
0000
1001
1001
,
1001
1001
0000
0010
,
0001
0000
0010
0000
0200
0000
0000
0010
,
0310
0110
0001
0100
,
0010
1000
0001
1000
,
0001
1000
0010
0100
,
0010
0000
0000
0000
,
0100
0000
0001
0000
,
1000
0000
0000
0000
,
0100
0000
0010
0000
,
0001
0000
0001
0000
,
1000
0000
1000
0000
,
0010
0000
0100
0000
,
0010
0000
0000
0000
,
1000
0000
0001
0000
,
0010
0000
0001
0000
,
0100
0000
0010
0000
,
0110
0000
0000
1000
,
0000
1000
0000
0010
,
0000
0100
0000
0001
,
0000
0010
0000
0001
,
0000
0010
0000
0100
,
1000
0000
0010
0010
0010
0000
1000
0001
,
1000
0100
0010
0001
0010
0001
0100
0000
,
0010
0000
1000
0001
1000
0000
0010
0000
,
1000
0001
0010
0200
,
0000
0010
0310
0000
1001
0000
1000
0000
,
0010
1000
0100
0010
,
0001
1000
0010
0100
,
0100
0200
0300
1001
,
1001
1001
1001
0001
,
0100
1000
0100
0002
,
0000
0010
0013
0000
0110
0000
0100
0000
,
1000
0000
0000
0000
0010
0000
0000
0000
0100
0000
0000
0000
0010
0000
0000
1000
,
0000
0000
0000
0000
0000
0000
0000
1000
0000
0000
0000
0000
0000
0000
0000
0001
,
0000
0000
0000
0000
0000
0000
0000
0010
0000
0000
0000
0001
0000
0000
0000
0001
,
0000
0000
0000
1000
0000
0000
0000
0020
0000
0000
0000
0000
0000
1000
0000
1030
,
0000
0000
0000
1001
0000
0000
0000
0010
0000
0000
0000
1000
0000
0000
0000
0100
,
0000
0000
0000
0000
0000
0000
0000
1001
0000
0000
0000
1001
0000
0000
0000
1001
,
0000
0000
0000
1001
0000
0000
0000
2002
0000
0000
0000
0000
0000
0000
0000
0000
,
0000
0000
0000
0000
,
0000
0000
0000
0000
0000
0000
0000
3003
0000
0000
0000
0000
0000
0000
0000
0000
;
