#TITLE:Thief;
#SUBTITLE:(Flux Pavilion Remix);
#ARTIST:Ookay;
#TITLETRANSLIT:;
#SUBTITLETRANSLIT:;
#ARTISTTRANSLIT:;
#GENRE:;
#CREDIT:;
#BANNER:Thief (Flux Pavilion Remix).png;
#BACKGROUND:Thief (Flux Pavilion Remix)-bg.png;
#LYRICSPATH:;
#CDTITLE:;
#MUSIC:Thief (Flux Pavilion Remix).ogg;
#OFFSET:-0.093058;
#SAMPLESTART:49.897057;
#SAMPLELENGTH:13.241379;
#SELECTABLE:YES;
#BPMS:0.000000=145.000000
;
#STOPS:
;
#BGCHANGES:;
#KEYSOUNDS:;
#ATTACKS:;

//---------------dance-single - Duet 1----------------
#NOTES:
     dance-single:
     :
     Edit:
     1:
     0.376150,0.464909,0.674406,0.480693,0.000000,367.000000,273.000000,94.000000,67.000000,0.000000,0.000000,0.376150,0.464909,0.674406,0.480693,0.000000,367.000000,273.000000,94.000000,67.000000,0.000000,0.000000:
0000
0000
0000
0000
,
0000
0000
0000
0000
,
0000
0000
0000
0000
,
0000
0000
0000
0000
,
0000
0000
0000
0000
,
0000
0000
0000
0000
,
0000
0000
0000
0000
,
0010
0000
0000
0000
2002
0000
0003
3001
,
0010
0100
0011
1000
,
0001
1000
1010
0010
,
0100
0001
1001
0100
,
1000
0010
0110
0100
,
1001
0010
0011
1000
,
0101
0010
1010
1000
,
1001
0001
0001
0001
,
0020
0000
0000
0000
0030
0000
0010
0001
,
0100
0010
1000
0010
,
0100
0010
1000
0001
,
1000
0100
0010
0100
,
2000
0000
3000
0020
,
0031
0100
0001
0010
,
0001
0100
0010
1000
,
0001
0100
0010
0100
,
0002
0000
0003
0020
,
0130
1000
0100
1000
,
0001
0000
1000
0001
0010
0000
0001
0100
,
0010
1000
0010
1000
,
0200
0000
0000
0000
0300
0000
0010
0001
,
1000
0100
1000
0010
,
1000
0000
0001
0000
0200
0000
0310
1000
,
0001
1000
0100
1000
,
0022
0000
0030
0103
,
1010
0100
1001
0001
,
1100
0010
1001
0100
,
0110
1000
0011
0100
,
2002
0000
3003
0010
,
1100
0010
1010
0001
,
0101
0010
1001
0010
,
1100
0001
1010
0100
,
0220
0000
0330
0001
,
1010
0100
0011
0100
,
1001
0000
0100
0001
0010
0000
0100
1000
,
0001
0100
1010
0001
,
2200
0000
0000
0000
3300
0000
0001
0010
,
0100
0010
1001
0100
,
1010
0000
0001
0000
2100
0000
3010
0100
,
0001
1000
0011
0100
,
2002
0000
3003
0020
,
0031
1000
1010
0010
,
1001
1000
1100
0010
,
0011
0100
1001
0101
,
1010
1000
1001
1100
,
0110
0010
0011
0001
,
1100
0010
1001
0001
,
1100
0010
0101
0110
,
1001
0000
1000
0000
0010
1000
0100
0001
,
0000
0100
0000
1000
0001
0000
1000
0010
,
0100
0000
0000
0000
0000
0010
0100
0001
,
0000
0010
0000
0100
0010
0000
0001
0100
,
1000
0000
0000
0000
0000
0010
1000
0001
,
0000
0010
0000
0100
0010
0000
0100
1000
,
0010
0000
0000
0000
0000
0010
1000
0001
,
0010
0100
0010
0001
1000
0100
0010
0001
,
1000
0000
0000
0000
0000
0000
1001
0001
,
2200
0000
0000
3300
0011
0000
0000
0000
,
2002
0000
0000
3003
0101
0000
0000
0000
,
0220
0000
0000
0330
1100
0000
2002
3003
,
0022
0000
0000
0033
0101
0000
0220
0330
,
2020
3030
1001
0000
,
0022
0000
0000
0033
1001
0000
0000
0000
,
0202
0000
0000
0303
0110
0000
0022
0033
,
2200
0000
0000
3300
1001
0000
2020
3030
,
0202
0000
0000
0303
1001
0000
0000
0000
,
2200
0000
0000
3300
1001
0000
0000
0000
,
0220
0000
0000
0330
0011
0000
0202
0303
,
2200
0000
0000
3300
1001
0000
2020
3030
,
0021
0000
0001
0030
1100
0000
1000
0000
,
2001
0000
0001
3000
0101
0000
0100
0000
,
0210
0000
0010
0300
1010
0000
0220
0330
,
0021
0000
0001
0030
1001
0000
0220
0330
,
2002
0000
0000
0000
,
3003
0000
0000
0000
;

//---------------dance-single - Duet 2----------------
#NOTES:
     dance-single:
     :
     Edit:
     2:
     0.377175,0.523023,0.667231,0.430472,0.000000,368.000000,275.000000,93.000000,60.000000,0.000000,0.000000,0.377175,0.523023,0.667231,0.430472,0.000000,368.000000,275.000000,93.000000,60.000000,0.000000,0.000000:
0000
0000
0000
0000
,
0000
0000
0000
0000
,
0000
0000
0000
0000
,
0000
0000
0000
0000
,
0000
0000
0000
0000
,
0000
0000
0000
0000
,
0000
0000
0000
0000
,
0000
0000
0000
0000
0000
0010
1000
0001
,
0000
0010
0000
0100
0010
0000
0001
0010
,
0100
0000
0000
0000
0000
0010
0100
1000
,
0000
0001
0000
1000
0010
0000
0100
0001
,
1000
0000
0000
0000
0000
0010
1000
0001
,
0000
0010
0000
0001
0100
0000
0010
0100
,
0001
0000
0000
0000
0000
0010
0001
1000
,
0000
0200
0000
0000
0000
0000
0000
0000
,
0000
0000
0000
0000
,
0010
0010
0010
0010
,
1000
1000
1000
1000
,
0001
0001
0001
1000
,
0010
0010
0010
0301
,
0100
0001
0100
0010
,
1000
0001
1000
0010
,
1000
0100
1000
0001
,
0010
0100
0010
0001
,
1001
1100
1001
0101
,
0110
0011
1010
1100
,
0011
1001
1010
0101
,
1001
0011
1100
0110
,
1000
0001
1000
0001
1000
0001
1000
0001
,
0100
0010
0100
0010
0100
0010
0100
0010
,
1000
0001
0100
0010
1000
0100
0010
0001
,
1000
0000
0000
0000
0000
0000
0001
0001
,
2200
0000
0000
3300
0110
0000
0000
0000
,
2002
0000
0000
3003
0101
0000
0000
0000
,
0022
0000
0000
0033
1100
0000
2020
3030
,
0202
0000
0000
0303
0110
0000
2002
3003
,
2200
0000
0000
3300
0011
0000
0000
0000
,
2002
0000
0000
3003
1010
0000
0000
0000
,
2200
0000
0000
3300
0101
0000
0220
0330
,
2020
0000
0000
3030
1100
0000
0220
0330
,
0022
0000
0000
0033
1001
0000
0000
0000
,
2020
0000
0000
3030
0110
0000
0000
0000
,
0202
0000
0000
0303
0011
0000
2020
3030
,
2200
0000
0000
3300
1001
0000
0220
0330
,
0012
0000
0010
0003
1100
0000
1000
0000
,
2010
0000
0010
3000
0101
0000
0100
0000
,
2001
0000
0001
3000
0011
0000
0110
0000
,
2001
0000
3010
0000
,
0000
0010
1000
0001
0000
0001
0010
0200
,
0000
1300
0000
0000
0000
0000
0000
1000
,
0010
0100
0001
0100
0000
0020
0000
0130
,
0001
0001
0010
0100
0000
0000
0000
0000
,
0100
1000
0001
2000
0000
3010
0100
0002
,
0000
0003
0000
0000
0000
0001
0100
0010
,
1000
0011
1010
1100
,
0101
0000
1001
0000
,
1100
0000
0011
0000
,
0110
0001
1001
1000
,
1010
0000
0110
0000
,
0101
0100
1001
0010
,
1000
0001
0100
0010
,
0100
0001
1000
0010
,
0001
1000
0010
0100
0001
0100
0010
1000
,
0200
0000
0000
0000
0000
0300
0020
0030
,
0101
1000
0110
1000
,
0011
0100
1001
0010
,
1100
0010
1001
0100
,
0022
0000
0000
0000
0000
0033
0200
0300
,
1010
0001
1100
0001
,
0110
1000
0101
1000
,
1001
0010
0101
0010
,
2002
0000
0000
0000
0000
3003
0020
0030
,
1001
0100
0011
0100
,
1010
0000
0100
0001
0010
0000
0100
1000
,
0001
1000
0110
0001
,
2020
0000
0000
0000
0000
3030
0001
0100
,
0010
1000
0101
0010
,
1100
0000
0001
0000
2010
0000
3010
0100
,
0001
0010
1001
0100
,
0022
0000
0033
0110
,
2002
0000
0000
0000
,
3003
0000
0000
0000
;

//---------------dance-single - ----------------
#NOTES:
     dance-single:
     :
     Beginner:
     1:
     0.101468,0.172189,0.028698,0.000000,0.000000,99.000000,95.000000,4.000000,0.000000,0.000000,0.000000,0.101468,0.172189,0.028698,0.000000,0.000000,99.000000,95.000000,4.000000,0.000000,0.000000,0.000000:
// measure 0
0000
0000
0000
0000
,  // measure 1
0000
0000
0000
0000
,  // measure 2
0000
0000
0000
0000
,  // measure 3
0000
0000
0000
0000
,  // measure 4
0000
0000
0000
0000
,  // measure 5
0000
0000
0000
0000
,  // measure 6
0000
0000
0000
0000
,  // measure 7
0000
0000
0000
0000
,  // measure 8
0010
0000
0000
0000
,  // measure 9
0010
0000
0000
0000
,  // measure 10
1000
0000
0000
0000
,  // measure 11
0001
0000
0000
0000
,  // measure 12
0100
0000
0000
0000
,  // measure 13
0100
0000
0000
0000
,  // measure 14
0010
0000
0000
0000
,  // measure 15
1000
0000
0000
0000
,  // measure 16
0001
0000
0001
0000
,  // measure 17
0001
0000
0000
0000
,  // measure 18
1000
0000
1000
0000
,  // measure 19
1000
0000
0000
0000
,  // measure 20
0010
0000
0010
0000
,  // measure 21
0010
0000
0000
0000
,  // measure 22
0100
0000
0100
0000
,  // measure 23
0100
0000
0000
0000
,  // measure 24
1000
0000
0000
0000
,  // measure 25
0001
0000
0000
0000
,  // measure 26
1000
0000
0000
0000
,  // measure 27
0100
0000
0000
0000
,  // measure 28
0010
0000
0000
0000
,  // measure 29
0001
0000
0000
0000
,  // measure 30
1000
0000
0000
0000
,  // measure 31
1001
0000
0000
0000
,  // measure 32
0010
0000
0000
0000
,  // measure 33
0100
0000
0000
0000
,  // measure 34
1000
0000
0000
0001
,  // measure 35
0001
0000
0000
1000
,  // measure 36
1000
0000
0000
0000
,  // measure 37
0010
0000
0000
0000
,  // measure 38
0100
0000
0000
0010
,  // measure 39
0010
0000
0000
1000
,  // measure 40
1000
0000
0000
0000
,  // measure 41
0001
0000
0000
0000
,  // measure 42
1000
0000
0000
0100
,  // measure 43
0100
0000
0000
0010
,  // measure 44
0010
0000
0000
0000
,  // measure 45
0001
0000
0000
0000
,  // measure 46
0100
0000
0000
0010
,  // measure 47
0010
0000
0000
0000
,  // measure 48
1000
0000
0000
0000
,  // measure 49
0001
0000
0000
0000
,  // measure 50
0100
0000
0000
0000
,  // measure 51
0010
0000
0000
0000
,  // measure 52
0100
0000
0000
0000
,  // measure 53
1000
0000
0000
0000
,  // measure 54
0010
0000
0000
0000
,  // measure 55
0001
0000
0000
0000
,  // measure 56
0100
0000
0100
0000
,  // measure 57
0100
0000
0000
0000
,  // measure 58
0010
0000
0010
0000
,  // measure 59
0010
0000
0000
0000
,  // measure 60
1000
0000
1000
0000
,  // measure 61
1000
0000
0000
0000
,  // measure 62
0001
0000
0000
0000
,  // measure 63
1001
0000
0000
0000
,  // measure 64
0010
0000
0000
0000
,  // measure 65
0001
0000
0000
0000
,  // measure 66
1000
0000
0000
0100
,  // measure 67
0100
0000
0000
0010
,  // measure 68
0010
0000
0000
0000
,  // measure 69
1000
0000
0000
0000
,  // measure 70
0001
0000
0000
1000
,  // measure 71
1000
0000
0000
0100
,  // measure 72
0100
0000
0000
0000
,  // measure 73
0110
0000
0000
0000
,  // measure 74
1001
0000
0000
0001
,  // measure 75
0001
0000
0000
1000
,  // measure 76
1000
0000
0000
0000
,  // measure 77
0010
0000
0000
0000
,  // measure 78
0100
0000
0000
1000
,  // measure 79
1000
0000
0000
0001
,  // measure 80
0001
0000
0000
0000
;

//---------------dance-single - ----------------
#NOTES:
     dance-single:
     :
     Easy:
     4:
     0.190637,0.229585,0.129141,0.050222,0.000000,186.000000,168.000000,18.000000,7.000000,0.000000,0.000000,0.190637,0.229585,0.129141,0.050222,0.000000,186.000000,168.000000,18.000000,7.000000,0.000000,0.000000:
0000
0000
0000
0000
,
0000
0000
0000
0000
,
0000
0000
0000
0000
,
0000
0000
0000
0000
,
0000
0000
0000
0000
,
0000
0000
0000
0000
,
0000
0000
0000
0000
,
2000
0000
3000
0000
,
0010
0000
1000
0001
,
1000
0000
0100
0000
,
0010
0000
0010
0001
,
0010
0000
0001
0000
,
1000
0000
0010
1000
,
0010
0000
1000
0000
,
0001
0000
1000
0000
,
0200
0000
0300
0010
,
0010
0000
0001
0000
,
0010
0000
0001
0000
,
0010
0000
0100
0000
,
2000
0000
3000
0001
,
0001
0000
1000
0000
,
0010
0000
1000
0000
,
0010
0000
0100
0000
,
0002
0000
0003
1000
,
1000
0000
0010
0000
,
1000
0000
0100
0100
,
0100
0000
0010
0000
,
0002
0000
0003
1000
,
1000
0000
0100
0000
,
0010
0000
0001
0001
,
0001
0000
0100
0000
,
0020
0000
0030
0000
,
0010
0000
0101
0000
,
1000
0000
1001
0000
,
0001
0000
1000
0100
,
0010
0000
0010
0001
,
0010
0000
1001
0000
,
0001
0000
0110
0000
,
1000
0000
0100
0010
,
0001
0000
0010
0100
,
1000
0000
1001
0000
,
0100
0000
0011
0000
,
0010
0000
0100
0010
,
0001
0000
1000
0100
,
0010
0000
1001
0000
,
0001
0000
1010
0000
,
1000
0000
0010
1000
,
0001
0000
0100
0000
,
0001
0000
1000
0000
,
0010
0000
1000
0000
,
0100
0100
0100
0000
,
0010
0010
0010
0000
,
0001
0000
1000
0000
,
0010
0000
1000
0000
,
0100
0010
0100
0010
,
0100
0000
0100
0000
,
0100
0000
1100
0000
,
0010
0000
0011
0000
,
0001
0000
1001
0000
,
1000
0000
1010
0000
,
0100
0000
0001
0000
,
1000
0000
0010
0000
,
1000
0000
0001
0000
,
0200
0000
0300
0000
,
0100
0000
0011
0000
,
1000
0000
0101
0000
,
0010
0000
0001
1000
,
0100
0000
1000
0001
,
0010
0000
1001
0000
,
0010
0000
1100
0000
,
0010
0000
0100
0001
,
1000
0000
0010
0100
,
0001
0000
1001
0000
,
1000
0000
1010
0000
,
0010
0000
0100
0001
,
0010
0000
0100
1000
,
0010
0000
1000
0000
,
0001
0000
1000
0000
,
0100
0000
0010
0001
,
0001
0000
0100
1000
,
1000
0000
0000
0000
;

//---------------dance-single - ----------------
#NOTES:
     dance-single:
     :
     Medium:
     6:
     0.273657,0.348682,0.387424,0.279807,0.000000,267.000000,213.000000,54.000000,39.000000,0.000000,0.000000,0.273657,0.348682,0.387424,0.279807,0.000000,267.000000,213.000000,54.000000,39.000000,0.000000,0.000000:
0000
0000
0000
0000
,
0000
0000
0000
0000
,
0000
0000
0000
0000
,
0000
0000
0000
0000
,
0000
0000
0000
0000
,
0000
0000
0000
0000
,
0000
0000
0000
0000
,
2000
0000
3001
0000
,
0010
0001
0010
0100
,
1000
0000
1010
0000
,
0010
1000
0001
1000
,
0100
0000
0011
0000
,
0100
0001
1000
0010
,
0100
0000
1001
0000
,
0010
1000
0001
1000
,
0200
0000
0000
0310
,
0001
1000
0001
1000
,
0010
1000
0010
1000
,
0100
1000
0100
1000
,
0020
0000
0000
1030
,
1000
0001
1000
0001
,
0100
0001
0100
0001
,
0010
0001
0010
0001
,
0200
0000
0000
0310
,
0010
1000
0001
1000
,
0100
0010
0001
1000
,
0001
0100
0010
1000
,
0002
0000
0000
0103
,
0001
1000
0100
0010
,
0001
1000
0010
0100
,
0001
1000
0001
1000
,
0200
0000
0300
0010
,
0102
0000
1003
0000
,
2100
0000
3001
0000
,
0210
0000
0301
0011
,
0210
0000
1300
1010
,
1002
0000
0013
0000
,
2001
0000
3100
0000
,
0012
0000
0103
0110
,
2010
0000
3001
1001
,
0102
0000
0013
0000
,
2100
0000
3010
0000
,
2001
0000
3100
0101
,
0012
0000
0013
1001
,
1020
0000
0130
0000
,
0102
0000
0013
0000
,
1200
0000
0310
0011
,
0201
0000
0310
0000
,
0010
0100
0001
0100
,
1000
0100
0001
0000
,
0010
0001
1000
0010
,
0001
0010
1000
0000
,
0100
0010
0001
1000
,
1000
0000
0010
0100
,
0001
0010
0010
0100
,
1000
0000
1001
0000
,
1000
0010
0100
0010
,
1000
0000
1001
0000
,
0010
0001
0010
0100
,
0010
0000
0101
0000
,
0001
1000
0010
1000
,
0001
0000
0101
0000
,
1000
0100
1000
0010
,
0100
0000
0000
1001
,
2100
0000
3001
0000
,
0102
0000
0013
0000
,
0120
0000
0031
0101
,
1020
0000
0130
1010
,
2100
0000
3001
0000
,
0102
0000
1003
0000
,
1020
0000
0130
0101
,
0012
0000
0103
1001
,
0210
0000
0301
0000
,
0210
0000
1300
0000
,
2010
0000
3100
0110
,
0012
0000
0103
1001
,
0120
0000
1030
0000
,
2100
0000
3001
0000
,
0102
0000
0013
0110
,
1002
0000
0013
0100
,
2000
0000
0000
0000
,
3000
0000
0000
0000
;

//---------------dance-single - ----------------
#NOTES:
     dance-single:
     :
     Hard:
     9:
     0.399724,0.464909,0.559613,0.243934,0.000000,390.000000,312.000000,78.000000,34.000000,0.000000,0.000000,0.399724,0.464909,0.559613,0.243934,0.000000,390.000000,312.000000,78.000000,34.000000,0.000000,0.000000:
0000
0000
0000
0000
,
0000
0000
0000
0000
,
0000
0000
0000
0000
,
0000
0000
0000
0000
,
0000
0000
0000
0000
,
0000
0000
0000
0000
,
0000
0000
0000
0000
,
0010
0000
0000
0000
2002
0000
0003
3001
,
0010
0100
0011
1000
,
0001
1000
1010
0010
,
0100
0001
1001
0100
,
1000
0010
0110
0100
,
1001
0010
0011
1000
,
0101
0010
1010
1000
,
1001
0001
0001
0001
,
0020
0000
0000
0000
0030
0000
0010
0001
,
0100
0010
1000
0010
,
0100
0010
1000
0001
,
1000
0100
0010
0100
,
2000
0000
3000
0020
,
0031
0100
0001
0010
,
0001
0100
0010
1000
,
0001
0100
0010
0100
,
0002
0000
0003
0020
,
0130
1000
0100
1000
,
0001
0000
1000
0001
0010
0000
0001
0100
,
0010
1000
0010
1000
,
0200
0000
0000
0000
0300
0000
0010
0001
,
1000
0100
1000
0010
,
1000
0000
0001
0000
0200
0000
0310
1000
,
0001
1000
0100
0010
0100
1000
0100
0010
,
0022
0000
0000
0000
0030
0000
0103
0100
,
1010
0100
1001
0001
,
1100
0010
1001
0100
,
0110
1000
0011
0110
,
2002
3000
0103
0011
,
1100
0010
1010
0001
,
0101
0010
1001
0010
,
1100
0001
1010
1100
,
0220
0030
0301
1001
,
1010
0100
0011
0100
,
1001
0000
0100
0001
0010
0000
0100
1000
,
0001
0100
1010
0011
,
2200
0000
0000
0000
3300
0000
0001
0010
,
0100
0010
1001
0100
,
1010
0000
0001
0000
2100
0000
3010
0100
,
0001
1000
0011
1100
,
2002
0003
3100
0020
,
0031
0100
0010
0010
0000
0010
1000
0100
,
0010
0001
1100
1000
,
0010
1000
0100
0010
0000
0010
0000
0001
,
0100
0010
1000
0100
0000
0010
0000
0000
,
0001
0100
0010
0100
0000
0100
0001
1000
,
0000
0010
0100
0000
1001
0000
0010
1000
,
0100
0011
0101
1010
,
1001
0000
1000
0000
0010
1000
0100
0001
,
0000
0100
0000
1000
0001
0000
1000
0010
,
0100
0000
0000
0000
0000
0010
0100
0001
,
0000
0010
0000
0100
0010
0000
0001
0100
,
1000
0000
0100
0000
0100
0010
1000
0001
,
0000
0010
0000
0100
0010
0000
0100
1000
,
0010
0000
1000
0000
1000
0010
1000
0001
,
0010
0100
0010
0001
1000
0100
0010
0001
,
2002
0000
0000
0000
0003
0000
3001
0001
,
0101
0010
1001
1000
,
0011
0100
1001
0010
,
0110
0001
1100
0110
,
2002
0003
3010
1100
,
0011
0100
0101
1000
,
1010
0100
1001
0100
,
0011
1000
0101
0011
,
0220
0300
1030
1001
,
0101
0010
1100
0010
,
1001
0000
0010
1000
0100
0000
0010
0001
,
1000
0010
0101
1100
,
0022
0000
0000
0000
0033
0000
1000
0100
,
0010
0100
1001
0010
,
0101
0000
1000
0000
0012
0000
0103
0010
,
1000
0001
1100
0011
,
2002
3000
0013
0200
,
2300
0000
0000
0000
,
3000
0000
0000
0000
;
