#VERSION:0.83;
#TITLE:The Formula;
#SUBTITLE:;
#ARTIST:Junk;
#TITLETRANSLIT:;
#SUBTITLETRANSLIT:;
#ARTISTTRANSLIT:;
#GENRE:;
#ORIGIN:;
#CREDIT:;
#BANNER:The Formula.png;
#BACKGROUND:The Formula-bg.png;
#PREVIEWVID:;
#JACKET:The Formula-jacket.png;
#CDIMAGE:;
#DISCIMAGE:;
#LYRICSPATH:;
#CDTITLE:;
#MUSIC:The Formula.ogg;
#OFFSET:1.544652;
#SAMPLESTART:96.786819;
#SAMPLELENGTH:13.333336;
#SELECTABLE:YES;
#DISPLAYBPM:144.000000;
#BPMS:0.000=144.000,
232.000=72.000,
232.250=144.000,
232.500=288.000,
233.000=72.000,
233.250=144.000,
233.500=288.000,
234.000=72.000,
234.250=144.000,
234.500=288.000,
235.000=144.000;
#STOPS:;
#DELAYS:;
#WARPS:;
#TIMESIGNATURES:0.000=4=4;
#TICKCOUNTS:0.000=4;
#COMBOS:0.000=1;
#SPEEDS:0.000=1.000=0.000=0;
#SCROLLS:0.000=1.000;
#FAKES:;
#LABELS:0.000=Song Start;
#BGCHANGES:3.500=the formula.avi=1.000=0=0=0=StretchNoLoop====,
99999=-nosongbg-=1.000=0=0=0 // don't automatically add -songbackground-
;
#KEYSOUNDS:;
#ATTACKS:
;

//---------------dance-single - ----------------
#NOTEDATA:;
#CHARTNAME:;
#STEPSTYPE:dance-single;
#DESCRIPTION:;
#CHARTSTYLE:;
#DIFFICULTY:Challenge;
#METER:16;
#RADARVALUES:0.863596,0.953684,0.211616,0.253940,1.220321,857.000000,827.000000,30.000000,36.000000,0.000000,0.000000,0.000000,0.000000,0.000000,0.863596,0.953684,0.211616,0.253940,1.220321,857.000000,827.000000,30.000000,36.000000,0.000000,0.000000,0.000000,0.000000,0.000000;
#CREDIT:Daniel Van Eden;
#DISPLAYBPM:144.000000;
#NOTES:
0000
0000
0000
0000
,
0000
0000
0000
0000
,
0000
0000
0000
0000
,
0000
0000
0000
0000
,
0000
0000
0000
0000
,
0010
0001
0000
0010
0001
0000
0001
0100
0010
1000
0000
0010
1000
0000
1000
0001
,
0100
0010
0000
0100
0010
0000
0010
1000
0100
0010
0000
0100
0010
0000
0010
0001
,
1000
0100
0010
0001
0100
0001
0100
0010
0100
0001
1000
0010
1000
0100
0010
0001
,
1000
0100
1000
0100
1000
0100
1000
0100
1000
0100
1000
0100
2000
0000
0000
0000
,
3010
0000
0000
1000
0000
0000
0001
0000
0000
1000
0000
0000
0100
0000
0010
0000
,
0001
0000
0000
0000
0000
0000
0000
0000
0000
1000
0000
0000
0000
0000
0000
0000
0000
0000
0100
0000
0000
0000
0000
0000
0000
0000
0000
1000
0000
0000
0000
0000
0000
0000
0000
0000
0010
0000
1000
0000
0010
0000
1000
0000
0000
0000
0000
0000
,
0100
0000
0000
0010
0000
0000
0001
0000
0000
0010
0000
0000
0100
0000
1000
0000
,
0001
0000
0000
0000
0000
0000
0000
0000
0000
1000
0000
0000
0000
0000
0000
0000
0000
0000
0010
0000
0000
0000
0000
0000
0000
0000
0000
0100
0000
0000
0000
0000
0000
0000
0000
0000
0001
0000
0100
0000
0001
0000
0100
0000
0000
0000
0000
0000
,
0010
0000
0000
1000
0000
0000
0001
0000
0000
1000
0000
0000
0010
0000
0100
0000
,
0001
0000
0000
0000
0000
0000
0000
0000
0000
0100
0000
0000
0000
0000
0000
0000
0000
0000
0010
0000
0000
0000
0000
0000
0000
0000
0000
0100
0000
0000
0000
0000
0000
0000
0000
0000
0001
0000
0010
0000
0001
0000
0010
0000
0000
0000
0000
0000
,
0100
0000
0000
1000
0000
0000
0001
0000
0000
1000
0000
0000
0100
0000
0010
0000
,
0100
0000
0000
1000
0000
0000
0010
0000
0000
1000
0000
0000
0001
1000
0001
1000
,
0100
1000
0100
0010
0000
0001
0100
0001
0000
1000
0010
1000
0001
0100
0010
0000
,
1000
0000
0000
0001
0000
0000
0010
0000
0000
0100
0000
0000
0000
0000
0000
1000
0000
0000
0100
0000
0000
1000
0000
0000
0000
0000
0000
0010
0000
0000
1000
0000
0000
0001
0000
0000
0100
0000
0010
0000
1000
0000
0001
0000
0000
0000
0000
0000
,
0100
0010
0100
0001
0000
1000
0001
0010
0000
0100
1000
0100
0000
1000
0010
0000
,
1000
0000
0000
0010
0000
0000
0100
0000
0000
0001
0000
0000
0000
0000
0000
1000
0000
0000
0010
0000
0000
1000
0000
0000
0000
0000
0000
0001
0000
0000
0100
0000
0000
0010
0000
0000
1000
0000
0001
0000
1000
0000
0100
0000
0000
0000
0000
0000
,
0010
0001
0010
0100
0000
1000
0000
0011
0000
0010
0100
0010
0000
0001
1000
0000
,
0100
0000
0000
1000
0000
0000
0100
0000
0000
0010
0000
0000
0000
0000
0000
0001
0000
0000
0100
0000
0000
0001
0000
0000
0000
0000
0000
1000
0000
0000
0001
0000
0000
0010
0000
0000
0001
0000
0100
0000
0010
0000
1000
0000
0000
0000
0000
0000
,
0100
1000
0100
0010
0000
0001
0000
1100
0000
0100
0010
0100
0000
1000
0100
0000
,
0010
0000
0000
0001
0000
0000
1000
0000
0000
0100
0000
0000
0000
0000
0000
0010
0000
0000
0001
0000
0000
0010
0000
0000
0000
0000
0000
0001
0000
0000
0100
0000
0000
0010
0000
0000
1000
0000
0001
0000
1000
0000
0010
0000
0000
0100
0000
0000
,
0010
0000
0000
0010
1000
0100
0010
0001
1000
0000
0000
1000
0001
0010
0100
1000
,
0010
0000
0000
0010
1000
0001
0100
0010
1000
0000
1000
0001
1000
0100
0010
0001
,
0100
0000
0000
0100
0001
1000
0010
1000
0001
0000
0000
0001
0100
0010
0100
0001
,
1000
0000
0000
1000
0100
0010
0100
1000
0001
0000
1000
0001
1000
0010
0100
0001
,
1000
0000
1000
0000
0001
0100
0001
0100
0001
0000
0001
0000
0010
0100
0010
0100
,
0010
0000
0100
0000
1000
0100
1000
0100
1000
0000
1000
0000
0010
1000
0010
1000
,
0010
0100
0001
0100
0010
1000
0100
1000
0001
1000
0100
0010
0100
1000
0001
0010
,
0100
0100
2000
3000
0012
0000
0103
0000
0100
0010
0010
0000
1000
1000
0001
0001
,
0200
0000
0000
0000
,
0300
0000
0000
0000
,
1002
0000
0010
0000
0100
0100
1003
0000
,
2010
0000
0100
3002
0100
0100
0013
1001
,
2200
0300
3010
0102
0010
0010
1003
0000
,
0011
0000
0000
0010
0000
0000
2010
0000
0100
0000
0100
0000
3001
0000
0110
0000
,
1002
0000
0010
0000
1000
1000
0103
0000
,
0120
0000
1000
0230
0001
0001
0310
1001
,
0022
0003
0130
2001
0010
0010
0002
0000
,
0000
0000
0000
3003
,
0100
1000
0001
1000
0100
0010
0002
0000
0100
0000
0103
0000
1010
0000
0000
0000
,
0100
0010
0100
0001
0100
0010
2000
0000
0010
0000
3010
0000
0101
0000
0000
0000
,
0001
0010
0100
1000
0010
0100
0002
0000
1000
0000
1003
0000
0110
0000
0000
0000
,
0100
0001
1000
0010
1000
0001
0200
0000
0010
0000
0310
0000
1010
0000
0001
1000
,
0100
1000
0100
0010
0100
0010
0002
0000
1000
0000
1003
0000
0110
0000
0000
0000
,
1000
0001
0010
0100
0010
0100
2000
0000
0100
0000
3100
0000
0011
0000
0000
0000
,
0010
0001
0100
0010
1000
0100
0020
0000
0100
0000
0130
0000
2002
0000
3003
0000
,
0010
1000
0010
0100
0001
0010
0100
0010
0001
1000
0010
0100
0001
0000
1000
0000
,
0100
0100
1000
1000
0010
0010
1000
0001
,
0100
0000
0100
0000
0010
0000
0010
0000
0100
0000
0100
0000
0001
0000
0010
0100
,
0010
0010
0001
0001
1000
1000
0100
1000
,
0010
0000
0010
0000
1000
0000
1000
0000
0001
0000
0001
0000
0100
0000
0010
1000
,
0010
0100
0001
1000
0010
1000
0001
0100
0010
0100
0001
0010
0100
1000
0100
0000
,
0010
0001
0010
0100
1000
0001
0010
0001
1000
0010
1000
0001
0100
0010
1000
0000
,
0001
0100
0010
1000
0010
1000
0100
0010
0001
0100
0010
1000
0001
0100
0010
0100
,
0020
0000
0000
0000
2030
0000
0000
0000
3002
0000
0000
0003
1001
0000
0000
0000
,
1000
0010
1000
0001
0100
0010
0100
0000
0001
0010
0000
0010
0001
0000
1000
0000
,
0100
1000
0001
0010
0001
0100
0010
0000
1000
0100
0000
0100
1000
0000
0010
0000
,
0100
0001
0100
0010
1000
0100
0010
0000
0001
0100
0000
0100
0001
0000
1000
0000
,
0010
1000
0001
0100
0010
1000
0001
0000
0010
0100
0000
0100
0010
0000
0001
0010
,
0100
1000
0100
0010
0001
0100
0010
0000
1000
0001
0000
0001
1000
0000
0010
0000
,
1000
0100
1000
0010
0100
0001
0010
0000
0001
0100
0000
0100
0010
0000
1000
0000
,
0001
1000
0100
1000
0010
0100
0001
0000
1000
0010
0000
0010
2000
0000
0000
0000
,
3100
0010
0001
1000
0100
1000
0010
0100
0001
0010
0100
1000
0020
0000
0030
0000
,
1000
0100
1000
0001
0010
0001
0100
0000
0010
0000
0100
0000
0001
0100
0010
1000
,
0001
0010
0001
1000
0100
1000
0010
0000
1000
0000
0100
0000
1000
0100
0010
0001
,
1000
0001
1000
0010
1000
0100
0010
0000
0001
0000
1000
0000
0001
0100
0001
0100
,
0010
1000
0001
0100
0010
0100
0001
0000
1000
0010
0000
0010
1000
0000
1000
0001
,
1000
0010
1000
0001
0100
0001
0010
0000
0100
0000
1000
0000
0001
0010
0100
1000
,
0001
0100
0001
1000
0010
1000
0001
0000
0100
0000
0010
0000
0100
0001
0100
0001
,
0010
0100
1000
0100
0010
0001
1000
0000
0100
0000
0010
0000
2002
0000
3003
0000
,
0010
0001
1000
0100
0010
0001
0100
0001
1000
0010
0100
0010
0100
0001
1000
0010
,
0100
0000
0100
0001
0000
0001
0010
0100
0000
1000
0100
1000
0000
0001
1000
0010
,
0100
0000
0100
0001
0000
0001
0100
0010
0000
1000
0001
0100
0000
0010
0100
0001
,
1000
0000
1000
0100
0000
0010
0001
0010
0000
0001
1000
0100
0000
1000
0100
0010
,
0001
0000
0001
0100
0000
0010
1000
0001
0000
0010
0100
0010
0000
0001
0010
0100
,
1000
0100
1000
0100
0000
0010
0100
0010
0000
0001
0100
0001
0000
1000
0010
0100
,
0001
1000
0001
1000
0000
0010
1000
0010
0000
0100
0010
0100
0000
0001
1000
0100
,
0010
0100
0010
0100
0010
0001
0010
0100
1000
0100
0010
0100
0010
0001
0100
0010
,
1000
0000
0000
0101
0000
0000
1001
0000
0000
1010
0000
0000
0110
0000
0010
0000
,
2002
0000
0000
0000
,
0000
0000
3003
0000
;

//---------------dance-single - ----------------
#NOTEDATA:;
#CHARTNAME:;
#STEPSTYPE:dance-single;
#DESCRIPTION:;
#CHARTSTYLE:;
#DIFFICULTY:Hard;
#METER:15;
#RADARVALUES:0.749726,0.953684,0.098754,0.260993,0.969908,744.000000,730.000000,14.000000,37.000000,0.000000,0.000000,0.000000,0.000000,0.000000,0.749726,0.953684,0.098754,0.260993,0.969908,744.000000,730.000000,14.000000,37.000000,0.000000,0.000000,0.000000,0.000000,0.000000;
#CREDIT:Daniel Van Eden;
#DISPLAYBPM:144.000000;
#NOTES:
0000
0000
0000
0000
,
0000
0000
0000
0000
,
0000
0000
0000
0000
,
0000
0000
0000
0000
,
0000
0000
0000
0000
,
0001
0100
0000
0001
0100
0000
0001
0100
0010
0100
0000
0010
0100
0000
0010
0100
,
0010
1000
0000
0010
1000
0000
0010
1000
0100
1000
0000
0100
1000
0000
0100
0010
,
0001
0010
0001
0010
0100
1000
0100
1000
0001
1000
0001
1000
0010
1000
0010
1000
,
0001
0100
0001
0100
0001
0100
0001
0100
0001
0100
0001
0100
0010
0000
0000
0000
,
0001
0000
0000
1000
0000
0000
0001
0000
0000
0100
0000
0000
0010
0000
0100
0000
,
0001
0000
0000
1000
0000
0000
0001
0000
0000
0010
0000
0000
0100
1000
0100
0000
,
0010
0000
0000
0001
0000
0000
1000
0000
0000
0001
0000
0000
1000
0000
0100
0000
,
0010
0000
0000
0100
0000
0000
1000
0000
0000
0010
0000
0000
0100
0001
0100
0000
,
0010
0000
0000
0100
0000
0000
0001
0000
0000
1000
0000
0000
0010
0000
1000
0000
,
0001
0000
0000
0010
0000
0000
0100
0000
0000
1000
0000
0000
0001
0010
0001
0000
,
0100
0000
0000
0001
0000
0000
1000
0000
0000
0010
0000
0000
0100
0000
0010
0000
,
1000
0000
0000
0100
0000
0000
0010
0000
0000
0001
0000
0000
1000
0001
1000
0001
,
0100
0000
0010
0000
1001
0000
1000
0000
0100
0010
0001
0010
0000
0010
0100
0000
,
1000
0000
0001
0000
1010
0000
0001
0000
0100
0010
0100
0001
0000
0001
1000
0000
,
0010
0000
1000
0000
0101
0000
0001
0000
0010
0100
1000
0100
0000
0100
0010
0000
,
0001
0000
1000
0000
1010
0000
0100
0000
0010
0100
0010
1000
0000
1000
0001
0100
,
0010
0000
0100
0000
1001
0000
0001
0000
0010
0100
1000
0001
0000
0001
1000
0000
,
0010
0000
1000
0000
1001
0000
0100
0000
0010
0100
0001
0010
0000
0010
0100
0000
,
1000
0000
0001
0000
0110
0000
0100
0000
1000
0010
1000
0001
0000
0001
0100
0000
,
0001
0000
0100
0000
1000
0000
0100
0000
0001
0100
0001
1000
0010
0000
0010
1000
,
0001
0000
0100
0000
0010
0100
0010
0100
0010
0000
1000
0000
0001
0100
0001
0100
,
0001
0000
1000
0000
0010
1000
0010
1000
0010
0000
1000
0000
0100
0010
0100
0010
,
0001
0000
1000
0000
0100
1000
0100
1000
0100
0000
1000
0000
0001
0010
0001
0010
,
0001
0000
0100
0000
0001
1000
0001
1000
0001
0000
1000
0010
0100
0000
0001
0100
,
0010
1000
0010
0100
0010
0001
0010
1000
,
0100
0000
0010
0000
0100
0000
0001
0000
0100
0000
1000
0000
0100
0000
0010
0001
,
1000
0100
1000
0100
1000
0010
1000
0001
0100
0001
0100
0010
1000
0001
1000
0001
,
0100
0010
0100
0000
0002
0000
1003
0000
0010
1000
0100
0000
0010
0001
0010
0001
,
2000
0000
0000
0000
,
3000
0000
0000
0000
,
0002
0000
1000
0000
0100
0100
1003
0000
,
0010
0000
2100
0002
0000
0003
3010
0000
,
0100
0000
0012
2000
0000
3000
0103
0000
,
1000
0000
0000
1000
0010
0000
2002
0000
0000
0000
0000
0000
3003
0000
0000
0000
,
2000
0000
0010
0000
0100
0100
3001
0000
,
0010
0000
1002
0200
0000
0300
1003
0000
,
2000
0000
3010
0102
0000
0000
0020
0000
,
0000
0000
0000
0033
,
0001
0100
0010
1000
0001
0010
0200
0000
0000
0000
0000
0000
0300
0000
0000
0000
,
1000
0100
0010
0001
1000
0010
0200
0000
0000
0000
0000
0000
0300
0000
0000
0000
,
0010
0100
0001
0010
0100
0010
0002
0000
0000
0000
0000
0000
0003
0000
0000
0000
,
0100
0010
0100
0001
0010
0100
2000
0000
0000
0000
0000
0000
3000
0000
0000
0000
,
1000
0001
0100
0001
0100
0010
2000
0000
0000
0000
0000
0000
3000
0000
0000
0000
,
0001
1000
0100
1000
0100
0010
0002
0000
0000
0000
0000
0000
0003
0000
0000
0000
,
0001
0010
0100
1000
0100
0010
0002
0000
0000
0000
0000
0000
2000
0000
3003
0000
,
0010
1000
0010
0100
0010
1000
0100
0010
0100
0010
0001
1000
0200
0000
0000
0000
,
0310
0001
1000
0001
0010
0001
0100
0010
,
1000
0000
0001
0000
1000
0000
0100
0000
0010
0000
0100
0000
1000
0000
0010
1000
,
0010
0100
0001
1000
0010
1000
0100
0010
,
0001
0000
1000
0000
0100
0000
1000
0000
0010
0000
0100
0000
0001
0000
0010
0001
,
0010
0100
0010
0100
0010
0100
0010
0100
1000
0100
1000
0100
1000
0100
1000
0000
,
0010
1000
0010
1000
0010
1000
0010
1000
0001
0100
0001
0100
0001
0100
0001
0000
,
0010
0001
1000
0001
0100
0001
1000
0000
0010
1000
0001
1000
0100
1000
0010
0100
,
0002
0000
0000
0000
2003
0000
0000
0000
3002
0000
0000
0003
0110
0000
0000
0000
,
1000
0100
1000
0100
0000
0100
0010
0000
0001
0010
0000
0010
0100
0000
1000
0000
,
0010
1000
0001
0100
0000
0100
0001
0000
0010
0001
0000
0001
1000
0000
0100
0000
,
1000
0010
0100
0001
0000
0001
1000
0000
0010
1000
0000
1000
0100
0000
1000
0000
,
0010
0100
0001
1000
0000
1000
0010
0000
0100
0010
0000
0010
0100
0000
0001
0000
,
0010
0100
0010
0001
0000
0001
1000
0000
0100
1000
0000
1000
0100
0000
0010
0000
,
0001
0100
0010
1000
0000
1000
0001
0000
1000
0010
0000
0010
0100
0000
0001
0000
,
0010
0001
1000
0010
0000
0010
1000
0000
0001
0100
0000
0100
0020
0000
0000
0000
,
1030
0001
1000
0001
0100
0010
0100
0010
1000
0001
1000
0001
0200
0000
0300
0000
,
0001
0100
0001
0100
0000
0010
1000
0000
0001
0100
0000
0010
1000
0000
0001
1000
,
0100
1000
0100
1000
0000
0001
0010
0000
0100
1000
0000
0001
0010
0000
0100
1000
,
0100
0010
0100
0010
0000
0001
0100
0000
0010
1000
0000
0100
0010
0000
0001
0010
,
0100
1000
0100
1000
0000
0010
1000
0000
0001
0100
0000
0010
0100
0000
0001
1000
,
0001
0010
0001
0010
0000
0100
1000
0000
0001
0010
0000
0001
0100
0000
0010
0000
,
1000
0100
1000
0100
0000
0010
0001
0000
1000
0010
0000
1000
0100
0000
0010
0000
,
0001
0100
0010
0100
0000
0001
1000
0000
0010
1000
0000
0100
0020
0000
0000
0000
,
0031
0100
0001
1000
0010
1000
0001
0100
0001
1000
0100
1000
0002
0000
0000
0000
,
1003
0100
1000
0100
0000
1000
0100
0000
1000
0001
1000
0001
0000
1000
0001
0000
,
0010
0001
0010
0001
0000
0010
0001
0000
1000
0010
1000
0010
0000
1000
0010
0000
,
0100
0001
0100
0001
0000
0100
0001
0000
0010
0001
0010
0001
0000
0010
0001
0000
,
1000
0100
1000
0100
0000
1000
0100
0000
0010
0100
0010
0100
0000
0010
0100
1000
,
0001
0000
0100
0000
1000
0000
0100
0000
0001
0000
1000
0000
0010
0000
1000
0100
,
1000
0000
0100
0000
0001
0000
0100
0000
1000
0000
0001
0000
0010
0000
0100
0010
,
0100
1000
0100
1000
0001
0010
0001
0010
0001
0100
0010
1000
0001
0100
0010
1000
,
0002
0000
0000
2003
0000
0000
3020
0000
0000
0230
0000
0000
0301
0000
1000
0000
,
2002
0000
0000
0000
,
0000
0000
3003
0000
;

//---------------dance-single - ----------------
#NOTEDATA:;
#CHARTNAME:;
#STEPSTYPE:dance-single;
#DESCRIPTION:;
#CHARTSTYLE:;
#DIFFICULTY:Medium;
#METER:12;
#RADARVALUES:0.525010,0.625855,0.098754,0.141078,0.190455,521.000000,507.000000,14.000000,20.000000,0.000000,0.000000,0.000000,0.000000,0.000000,0.525010,0.625855,0.098754,0.141078,0.190455,521.000000,507.000000,14.000000,20.000000,0.000000,0.000000,0.000000,0.000000,0.000000;
#CREDIT:Daniel Van Eden;
#DISPLAYBPM:144.000000;
#NOTES:
0000
0000
0000
0000
,
0000
0000
0000
0000
,
0000
0000
0000
0000
,
0000
0000
0000
0000
,
0000
0000
0000
0000
,
0001
1000
0000
0001
1000
0000
0010
0000
1000
0001
0000
1000
0001
0000
0100
0000
,
0001
0010
0000
0001
0010
0000
0100
0000
1000
0100
0000
1000
0100
0000
1000
0000
,
0001
0100
0001
0100
0010
1000
0010
1000
,
0100
0010
0001
1000
0100
0010
0001
0000
,
0100
0000
0000
0100
0000
0000
0100
0000
0000
0100
0000
0000
0010
0000
1000
0000
,
0010
0000
0000
0010
0000
0000
0010
0000
0000
0010
0000
0000
1000
0000
0000
0000
,
0001
0000
0000
0001
0000
0000
0001
0000
0000
0001
0000
0000
0010
0000
0001
0000
,
0010
0000
0000
0010
0000
0000
0010
0000
0000
0010
0000
0000
0100
0000
0000
0000
,
1000
0000
0000
1000
0000
0000
0001
0000
0000
0001
0000
0000
1000
0000
0010
0000
,
1000
0000
0000
1000
0000
0000
0100
0000
0000
0100
0000
0000
0010
0000
0000
0000
,
0001
0000
0000
0001
0000
0000
0100
0000
0000
0100
0000
0000
0010
0000
0100
0000
,
0010
0000
0000
0010
0000
0000
1000
0000
0000
1000
0000
0000
0002
0000
0000
0000
,
1003
0100
0011
0000
0001
1000
0010
1000
,
0001
0100
0010
0000
0100
0001
0101
0000
,
0001
1000
1010
0000
0010
1000
0100
1000
,
0100
0010
0001
0000
0100
1000
1001
0000
,
0010
0001
1100
0000
1000
0010
0100
0001
,
1000
0001
0010
0000
0001
0100
0101
0000
,
0001
0100
0110
0000
0010
0100
0001
0010
,
0100
1000
0001
0000
1000
0001
1000
0001
,
0100
0010
0100
0000
0001
0010
1000
0000
,
1000
0010
0001
0000
1000
0100
0010
0100
,
1000
0010
1000
0000
0001
0100
1000
0000
,
1000
0100
0001
0000
1000
0010
1000
0001
,
0100
0010
0100
0010
0100
0010
0100
0000
,
0001
0010
0001
0010
0001
0010
0001
0000
,
1000
0100
0010
0001
1000
0100
0010
0001
,
1000
0000
0000
0000
0201
0000
0300
0000
0020
0000
0030
0000
1000
0001
1000
0001
,
2000
0000
0000
0000
,
3000
0000
0000
0000
,
0010
0000
1000
0000
0001
0001
1000
0000
,
0010
0000
1000
0100
0000
0100
0010
0000
,
0001
0000
0010
0001
0000
0001
0100
0000
,
0001
0000
0000
1000
0000
0000
0010
0000
0000
0000
0010
0000
1000
0000
0001
0000
,
1000
0000
0100
0000
0010
0010
0100
0000
,
1000
0000
0001
0010
0000
0010
0100
0000
,
1000
0000
0001
1000
0000
1000
0200
0000
,
0000
0000
0000
0300
,
0001
0000
1000
0000
0010
1000
0020
0000
0000
0000
0000
0000
0030
0000
0000
0000
,
1000
0000
0001
0000
0100
0001
0200
0000
0000
0000
0000
0000
0300
0000
0000
0000
,
0001
0000
0010
0000
0100
1000
0200
0000
0000
0000
0000
0000
0300
0000
0000
0000
,
1000
0000
0100
0000
0010
0001
0020
0000
0000
0000
0000
0000
0030
0000
0000
0000
,
0010
0000
0001
0000
1000
0001
2000
0000
0000
0000
0000
0000
3000
0000
0000
0000
,
0010
0000
1000
0000
0001
1000
0002
0000
0000
0000
0000
0000
0003
0000
0000
0000
,
0100
0000
0010
0000
0100
0001
0200
0000
0000
0000
0000
0000
0310
0000
0000
0000
,
1000
0100
0001
0100
1000
0010
0100
0000
,
0010
1000
0001
0100
0010
1000
0001
0000
,
1000
0001
0100
0010
1000
0100
0020
0000
,
0031
1000
0100
0010
0001
1000
0100
0000
,
0010
0100
1000
0001
0010
0100
2000
0000
,
3010
0100
0010
0000
1000
0001
1000
0000
,
0100
0010
0001
0000
0100
1000
0001
0000
,
0100
0010
0100
0001
0100
0010
1000
0001
,
2000
0000
0000
0000
3002
0000
0000
0000
2003
0000
0000
3000
0101
0000
0000
0000
,
1000
0010
1000
0001
0100
0010
0100
0001
,
0010
0100
0010
0001
1000
0100
1000
0010
,
1000
0001
0100
0010
0100
0001
1000
0010
,
1000
0100
0010
0001
0010
0100
0010
0001
,
1000
0010
1000
0001
0100
0010
1000
0010
,
0100
0001
1000
0100
1000
0010
0100
0001
,
0010
0100
0010
0001
1000
0100
1000
0010
,
1000
0000
0100
0000
0010
0000
0001
0000
0100
0010
0100
0010
0100
0000
0000
0000
,
0001
0000
1000
0000
0010
0000
1000
0000
0001
1000
0000
0001
1000
0000
0000
0000
,
0100
0000
0010
0000
0001
0000
0010
0000
0100
0010
0000
0100
0010
0000
0000
0000
,
0001
0000
0100
0000
0010
0000
0100
0000
0001
1000
0000
0001
1000
0000
0000
0000
,
0010
0000
1000
0000
0001
0000
0100
0000
0010
0100
0000
0010
0100
0000
0000
0000
,
0001
0000
1000
0000
0010
0000
1000
0000
0001
0100
0000
0001
0100
0000
0000
0000
,
0001
0000
1000
0000
0100
0000
1000
0000
0001
0010
0000
0001
0010
0000
0000
0000
,
0100
0000
1000
0000
0010
0000
1000
0000
0100
0010
0000
0100
0020
0000
0000
0000
,
0031
0000
0010
0000
0100
0000
1000
0000
0001
1000
0001
1000
0001
0000
0000
0000
,
1000
0100
0001
0100
1000
0010
1000
0001
,
0100
0001
0010
0100
0010
0001
1000
0000
,
0001
0100
1000
0100
0001
0010
0100
1000
,
0010
1000
0001
0100
0010
0100
0001
0000
,
1010
1000
0010
1000
0010
0100
0010
0000
,
0101
0100
0001
0100
0001
0010
0001
0000
,
0011
0010
0001
0100
0101
0001
1000
0010
,
1000
0000
0000
1000
0000
0000
0001
0000
0000
0001
0000
0000
1000
0000
0000
0000
,
2002
0000
0000
0000
,
0000
0000
3003
0000
;

//---------------dance-single - ----------------
#NOTEDATA:;
#CHARTNAME:;
#STEPSTYPE:dance-single;
#DESCRIPTION:;
#CHARTSTYLE:;
#DIFFICULTY:Easy;
#METER:9;
#RADARVALUES:0.377886,0.447040,0.134024,0.190455,0.000000,375.000000,356.000000,19.000000,27.000000,0.000000,0.000000,0.000000,0.000000,0.000000,0.377886,0.447040,0.134024,0.190455,0.000000,375.000000,356.000000,19.000000,27.000000,0.000000,0.000000,0.000000,0.000000,0.000000;
#CREDIT:Daniel Van Eden;
#DISPLAYBPM:144.000000;
#NOTES:
0000
0000
0000
0000
,
0000
0000
0000
0000
,
0000
0000
0000
0000
,
0000
0000
0000
0000
,
0000
0000
0000
0000
,
0010
0000
1000
0000
0001
0001
1000
0000
,
0100
0000
0010
0000
0100
0100
1000
0000
,
0001
0100
0001
0000
1000
0010
1000
0000
,
0002
0000
2003
3010
,
1001
0000
0000
0100
0000
0000
0001
1000
,
0001
0000
0000
1000
0000
0000
0010
1000
,
0010
0000
0000
1000
0000
0000
0001
0100
,
0010
0000
0000
1000
0000
0000
0100
0010
,
0001
0000
0000
1000
0000
0000
0001
0010
,
0001
0000
0000
1000
0000
0000
0100
1000
,
0100
0000
0000
0010
0000
0000
0001
1000
,
0100
0000
0000
0010
0000
0000
1001
0000
,
1000
0000
0001
0000
1000
0010
1000
0000
,
0001
0000
0100
0000
0010
0100
0010
0000
,
1000
0000
0100
0000
0010
0001
0010
0000
,
0001
0000
1000
0000
0010
1000
0010
0000
,
1000
0000
0001
0000
0100
0010
0100
0000
,
0001
0000
1000
0000
0001
0010
0001
0000
,
1000
0000
0100
0000
0010
0100
0010
0000
,
0001
0000
1000
0000
0010
1000
0010
0000
,
0100
0000
0001
1000
0100
0000
0001
1000
,
0100
0000
0001
1000
0100
0000
0011
0000
,
1000
0000
0010
1000
0001
0000
0010
1000
,
0001
0000
0010
1000
0001
0000
1100
0000
,
0010
0100
0010
0100
0010
0000
1000
0000
,
0100
0010
0100
0010
0100
0000
0001
0000
,
1000
0001
1000
0000
0001
0100
0001
0000
,
2000
3200
0320
0032
,
2003
0000
0000
0000
,
3000
0000
0000
0000
,
0020
1000
0000
1030
,
0002
0000
1003
0200
0000
0000
0310
0000
,
0020
0000
0031
2000
0000
0000
3100
0000
,
0200
0000
1300
0020
0000
0000
0130
0000
,
0002
1000
0000
0103
,
0200
0000
0301
2000
0000
0000
3010
0000
,
0010
0000
0000
1000
0000
0000
2002
0000
,
0000
0000
0000
3003
,
1000
0100
0010
0002
0000
0000
0003
0000
,
0001
0100
0010
2000
0000
0000
3000
0000
,
0010
1000
0001
0200
0000
0000
0300
0000
,
0010
0001
1000
0200
0000
0000
0300
0000
,
1000
0100
0010
0002
0000
0000
0003
0000
,
0001
0100
0010
2000
0000
0000
3000
0000
,
0010
0100
0010
2000
0000
0000
3001
0000
,
0001
1000
0001
1000
0001
1000
0001
0000
,
1000
0000
0010
0000
1000
0000
0001
0100
,
0001
0000
1000
0000
0001
0000
1000
0100
,
1000
0000
0001
0000
1000
0000
0001
0010
,
0001
0000
1000
0000
0001
0000
1000
0010
,
1000
0001
0100
0010
,
1000
0100
0010
0001
,
1000
0001
1000
0001
0100
0010
0100
0010
,
1000
0001
1000
0001
,
0010
1000
0010
1000
0000
0000
0101
0000
,
0001
1000
0001
1000
0000
0000
1100
0000
,
0010
0001
0010
0001
0000
0000
0110
0000
,
0100
1000
0100
1000
0000
0000
1001
0000
,
0010
1000
0010
1000
0000
0000
0101
0000
,
0010
0100
0010
0100
0000
0000
0011
0000
,
0100
1000
0100
1000
0000
0000
0011
0000
,
0100
0010
0100
0010
0100
0010
0100
0000
,
0001
1000
0001
1100
,
0010
1000
0100
0011
,
0001
1000
0010
1001
,
0001
0000
0100
0000
0010
0100
0010
0000
,
1000
0000
0001
0000
1000
0000
0001
1000
,
0010
0000
0100
0000
0010
0000
0100
0010
,
1000
0100
0010
0001
,
1000
0001
1000
0001
1000
0001
1000
0000
,
0001
0101
1000
1100
,
0010
0000
1000
0000
0001
0100
0001
0000
,
0010
1100
0010
0101
,
1000
0000
0010
0000
1000
0001
1000
0000
,
0001
0100
0010
1000
,
1000
0100
0010
0001
,
0001
1000
0001
0000
1000
0001
1000
0000
,
0010
0100
0010
0000
1000
0100
0010
0001
,
2000
0000
0000
0000
,
0000
0000
3000
0000
;

//---------------dance-single - ----------------
#NOTEDATA:;
#CHARTNAME:;
#STEPSTYPE:dance-single;
#DESCRIPTION:;
#CHARTSTYLE:;
#DIFFICULTY:Beginner;
#METER:6;
#RADARVALUES:0.257970,0.447040,0.112862,0.268047,0.000000,256.000000,240.000000,16.000000,38.000000,0.000000,0.000000,0.000000,0.000000,0.000000,0.257970,0.447040,0.112862,0.268047,0.000000,256.000000,240.000000,16.000000,38.000000,0.000000,0.000000,0.000000,0.000000,0.000000;
#CREDIT:Daniel Van Eden;
#DISPLAYBPM:144.000000;
#NOTES:
// measure 0
0000
0000
0000
0000
,  // measure 1
0000
0000
0000
0000
,  // measure 2
0000
0000
0000
0000
,  // measure 3
0000
0000
0000
0000
,  // measure 4
0000
0000
0000
0000
,  // measure 5
1000
0010
1000
1000
,  // measure 6
0001
1000
0001
0001
,  // measure 7
0010
0001
0010
0010
,  // measure 8
0200
0000
0000
0300
,  // measure 9
1000
0000
0000
1000
0000
0000
1000
0000
,  // measure 10
0001
0000
0000
0001
0000
0000
0001
0000
,  // measure 11
0100
0000
0000
0100
0000
0000
0100
0000
,  // measure 12
0010
0000
0000
0010
0000
0000
0010
0000
,  // measure 13
1000
0000
0000
1000
0000
0000
1000
0000
,  // measure 14
0010
0000
0000
0010
0000
0000
0010
0000
,  // measure 15
0100
0000
0000
0100
0000
0000
0100
0000
,  // measure 16
0001
0000
0000
0001
0000
0000
1001
0000
,  // measure 17
1000
0001
1000
0000
,  // measure 18
0001
0100
0001
0001
,  // measure 19
0010
0100
0010
0000
,  // measure 20
0010
0100
1000
1000
,  // measure 21
0001
0001
1000
0000
,  // measure 22
1000
1000
0010
0000
,  // measure 23
0010
0010
0100
0000
,  // measure 24
0100
0100
0010
0010
,  // measure 25
1000
0101
0000
1001
,  // measure 26
0000
0000
1010
0000
0000
1000
0001
0000
,  // measure 27
0000
0110
0000
1001
,  // measure 28
0000
0000
1100
0000
0000
0100
0010
0000
,  // measure 29
0001
0001
0001
0001
,  // measure 30
1000
1000
1000
1000
,  // measure 31
0010
0010
0100
0100
,  // measure 32
0200
0000
0300
0000
0001
0001
0001
0000
,  // measure 33
2002
0000
0000
0000
,  // measure 34
3003
0000
0000
0000
,  // measure 35
2000
0000
0000
3000
,  // measure 36
1000
0000
0000
0200
0000
0000
0300
0000
,  // measure 37
0010
0000
0000
0200
0000
0000
0300
0000
,  // measure 38
1000
0000
0000
0002
0000
0000
0003
0000
,  // measure 39
0020
0000
0000
0030
,  // measure 40
0001
0000
0000
0020
0000
0000
0030
0000
,  // measure 41
0100
0000
0000
0010
0000
0000
2002
0000
,  // measure 42
0000
0000
0000
3003
,  // measure 43
0001
0000
1000
2000
0000
0000
3000
0000
,  // measure 44
1000
0000
0010
0020
0000
0000
0030
0000
,  // measure 45
0010
0000
0100
0200
0000
0000
0300
0000
,  // measure 46
0100
0000
0001
0002
0000
0000
0003
0000
,  // measure 47
1000
0000
0100
0200
0000
0000
0300
0000
,  // measure 48
0100
0000
0010
0020
0000
0000
0030
0000
,  // measure 49
0001
0000
0001
0002
0000
0000
1003
0000
,  // measure 50
0010
1000
0001
0100
,  // measure 51
0020
1000
1000
1030
,  // measure 52
2000
0100
0100
3100
,  // measure 53
0020
0001
0001
0031
,  // measure 54
0002
0100
0100
0103
,  // measure 55
0020
0030
2000
3000
,  // measure 56
0002
0003
2000
3000
,  // measure 57
0001
1000
0001
1000
,  // measure 58
0001
0001
0001
1000
,  // measure 59
0100
1000
0200
0300
,  // measure 60
0010
0001
0020
0030
,  // measure 61
0001
0100
0002
0003
,  // measure 62
1000
0010
2000
3000
,  // measure 63
0010
0100
0020
0030
,  // measure 64
1000
0100
2000
3000
,  // measure 65
0100
0010
0200
0310
,  // measure 66
0001
0001
1000
1000
,  // measure 67
0010
0100
0010
0100
,  // measure 68
0001
1000
0001
1000
,  // measure 69
0100
1000
0100
1000
,  // measure 70
0001
0010
0001
0010
,  // measure 71
0001
1000
0001
0001
,  // measure 72
1000
0010
1000
1000
,  // measure 73
0001
0100
0001
0001
,  // measure 74
1000
0010
0100
0001
,  // measure 75
2000
0001
0000
3001
,  // measure 76
0001
0000
0000
0100
0000
0000
0000
0000
,  // measure 77
0001
0000
0000
0100
0000
0000
0000
0000
,  // measure 78
0010
0000
0000
1000
0000
0000
0000
0000
,  // measure 79
1001
1000
0001
0001
,  // measure 80
0110
0010
0100
0100
,  // measure 81
1001
0110
1001
0110
,  // measure 82
2002
0000
0000
3003
,  // measure 83
0200
0000
0000
0000
,  // measure 84
0000
0000
0300
0000
;
