#VERSION:0.83;
#TITLE:Ten Times Bigger;
#SUBTITLE:;
#ARTIST:Kick the Habit feat. Gadee Lee;
#TITLETRANSLIT:;
#SUBTITLETRANSLIT:;
#ARTISTTRANSLIT:;
#GENRE:;
#ORIGIN:;
#CREDIT:;
#BANNER:Ten Times Bigger.png;
#BACKGROUND:Ten Times Bigger-bg.png;
#PREVIEWVID:;
#JACKET:Ten Times Bigger-jacket.png;
#CDIMAGE:;
#DISCIMAGE:;
#LYRICSPATH:;
#CDTITLE:;
#MUSIC:Ten Times Bigger.ogg;
#OFFSET:-0.554025;
#SAMPLESTART:91.221603;
#SAMPLELENGTH:15.118111;
#SELECTABLE:YES;
#BPMS:0.000=127.000;
#STOPS:;
#DELAYS:;
#WARPS:;
#TIMESIGNATURES:0.000=4=4;
#TICKCOUNTS:0.000=4;
#COMBOS:0.000=1;
#SPEEDS:0.000=1.000=0.000=0;
#SCROLLS:0.000=1.000;
#FAKES:;
#LABELS:0.000=Song Start;
#BGCHANGES:;
#KEYSOUNDS:;
#ATTACKS:
;

//---------------dance-single - ----------------
#NOTEDATA:;
#CHARTNAME:;
#STEPSTYPE:dance-single;
#DESCRIPTION:;
#CHARTSTYLE:;
#DIFFICULTY:Hard;
#METER:13;
#RADARVALUES:0.536590,0.635804,0.336487,0.250409,0.485167,480.000000,437.000000,43.000000,32.000000,0.000000,0.000000,0.000000,0.000000,0.000000,0.536590,0.635804,0.336487,0.250409,0.485167,480.000000,437.000000,43.000000,32.000000,0.000000,0.000000,0.000000,0.000000,0.000000;
#CREDIT:;
#NOTES:
0000
0000
0000
0000
,
0000
0000
0000
0000
,
0000
0000
0000
0000
,
0000
0000
0000
0000
,
0000
0000
0000
0000
,
0000
0000
0000
0000
,
0000
0000
0000
0000
,
0000
0000
0000
0010
0100
0001
0100
0020
,
0000
2000
0000
3030
1000
0100
0010
0002
,
0000
0200
0000
0303
0010
0100
0001
0200
,
0000
0000
0010
0000
0000
0000
0310
0000
1000
0000
0000
0001
0000
0000
0100
0000
,
0000
0000
0000
0000
0001
0010
0100
2000
,
0000
0200
0000
3300
0010
0100
0010
0002
,
0000
1000
0000
1003
0100
1000
0010
0100
,
0100
0000
0000
0100
0001
0100
0010
0100
,
0000
0000
0000
0100
0010
0100
1000
0100
,
0002
0000
1000
0000
0010
0010
0103
0000
,
0020
0000
0030
1000
0100
1000
0010
1000
,
0200
0000
0001
0000
0010
0010
1300
0000
,
0002
0000
0003
0100
0010
0100
0001
1000
,
0020
0000
1000
0000
0001
0001
0130
0000
,
0002
0000
0003
0001
0010
0001
0010
0100
,
2000
0000
0100
0000
0010
0010
3001
0000
,
0200
0000
0000
0310
,
0110
0000
0100
0000
0001
0100
0000
0100
0000
0001
0100
0000
0010
0000
0110
0000
,
1010
0000
1000
0000
0010
1000
0000
1000
0000
0010
1000
0000
0100
0000
1100
0000
,
0110
0000
0010
0000
0100
0010
0000
0100
0000
0100
0010
0000
0001
0000
0100
0000
,
0101
0000
0001
0000
0010
0001
0000
0100
0000
0010
0100
0000
0001
0000
1001
0000
,
1001
0000
0000
0000
0001
0010
0000
0010
0100
0000
1000
0000
0100
0000
0010
0100
,
0010
0000
0001
0000
0100
0010
0000
0010
1000
0000
0001
0000
1000
0000
0100
1000
,
0100
0000
0010
0000
0001
1000
0000
1000
0010
0000
0100
0000
0010
0100
0010
1000
,
0001
0000
0010
1000
0001
0000
0010
1000
0001
0000
0010
1000
0001
0000
0000
0000
,
0101
0000
0000
0000
1010
0000
0000
0000
1000
0001
0000
0010
0001
0000
0010
0100
,
1000
0000
0220
0330
0022
0033
2020
3030
,
0110
0000
0000
0001
0100
0010
1000
0000
0100
0000
1000
0100
1000
0000
0000
0000
,
0110
0000
0000
1000
0100
0020
0000
0031
1000
0001
0000
1000
0010
0000
0000
0000
,
0010
0100
0001
0010
0100
0000
0000
0000
1100
0000
0000
0001
0010
0001
0000
0000
,
0101
0100
0110
0000
1010
0000
1001
0000
,
0011
0000
0000
0100
0010
0001
1000
0000
0001
0000
0100
0000
0110
0000
0000
0000
,
1001
0000
0000
1000
0010
1000
0100
0010
0001
0010
0000
0010
0100
0000
0100
0000
,
1000
0000
0000
0000
0010
0000
0000
0000
0100
0000
0000
0000
0001
0000
0000
0000
0000
0000
0100
0000
0000
0000
0000
0000
0010
0000
0000
0100
0000
0000
0000
0000
0000
0001
0000
0000
0100
0000
0000
0000
0000
0000
0001
0000
0000
0010
0000
0000
,
0001
0000
2200
3300
2002
3003
0022
0033
,
1010
0000
0100
0000
1000
0200
0000
0300
0010
0001
0010
0100
1000
0000
0000
0000
,
1001
0000
0000
0001
1000
0010
0000
0100
0010
0100
0000
0010
1000
0000
0000
0000
,
0010
1000
0100
1000
0010
0000
0000
0000
0110
0000
0000
0010
0200
0000
0000
0000
,
0301
0000
1000
0000
0011
0000
0000
0000
0010
0100
1000
0000
0011
0000
0000
0000
,
0101
0000
0000
0010
0100
0010
1000
0000
0100
0000
1000
0000
0011
0000
0000
0000
,
0110
0000
0000
0010
0100
1000
0001
0100
0000
0100
0001
0010
0001
0010
0001
0010
,
0100
0000
1000
0000
0010
0000
1000
0000
0010
0000
0100
0010
0000
0100
0000
0001
,
0000
0010
0001
0000
0010
0000
0100
0000
1000
0000
0001
1000
0000
0001
0000
0010
,
0000
0001
0100
0000
0010
0000
0100
0000
0010
0000
1000
0010
0000
0100
0000
0001
,
0000
0010
0100
0000
0100
0000
1000
0000
0001
0000
0001
1000
0000
0100
0000
0010
,
0000
0001
0010
0000
1000
0000
0010
0000
0001
0000
0100
0001
0000
0100
0000
0010
,
0000
1000
0100
0000
0001
0000
0100
0000
1000
0000
0100
1000
0100
0010
0001
0010
,
0100
1000
1001
0000
0010
0100
0011
0010
,
0100
1000
0110
1000
0001
0010
0010
0001
,
0011
0000
0000
0000
0110
0000
0000
0000
1100
0000
0000
1000
0010
1000
0000
0100
,
0010
0000
0100
0000
1000
0000
0100
0000
0010
0000
0001
0100
0000
0010
0000
0010
,
0000
0100
0001
0000
0100
0000
1000
0000
0100
0000
0010
1000
0000
0100
0000
0010
,
0000
0001
1000
0000
0100
0000
0001
0000
0100
0000
1000
0001
0000
0100
0000
1000
,
0000
0100
0010
0000
0100
0000
0001
0000
0100
0000
0010
1000
0000
0010
0000
1000
,
0000
0100
0010
0000
0001
0000
1000
0000
0001
0000
0100
0001
0100
0010
0000
1000
,
0010
1000
0000
0001
1000
0001
1000
0100
0010
0001
0000
0000
0011
0000
0000
0000
,
0100
1000
0100
1000
0011
0100
1001
0100
,
0020
0000
0000
0000
,
0030
0000
0000
0000
;

//---------------dance-single - ----------------
#NOTEDATA:;
#CHARTNAME:;
#STEPSTYPE:dance-single;
#DESCRIPTION:;
#CHARTSTYLE:;
#DIFFICULTY:Medium;
#METER:9;
#RADARVALUES:0.355491,0.432347,0.305186,0.093903,0.015651,318.000000,279.000000,39.000000,12.000000,0.000000,0.000000,0.000000,0.000000,0.000000,0.355491,0.432347,0.305186,0.093903,0.015651,318.000000,279.000000,39.000000,12.000000,0.000000,0.000000,0.000000,0.000000,0.000000;
#CREDIT:;
#NOTES:
0000
0000
0000
0000
,
0000
0000
0000
0000
,
0000
0000
0000
0000
,
0000
0000
0000
0000
,
0000
0000
0000
0000
,
0000
0000
0000
0000
,
0000
0000
0000
0000
,
0000
0000
0000
0000
,
2000
0000
0100
0000
3100
0010
0100
0000
,
0002
0000
0010
0000
0013
0001
1000
0000
,
0200
0000
0000
0000
1000
0000
0000
0000
1300
0000
0000
0010
0000
0000
0010
0000
,
1000
0000
0000
0000
0010
0100
0010
0100
,
0002
0000
1000
0000
1003
0100
1000
0100
,
2000
0000
3010
0000
0010
0100
0010
1000
,
0001
0010
0000
0010
0100
0000
0010
0100
,
0000
0000
0000
0100
1000
0000
1000
0010
,
0200
0000
0010
0000
0001
0001
0001
0000
,
0300
0000
0000
0001
0010
0000
0010
0001
,
2000
0000
0100
0000
0010
0010
0010
0000
,
3000
0000
0000
0010
0100
0000
0001
0010
,
0002
0000
0100
0000
1000
1000
1000
0000
,
0003
0000
0000
1000
0010
0000
0010
0100
,
0020
0000
1000
0000
0100
0100
0100
0000
,
0030
0000
0000
1000
0001
0000
0001
1000
,
0100
0000
0010
0000
0001
0000
0100
0001
,
0100
0000
1000
0000
0100
0000
0010
1000
,
0100
0000
0001
0000
0010
0000
0001
0100
,
0010
0000
1000
0000
0001
0000
1000
0001
,
0100
0000
0010
0000
0100
0000
0010
1000
,
0010
0000
1000
0000
0100
0000
0010
0001
,
0010
0110
1010
0101
,
0001
0000
0000
1000
0001
0000
0000
1000
0001
0000
0000
1000
0001
0000
0000
0000
,
0101
0000
0110
0000
1010
0000
1000
0100
,
0001
0110
0001
1100
,
0010
0000
1000
0010
0100
0000
0001
0000
,
0010
0000
0001
1000
0001
0100
0010
0000
,
0010
1000
0001
0000
0100
0000
0011
0000
,
1000
1100
0100
0011
,
1000
0000
0001
0000
0010
0200
0310
0000
,
0001
0000
0010
0001
0010
0100
0010
0000
,
0001
0101
1000
0110
,
1000
1100
1001
0101
,
0001
0100
0010
0000
0010
0100
0010
0000
,
1000
0000
1000
0100
0010
0001
1000
0000
,
0010
1000
0100
0000
0100
0000
0101
0000
,
1000
0110
1100
0011
,
0001
0000
1000
0001
0100
0000
1001
0000
,
0010
0000
0100
0010
0100
0010
0100
0001
,
0100
1010
1100
0011
,
0100
0001
0100
0001
0100
0000
0010
0000
,
1000
0000
0001
0000
1000
0100
1000
0000
,
0010
0000
0100
0000
0001
0100
0001
0000
,
1000
0000
0100
0000
0010
0001
0010
0000
,
0100
0011
0001
1010
,
0100
0010
0100
0000
0001
1000
0001
0000
,
0010
0100
0010
0100
0000
0100
0010
0000
,
0011
0110
1100
1000
,
0001
0000
0100
0001
0100
0000
0010
0000
,
1001
0000
1100
0000
0110
0000
0010
0100
,
0010
0000
0001
1000
0001
0000
0100
0000
,
0010
0000
1000
0000
0100
0010
0100
0000
,
0010
0000
0001
0000
1000
0001
1000
0000
,
0001
0110
1000
1100
,
0011
1001
0101
0110
,
2002
0000
0000
0000
,
3003
0000
0000
0000
;

//---------------dance-single - ----------------
#NOTEDATA:;
#CHARTNAME:;
#STEPSTYPE:dance-single;
#DESCRIPTION:;
#CHARTSTYLE:;
#DIFFICULTY:Easy;
#METER:6;
#RADARVALUES:0.248173,0.330618,0.133030,0.140855,0.000000,222.000000,205.000000,17.000000,18.000000,0.000000,0.000000,0.000000,0.000000,0.000000,0.248173,0.330618,0.133030,0.140855,0.000000,222.000000,205.000000,17.000000,18.000000,0.000000,0.000000,0.000000,0.000000,0.000000;
#CREDIT:;
#NOTES:
0000
0000
0000
0000
,
0000
0000
0000
0000
,
0000
0000
0000
0000
,
0000
0000
0000
0000
,
0000
0000
0000
0000
,
0000
0000
0000
0000
,
0000
0000
0000
0000
,
0000
0000
0000
0000
,
0010
0000
0010
1000
,
0001
0000
0001
0010
,
0100
0000
0100
0100
,
0100
0000
0100
0010
,
0001
0000
1000
0010
,
1000
0000
1000
0001
,
1000
0000
1000
0100
,
0010
0000
0010
0010
,
0002
0000
0100
0100
,
0203
0000
0010
0000
,
0320
0000
1000
1000
,
0032
0000
0100
0000
,
0203
0000
0010
0010
,
2300
0000
0100
0000
,
3020
0000
1000
1000
,
0032
0000
0100
0003
,
1000
0000
0000
0000
0001
0000
0000
1000
,
0100
0000
0000
0000
0010
0000
0000
0001
,
1000
0000
0000
0000
0100
0000
0000
0100
,
0010
0000
0000
0000
0001
0000
0000
0001
,
1000
0000
0010
0000
1000
0000
0000
1000
,
0001
0000
1000
0000
0100
0000
0000
0100
,
0010
0001
0010
0000
,
1000
1000
1000
1000
,
1001
0101
0001
1000
,
0010
1000
0100
0010
,
0001
0001
1000
0001
,
0100
0100
0010
1000
,
0001
1000
0001
0000
1000
0000
0100
0000
,
0100
0010
0010
0001
,
1000
0010
1000
0100
,
0010
0001
0100
0010
,
1000
1100
0001
0011
,
0001
1000
0100
1000
,
0010
0100
0010
1010
,
1000
0001
0100
0010
,
1000
0100
1000
0000
0001
0000
0010
0000
,
0100
0110
0001
0101
,
0001
1000
0100
0010
,
0001
0000
0100
0000
0010
0100
0010
0100
,
0010
0010
0010
1000
,
0001
0010
0100
0010
,
0001
1000
0100
1000
,
0010
0100
0001
1000
,
0100
0010
0100
0000
0010
0000
0001
0000
,
0100
0010
1000
0001
,
2000
3010
0200
0301
,
0020
0130
2000
3001
,
0101
0101
0110
0010
,
1000
0100
1000
0010
,
1001
1001
1100
0010
,
0001
0100
0010
1000
,
0001
0000
0001
0000
1000
0001
0000
0000
,
0010
0000
0100
0000
0100
0010
0000
0000
,
0002
0203
0320
2030
,
3001
0101
0110
0110
,
2002
0000
0000
0000
,
3003
0000
0000
0000
;

//---------------dance-single - ----------------
#NOTEDATA:;
#CHARTNAME:;
#STEPSTYPE:dance-single;
#DESCRIPTION:;
#CHARTSTYLE:;
#DIFFICULTY:Beginner;
#METER:3;
#RADARVALUES:0.129676,0.200327,0.039126,0.000000,0.000000,116.000000,111.000000,5.000000,0.000000,0.000000,0.000000,0.000000,0.000000,0.000000,0.129676,0.200327,0.039126,0.000000,0.000000,116.000000,111.000000,5.000000,0.000000,0.000000,0.000000,0.000000,0.000000,0.000000;
#CREDIT:;
#NOTES:
// measure 0
0000
0000
0000
0000
,  // measure 1
0000
0000
0000
0000
,  // measure 2
0000
0000
0000
0000
,  // measure 3
0000
0000
0000
0000
,  // measure 4
0000
0000
0000
0000
,  // measure 5
0000
0000
0000
0000
,  // measure 6
0000
0000
0000
0000
,  // measure 7
0000
0000
0000
0000
,  // measure 8
1000
0000
0000
0000
,  // measure 9
0001
0000
0000
0000
,  // measure 10
0010
0000
0000
0000
,  // measure 11
0010
0000
0000
0000
,  // measure 12
0001
0000
0000
0000
,  // measure 13
1000
0000
0000
0000
,  // measure 14
0010
0000
0000
0000
,  // measure 15
1000
0000
0000
0000
,  // measure 16
0100
0000
0100
0000
,  // measure 17
0010
0000
0000
0000
,  // measure 18
0010
0000
0001
0000
,  // measure 19
0001
0000
0000
0000
,  // measure 20
0100
0000
1000
0000
,  // measure 21
1000
0000
0000
0000
,  // measure 22
1000
0000
0010
0000
,  // measure 23
0010
0000
0000
0000
,  // measure 24
1000
0000
0001
0000
,  // measure 25
1000
0000
0100
0000
,  // measure 26
0010
0000
0001
0000
,  // measure 27
0100
0000
0010
0000
,  // measure 28
1000
0000
1000
0000
,  // measure 29
0100
0000
0010
0000
,  // measure 30
0001
0000
1000
0000
,  // measure 31
0001
0001
0001
0001
,  // measure 32
0001
0000
1000
0000
,  // measure 33
0010
0000
0100
0000
,  // measure 34
0010
0000
1000
0000
,  // measure 35
0001
0000
1000
0000
,  // measure 36
0001
0001
0001
0000
,  // measure 37
1000
0000
0010
0000
,  // measure 38
0100
0000
0010
0000
,  // measure 39
1000
0000
0100
0000
,  // measure 40
0010
0000
0010
0000
,  // measure 41
0001
0000
1000
0000
,  // measure 42
0010
0000
0100
0000
,  // measure 43
0010
0000
1000
0000
,  // measure 44
1000
1000
1000
0000
,  // measure 45
0001
0000
0100
0000
,  // measure 46
0010
0000
1000
0000
,  // measure 47
0001
0000
1001
0000
,  // measure 48
0001
0001
0001
0000
,  // measure 49
0100
0000
0010
0000
,  // measure 50
1000
0000
0100
0000
,  // measure 51
0010
0000
0100
0000
,  // measure 52
0010
0010
0010
0000
,  // measure 53
0001
0000
0100
0000
,  // measure 54
0010
0000
1001
0000
,  // measure 55
1000
0000
0110
0000
,  // measure 56
0100
0100
0100
0000
,  // measure 57
1000
0000
0001
0000
,  // measure 58
0010
0010
0010
0000
,  // measure 59
0001
0000
1000
0000
,  // measure 60
0010
0010
0000
0010
,  // measure 61
0000
0100
0100
0000
,  // measure 62
1001
0000
1000
1000
,  // measure 63
1000
0000
0010
0000
,  // measure 64
1001
0000
0000
0000
;
