#VERSION:0.83;
#TITLE:Swing Break;
#SUBTITLE:;
#ARTIST:The McMash Clan feat. Kate Mullins;
#TITLETRANSLIT:;
#SUBTITLETRANSLIT:;
#ARTISTTRANSLIT:;
#GENRE:;
#ORIGIN:;
#CREDIT:;
#BANNER:banner.png;
#BACKGROUND:background.png;
#PREVIEWVID:;
#JACKET:jacket.png;
#CDIMAGE:;
#DISCIMAGE:;
#LYRICSPATH:;
#CDTITLE:;
#MUSIC:Swing Break.ogg;
#OFFSET:-0.016862;
#SAMPLESTART:43.654507;
#SAMPLELENGTH:17.454544;
#SELECTABLE:YES;
#BPMS:0.000=219.980;
#STOPS:302.000=0.273,
333.000=0.273;
#DELAYS:;
#WARPS:;
#TIMESIGNATURES:0.000=4=4;
#TICKCOUNTS:0.000=4;
#COMBOS:0.000=1;
#SPEEDS:0.000=1.000=0.000=0;
#SCROLLS:0.000=1.000;
#FAKES:;
#LABELS:0.000=Song Start;
#BGCHANGES:;
#KEYSOUNDS:;
#ATTACKS:
;

//---------------dance-single - ----------------
#NOTEDATA:;
#CHARTNAME:;
#STEPSTYPE:dance-single;
#DESCRIPTION:;
#CHARTSTYLE:;
#DIFFICULTY:Hard;
#METER:16;
#RADARVALUES:0.785353,1.134501,0.508257,0.560120,1.047631,530.000000,481.000000,49.000000,54.000000,0.000000,0.000000,0.000000,0.000000,0.000000,0.785353,1.134501,0.508257,0.560120,1.047631,530.000000,481.000000,49.000000,54.000000,0.000000,0.000000,0.000000,0.000000,0.000000;
#CREDIT:Daniel Van Eden;
#NOTES:
// measure 0
0000
0000
0000
0000
,  // measure 1
0000
0000
0000
0000
,  // measure 2
0000
0000
0000
0000
,  // measure 3
0000
0000
0000
0000
,  // measure 4
0000
0000
0000
0000
,  // measure 5
0000
0000
0000
0000
,  // measure 6
0000
0000
0000
0000
,  // measure 7
0000
0000
0000
0000
,  // measure 8
0000
0000
0000
1000
0000
0010
1000
0000
0100
0000
0000
0100
,  // measure 9
0010
0000
0100
0010
0000
0001
0000
0000
0000
0000
0000
0000
,  // measure 10
0000
0000
0000
0001
0000
0100
0010
0000
1000
0000
0000
1000
,  // measure 11
0100
0000
0010
0001
0000
0100
0000
0000
0000
0000
0000
0000
,  // measure 12
0000
0000
0000
0010
0000
0100
0001
0000
1000
0000
0000
1000
,  // measure 13
0010
0000
0010
1000
0000
0001
0000
0000
0000
0000
0000
0000
,  // measure 14
2020
3030
2000
3100
,  // measure 15
0220
0000
0330
0000
0000
0022
0000
0000
0000
0033
0000
0000
,  // measure 16
1001
0000
0000
1000
0000
0001
0100
0000
0010
0000
0000
0010
,  // measure 17
0100
0000
0100
0001
0000
0010
0000
0000
0010
0100
0000
0000
,  // measure 18
1000
0000
0000
0010
0000
1000
0001
0000
0100
0000
0000
0100
,  // measure 19
0010
0000
0010
0100
0000
0001
0000
0000
0001
0010
0000
0000
,  // measure 20
1100
0000
0000
0001
0000
0100
0001
0000
0010
0000
0000
0010
,  // measure 21
0100
0000
0100
1000
0000
0010
0000
0000
0010
1000
0000
0000
,  // measure 22
0202
0303
0020
0130
,  // measure 23
0220
0000
0330
0000
0000
2200
0000
0000
0000
3300
0000
0000
,  // measure 24
1001
0000
0010
1000
0001
0200
0000
0000
,  // measure 25
0300
0000
0100
0001
1000
0020
0000
0000
,  // measure 26
0030
0000
1000
0100
0010
0002
0000
0000
,  // measure 27
0003
0000
0001
0010
0100
2000
0000
0000
,  // measure 28
3010
0000
0100
0001
0010
0200
0000
0000
,  // measure 29
0300
0000
1000
0010
0100
0002
0000
0000
,  // measure 30
0003
0000
0010
0100
1000
0020
0000
0000
,  // measure 31
0030
0000
0100
0001
2000
0000
0000
0000
,  // measure 32
3010
0000
1001
0000
0001
1000
0010
0000
,  // measure 33
1010
0000
0100
1000
0001
0000
1000
0000
,  // measure 34
0000
0001
0000
0000
0011
0000
0100
0001
,  // measure 35
1000
0000
0001
0010
0000
0100
0000
0000
,  // measure 36
1000
0000
0100
1000
0010
0000
0100
0000
,  // measure 37
0001
1000
0000
0000
1001
0000
0000
0010
,  // measure 38
0200
0000
0000
0000
,  // measure 39
1000
0000
0000
0000
0000
0301
0000
0000
0000
0000
0000
0000
,  // measure 40
2002
0000
0000
3003
0000
0000
0001
0100
0001
0100
0000
0010
,  // measure 41
0100
0000
0100
0010
0000
1000
0000
0000
1100
0000
1000
0100
,  // measure 42
0011
0000
0000
0010
1000
0010
0101
0000
0000
0010
0001
0010
,  // measure 43
1100
0000
0000
1000
0000
0010
0000
0000
0220
0000
0000
0330
,  // measure 44
0001
0000
0001
1000
0000
1000
0100
0010
0001
0010
0100
1000
,  // measure 45
0010
1000
0001
0100
0010
1000
0010
0100
0001
1000
0000
0000
,  // measure 46
0001
0000
0101
0000
0001
1000
0100
0000
,  // measure 47
1100
0000
1000
0001
0010
0000
0110
0000
,  // measure 48
2200
0000
0000
3300
0000
0000
0100
0010
0100
0010
0000
0100
,  // measure 49
0010
0000
0010
0001
0000
0100
0000
0000
1010
0000
0010
0100
,  // measure 50
1001
0000
0000
0010
1000
0001
1100
0000
0000
0010
0001
1000
,  // measure 51
0101
0000
0000
0100
0000
0010
0000
0000
2020
0000
0000
3030
,  // measure 52
0200
0000
0000
0300
0000
0000
0011
0000
0011
0001
1000
1100
,  // measure 53
0000
0000
1010
0000
0000
0101
0000
0000
0010
0100
0000
0100
,  // measure 54
0002
0103
0200
0310
,  // measure 55
0010
0000
0000
1000
0000
0100
0000
0000
0100
0010
0000
0000
,  // measure 56
2002
0000
0000
3003
0000
0000
0001
0100
0010
1000
0000
0010
,  // measure 57
0100
0000
0100
0010
0000
0010
1000
0000
0002
0000
0003
1000
,  // measure 58
0100
0000
0100
0010
0100
1000
0001
0000
0010
0100
0000
0100
,  // measure 59
0010
0000
0010
0001
0000
0010
0100
0000
2000
0000
3000
0000
,  // measure 60
0011
0000
0000
0000
0000
0000
1001
0100
0010
0001
0000
0010
,  // measure 61
0100
0000
0100
1000
0000
0001
0010
0000
0200
0000
0300
0010
,  // measure 62
0001
0000
0100
0010
0000
0010
2000
3000
0000
0010
1000
0100
,  // measure 63
0020
0030
0000
0001
0000
0100
0000
0000
2020
3030
0000
0000
,  // measure 64
2002
0000
0000
3003
0000
0000
1000
0010
1000
0010
0000
0010
,  // measure 65
1000
0000
1000
0100
0000
0010
0100
0000
0022
0033
0000
0001
,  // measure 66
1000
0000
1000
0010
0100
0001
0010
0000
0001
0100
0000
0010
,  // measure 67
1000
0000
1000
0010
0000
0100
0001
0000
0202
0303
0000
0000
,  // measure 68
0110
0000
0000
0000
0000
0000
1000
0001
1000
0001
0000
0001
,  // measure 69
1000
0000
0001
0100
0000
0100
0001
0000
1000
0100
0000
0100
,  // measure 70
0010
0000
0010
0001
0010
0100
1000
0000
,  // measure 71
0010
0100
0001
1000
0100
0010
0000
0001
,  // measure 72
2000
0000
0000
3010
0000
0000
0210
0000
0301
0000
0000
1000
,  // measure 73
0001
0100
0010
0100
0010
0100
1000
0100
0010
0100
0010
0100
,  // measure 74
0001
0100
0010
0100
0010
0100
1000
0100
0010
0100
0010
0100
,  // measure 75
0001
0100
0010
0100
0010
0100
1000
0000
0000
0120
0000
0000
,  // measure 76
1030
0000
0000
0001
0100
0010
0100
0010
0100
1000
0100
0010
,  // measure 77
0100
0010
0100
0001
0100
0010
1000
0001
0100
0010
0000
0000
,  // measure 78
1010
0000
1000
0010
0100
0000
0110
0000
,  // measure 79
0100
0001
0010
0100
1000
0000
1200
0000
,  // measure 80
0310
0000
0000
0001
0100
0010
0100
0010
0100
0001
0010
0100
,  // measure 81
0010
0100
0010
0001
0100
0010
0100
0010
0100
0001
0100
0010
,  // measure 82
0100
0010
0100
0001
0010
0100
0010
0100
0010
0001
0100
0010
,  // measure 83
0100
0000
0000
0000
0010
0000
0000
0000
0100
0000
0000
0000
1000
0000
0000
0000
0000
0000
0000
0000
0000
0000
0000
0000
2001
0000
0000
0000
0000
0000
0000
0000
0000
0000
0000
0000
3001
0000
0000
0100
0000
0000
0001
0000
0000
0100
0000
0000
,  // measure 84
0010
1000
0010
1000
0000
0001
1000
0000
0100
0010
0000
0001
,  // measure 85
1000
0000
0000
0000
0010
0000
0100
0000
0000
0000
0001
0000
1000
0000
0000
0000
0000
0000
0001
0000
0000
1000
0000
0000
,  // measure 86
0010
0000
0110
0000
0100
0001
0010
0000
,  // measure 87
0110
0100
1000
0010
0001
0000
0000
0000
;

//---------------dance-single - ----------------
#NOTEDATA:;
#CHARTNAME:;
#STEPSTYPE:dance-single;
#DESCRIPTION:;
#CHARTSTYLE:;
#DIFFICULTY:Medium;
#METER:13;
#RADARVALUES:0.580865,0.816841,0.290432,0.290432,0.611982,392.000000,364.000000,28.000000,28.000000,0.000000,0.000000,0.000000,0.000000,0.000000,0.580865,0.816841,0.290432,0.290432,0.611982,392.000000,364.000000,28.000000,28.000000,0.000000,0.000000,0.000000,0.000000,0.000000;
#CREDIT:Daniel Van Eden;
#NOTES:
0000
0000
0000
0000
,
0000
0000
0000
0000
,
0000
0000
0000
0000
,
0000
0000
0000
0000
,
0000
0000
0000
0000
,
0000
0000
0000
0000
,
0000
0000
0000
0000
,
0000
0000
0000
0000
,
0000
0000
0000
0001
0000
0001
0100
0000
0010
0000
0000
0100
,
0010
0000
0010
0100
0000
0020
0000
0000
0000
0030
0000
0000
,
0000
0000
0000
1000
0000
1000
0100
0000
0010
0000
0000
0100
,
0010
0000
0010
0100
0000
0020
0000
0000
0000
0030
0000
0000
,
0000
0000
0000
0001
0000
0010
0100
0000
1000
0000
0000
1000
,
0010
0000
0010
0100
0000
0002
0000
0000
0000
0003
0000
0000
,
1001
0000
1000
0100
,
1100
0000
0000
0000
0000
0202
0000
0000
0000
0303
0000
0000
,
0000
0000
0000
0010
0000
0010
1000
0000
0001
0000
0000
1000
,
0001
0000
0001
0100
0000
0020
0000
0000
0000
0030
0000
0000
,
0000
0000
0000
1000
0000
1000
0001
0000
0100
0000
0000
0001
,
0100
0000
0100
0001
0000
0020
0000
0000
0000
0030
0000
0000
,
0000
0000
0000
0010
0000
0100
0010
0000
0001
0000
0000
0001
,
1000
0000
0100
0010
0000
0100
0000
0000
1000
0000
0000
0000
,
1010
0000
0010
0100
,
0110
0000
0000
0000
0000
2002
0000
0000
0000
3003
0000
0000
,
1000
0000
0000
0010
0000
0000
1000
0000
0001
0000
0000
0000
,
1000
0000
0000
0100
0000
0000
1000
0000
0001
0000
0000
0000
,
0001
0000
0000
0010
0000
0000
0001
0000
0100
0000
0000
0000
,
0001
0000
0000
0100
0000
0000
0001
0000
1000
0000
0000
0000
,
0010
0000
0000
1000
0000
0000
0100
0000
0010
0000
0000
0010
,
0001
0000
0000
0100
0000
0000
0001
0000
0010
0000
0000
0010
,
0100
0000
0000
1000
0000
0000
0010
0000
0100
0000
0000
0100
,
0010
1000
0200
0000
,
0310
0000
0001
0000
1000
0010
0000
0010
,
1000
0000
1000
0100
0000
0100
0010
0000
,
0010
0001
0000
0001
1000
0000
1000
0100
,
0000
0100
1000
0000
1000
0010
0000
0010
,
0100
0000
0100
0001
0000
0001
1000
0000
,
1000
0100
0000
0100
1000
0000
1000
0002
,
0000
0000
0000
0000
,
0013
0000
0000
0000
0000
1100
0000
0000
0000
0000
0000
0000
,
1001
0000
0000
0000
0000
0000
1000
0001
1000
0001
0000
0000
,
1000
0100
1000
0010
,
1010
0000
0000
1000
0000
1000
0001
0000
0000
0001
0000
0001
,
1000
0000
0000
1000
0000
0010
0000
0000
0020
0000
0000
0000
,
1030
0000
0000
0001
0000
0000
0010
0000
0010
0100
0000
0100
,
0010
0000
0010
0001
0000
0001
0100
0000
0100
0010
0000
0000
,
2020
0000
0000
3030
,
0101
0000
0000
0022
0000
0000
0033
0000
,
1001
0000
0000
0000
0000
0000
0100
0001
0100
0001
0000
0000
,
1000
0010
1000
0100
,
0011
0000
0000
0001
0000
0001
1000
0000
0000
1000
0000
1000
,
0010
0000
0000
0010
0000
0100
0000
0000
0200
0000
0000
0000
,
0302
0000
0000
0000
0000
0000
0013
0000
0011
0000
0000
0110
,
0000
0000
1100
0000
0000
1001
0000
0000
1000
0010
0000
1000
,
0100
0100
0010
0010
,
0001
0000
0000
0001
0000
0100
0000
0000
0100
0010
0000
0000
,
2020
0000
0000
3030
0000
0000
0010
0100
0010
0100
0000
0000
,
0001
0100
1000
0100
,
0001
0000
0000
0010
0100
0010
0100
0000
0000
0010
0000
0000
,
0001
1000
0100
1000
,
0202
0000
0000
0303
0000
0000
1000
0100
1000
0100
0000
0000
,
0010
0001
0100
1000
,
0100
0000
0000
0001
0000
0000
0010
0000
0000
0100
0000
0100
,
1000
0000
0000
0001
0000
0001
0000
0000
1000
0000
0000
0000
,
0020
0000
0000
0000
0000
0000
0130
0001
0100
0001
0000
0000
,
0010
0100
0010
0001
,
1000
0000
0000
0010
1000
0010
1000
0000
0000
0010
0000
0000
,
0001
0010
1000
0001
,
0202
0000
0000
0303
0000
0000
0001
0010
0001
0010
0000
0000
,
0100
1000
0010
1000
,
2002
0000
0000
0000
,
0000
0000
0000
3003
,
0110
0100
0001
0000
,
0010
0001
0010
0001
0000
0000
0010
0001
0010
0001
0000
0000
,
0100
0001
0100
0001
0000
0000
0100
0001
0100
0001
0000
0000
,
0100
0010
0100
0010
0000
0000
1010
0000
0000
1000
0000
0000
,
0000
0000
0000
0001
1000
0001
1000
0000
0000
0010
1000
0010
,
1000
0000
0000
0100
1000
0100
1000
0000
0000
1200
0000
0000
,
0000
0000
0000
0010
,
0000
0301
0000
0000
0000
0000
0110
0000
,
0000
0000
0000
1000
0010
1000
0010
0000
0000
0100
0001
0100
,
0001
0000
0000
1000
0010
1000
0010
0000
0000
1000
0100
1000
,
0100
0000
0000
0010
0001
0010
0001
0000
0000
1000
0100
1000
,
0100
0011
1001
0000
,
0001
0000
0001
1000
0000
1000
0010
0000
0010
1000
0000
1000
,
0001
0000
0000
0000
0001
0000
0100
0000
0000
0000
0100
0000
0010
0000
0000
0000
0000
0000
1000
0000
0000
0010
0000
0000
,
1000
0100
0010
0000
0100
0010
0001
0000
,
0010
0001
0100
0010
1000
0000
0000
0000
;

//---------------dance-single - ----------------
#NOTEDATA:;
#CHARTNAME:;
#STEPSTYPE:dance-single;
#DESCRIPTION:;
#CHARTSTYLE:;
#DIFFICULTY:Easy;
#METER:8;
#RADARVALUES:0.348222,0.499181,0.186706,0.155589,0.150402,235.000000,217.000000,18.000000,15.000000,0.000000,0.000000,0.000000,0.000000,0.000000,0.348222,0.499181,0.186706,0.155589,0.150402,235.000000,217.000000,18.000000,15.000000,0.000000,0.000000,0.000000,0.000000,0.000000;
#CREDIT:Daniel Van Eden;
#NOTES:
0000
0000
0000
0000
,
0000
0000
0000
0000
,
0000
0000
0000
0000
,
0000
0000
0000
0000
,
0000
0000
0000
0000
,
0000
0000
0000
0000
,
0000
0000
0000
0000
,
0000
0000
0000
0000
,
0000
0010
0010
0000
,
1000
0000
0000
0000
0000
0000
0000
0000
0001
0000
0000
0000
,
0000
0100
0100
0000
,
0001
0000
0000
0000
0000
1000
0000
0000
0000
0000
0000
0000
,
0000
0010
1000
0000
,
0001
0000
0000
0000
0000
1000
0000
0000
0000
0000
0000
0000
,
0110
0000
0020
0130
,
0200
0000
0000
0000
0000
1300
0000
0000
0000
0000
0000
0000
,
0100
1000
0100
0000
,
0010
0000
0000
0000
0000
0100
0000
0000
0000
0010
0000
0000
,
0001
0100
0001
0000
,
1000
0000
0000
0000
0000
0001
0000
0000
0000
1000
0000
0000
,
0010
1000
0010
0000
,
0100
0000
0000
0000
0000
0010
0000
0000
0000
0000
0000
0000
,
1001
0000
0002
1003
,
2000
0000
0000
0000
0000
3010
0000
0000
0000
0000
0000
0000
,
0010
0000
0000
0000
0000
1000
0000
0000
0000
1000
0000
0000
,
0010
0000
0000
0000
0000
0100
0000
0000
0000
0100
0000
0000
,
0010
0000
0000
0000
0000
0001
0000
0000
0000
0001
0000
0000
,
0010
0000
0000
0000
0000
1000
0000
0000
0000
0100
0000
0000
,
0010
0000
0000
0000
0000
0001
0000
0000
0000
0001
0000
0000
,
0010
0000
0000
0000
0000
0100
0000
0000
0000
0100
0000
0000
,
0010
0000
0000
0000
0000
1000
0000
0000
0000
1000
0000
0000
,
0010
0000
1002
0000
,
1003
0100
1000
0010
,
1000
0000
0000
0000
0000
0001
0000
0000
0000
0000
0000
0000
,
0000
0000
0010
0100
,
0010
0000
0000
0000
0000
0001
0000
0000
0000
0000
0000
0000
,
0000
0001
1000
0001
,
1000
0000
0020
0000
,
0030
0000
0000
0000
,
0001
0000
0000
0000
0000
1000
0000
0000
0000
0000
0000
0000
,
1010
0000
0010
1000
,
0001
1000
0100
0000
,
0011
0000
0010
0001
,
1000
0000
0000
0000
0000
0010
0000
0000
0020
0000
0000
0000
,
2030
0000
3100
0010
,
0001
0010
0100
1000
,
0020
0000
0000
0000
,
0100
0000
0000
0000
0000
1030
0000
0000
0000
0000
0000
0000
,
0101
0000
0001
0100
,
0001
1000
0010
0000
,
1010
0000
1000
0100
,
0010
0000
0000
0000
0000
0001
0000
0000
0002
0000
0000
0000
,
0013
0000
0000
0000
0000
0000
0100
0000
0100
0000
0000
0100
,
0000
0000
1000
0000
0000
1000
0000
0000
0000
1000
0000
0000
,
0001
0001
0100
0100
,
0010
0000
0000
0000
0000
0010
0000
0000
0000
1000
0000
0000
,
0002
0000
1003
0100
,
1000
0010
1000
0000
,
0001
0100
0001
0010
,
0001
1000
0001
0000
,
1001
0000
0010
1000
,
0001
0100
0010
0000
,
1000
0000
0011
0000
,
1010
0000
1001
0000
,
0020
0000
0130
1000
,
0100
0001
0100
0000
,
0010
0001
0010
1000
,
0010
0001
1000
0000
,
0011
0000
1000
0100
,
0010
0001
1000
0000
,
2002
0000
0000
0000
,
0000
0000
0000
3003
,
0000
0000
0110
0000
,
1000
0100
1000
0001
,
1000
0010
1000
0001
,
1000
0100
0110
0011
,
0000
0001
0100
0001
,
1000
0001
0000
0200
,
0000
0000
0000
0010
,
0000
0000
0301
0000
0000
0000
0000
0000
0000
0010
0000
0000
,
0000
1100
0000
0010
,
1000
0001
0100
0010
,
1000
0001
0100
0010
,
1000
0100
0100
0010
,
0100
0010
0001
0010
,
0001
0000
0000
0000
1000
0000
0000
0001
,
0000
0000
1000
0000
0000
0010
0000
0000
,
1000
0000
1001
0000
;

//---------------dance-single - ----------------
#NOTEDATA:;
#CHARTNAME:;
#STEPSTYPE:dance-single;
#DESCRIPTION:;
#CHARTSTYLE:;
#DIFFICULTY:Beginner;
#METER:6;
#RADARVALUES:0.226715,0.363040,0.176334,0.093353,0.010373,153.000000,136.000000,17.000000,9.000000,0.000000,0.000000,0.000000,0.000000,0.000000,0.226715,0.363040,0.176334,0.093353,0.010373,153.000000,136.000000,17.000000,9.000000,0.000000,0.000000,0.000000,0.000000,0.000000;
#CREDIT:Daniel Van Eden;
#NOTES:
0000
0000
0000
0000
,
0000
0000
0000
0000
,
0000
0000
0000
0000
,
0000
0000
0000
0000
,
0000
0000
0000
0000
,
0000
0000
0000
0000
,
0000
0000
0000
0000
,
0000
0000
0000
0000
,
0010
0000
1000
0000
,
0010
0000
0000
0000
,
1000
0000
0001
0000
,
1000
0000
0000
0000
,
0001
0000
0100
0000
,
0001
0000
0000
0000
,
1001
0000
0000
0000
,
0010
0000
0000
0000
0000
0020
0000
0000
0000
0030
0000
0000
,
1000
0000
0100
0000
,
0001
0000
0000
0000
,
0001
0000
0100
0000
,
1000
0000
0000
0000
,
0001
0000
1000
0000
,
0001
0000
0000
0000
,
1001
0000
0000
0000
,
0010
0000
0000
0000
0000
0010
0000
0000
0000
0000
0000
0000
,
1000
0000
0000
0000
,
0100
0000
0000
0000
,
1000
0000
0000
0000
,
0010
0000
0000
0000
,
0100
0000
0000
0000
,
0001
0000
0000
0000
,
0010
0000
0000
0000
,
0001
0000
2000
0000
,
3100
0000
0100
0000
,
0100
0000
0010
0000
,
0000
0000
0010
0000
,
0001
0000
0001
0000
,
0000
0000
1000
0000
,
0010
0000
1000
0000
,
0002
0000
0000
0000
,
0000
0000
0003
0000
,
1001
0000
1000
0000
,
0010
0000
1000
1000
,
1000
0000
0100
0000
,
0010
0000
0001
0000
,
0010
0000
0001
1000
,
0001
1000
0001
0000
,
0200
0000
0000
0000
,
0320
0000
0000
0000
,
1030
0000
0100
0000
,
0010
0000
0100
0100
,
0100
0000
1000
0000
,
0010
0000
1000
0000
,
0001
0000
1000
0000
,
0001
0000
0000
0000
,
1000
0000
0100
0000
,
0010
0000
0000
0000
,
0010
0000
0011
0000
,
0001
0000
1001
0000
,
1000
0000
1100
0000
,
0100
0000
0110
0000
,
0010
0000
0110
0000
,
0100
0000
1100
0000
,
1000
0000
0100
0000
,
0010
0000
0001
0000
,
0100
0000
0110
0000
,
0010
0000
1010
0000
,
1000
0000
1001
0000
,
0001
0000
0011
0000
,
0010
0000
0110
0000
,
0100
0000
1100
0000
,
2000
0000
0000
0000
,
3002
0000
0000
0000
,
1003
0000
0000
0000
,
0010
0000
0010
0000
,
0010
0000
0010
0000
,
0010
0000
1001
1000
,
0000
0100
0000
0100
,
0000
0100
0000
0020
,
0000
0000
0000
0230
,
0000
0000
0000
1300
,
0000
0001
0000
0001
,
0000
0001
0000
0001
,
0000
0001
0000
0001
,
0000
1010
1000
0000
,
0010
0000
1000
0000
,
0001
0000
0100
0000
,
0010
0000
1000
0000
,
0100
0000
0010
0000
;
