#VERSION:0.83;
#TITLE:Sweet Lovin;
#SUBTITLE:;
#ARTIST:Sigala feat. Bryn Christopher;
#TITLETRANSLIT:;
#SUBTITLETRANSLIT:;
#ARTISTTRANSLIT:;
#GENRE:;
#ORIGIN:;
#CREDIT:;
#BANNER:Sweet Lovin.png;
#BACKGROUND:Sweet Lovin-bg.png;
#PREVIEWVID:;
#JACKET:Sweet Lovin-jacket.png;
#CDIMAGE:;
#DISCIMAGE:;
#LYRICSPATH:;
#CDTITLE:;
#MUSIC:Sweet Lovin.ogg;
#OFFSET:1.619495;
#SAMPLESTART:46.397991;
#SAMPLELENGTH:15.360001;
#SELECTABLE:YES;
#BPMS:0.000=125.000;
#STOPS:;
#DELAYS:;
#WARPS:;
#TIMESIGNATURES:0.000=4=4;
#TICKCOUNTS:0.000=4;
#COMBOS:0.000=1;
#SPEEDS:0.000=1.000=0.000=0;
#SCROLLS:0.000=1.000;
#FAKES:;
#LABELS:0.000=Song Start;
#BGCHANGES:;
#KEYSOUNDS:;
#ATTACKS:
;

//---------------dance-single - ----------------
#NOTEDATA:;
#CHARTNAME:;
#STEPSTYPE:dance-single;
#DESCRIPTION:;
#CHARTSTYLE:;
#DIFFICULTY:Challenge;
#METER:13;
#RADARVALUES:0.516904,0.626239,0.270024,0.015430,0.520761,469.000000,434.000000,35.000000,2.000000,124.000000,0.000000,0.000000,0.000000,0.000000,0.516904,0.626239,0.270024,0.015430,0.520761,469.000000,434.000000,35.000000,2.000000,124.000000,0.000000,0.000000,0.000000,0.000000;
#CREDIT:Daniel Van Eden;
#NOTES:
0000
0000
0000
0000
,
0000
0000
0000
0000
,
0000
0000
0000
0000
,
0000
0000
0000
0000
,
0000
0000
0000
0000
,
0000
0000
0000
0000
,
0000
0000
0000
0000
,
0000
0000
0000
0000
,
0000
0000
0000
1000
,
0010
0000
1000
0000
0001
0010
0010
0100
,
2000
0000
0000
3010
0000
0000
0000
0000
,
0010
0000
0100
0000
0001
0010
0010
0001
,
0020
0000
0000
0130
0000
0000
0000
0000
,
0000
0100
1000
1000
1000
0000
0000
0010
,
1000
0001
0100
0010
1000
0100
0010
0010
,
0000
0001
0010
0100
1000
0000
0000
0100
,
0010
0000
0000
0001
0010
0000
0100
1000
0001
0000
0000
0000
0100
0000
0000
0000
,
0001
0000
0000
0000
1001
0000
0000
0000
1000
0000
0000
1000
0010
0000
1000
0000
,
0000
0000
0100
0000
0010
0100
0000
0000
1000
0000
0000
0010
0000
0010
1000
0000
,
0001
0000
0000
0000
0101
0000
0000
0000
0010
0000
0000
0010
0001
0000
0100
0000
,
0000
0000
0010
1000
0000
0010
1000
0000
0001
0000
0000
0001
1000
0000
0100
0000
,
0010
0000
0000
0000
1001
0000
0000
0000
0001
0000
0000
0001
0010
0000
0001
0000
,
0000
0000
0100
0000
0010
0100
0000
0000
0001
0000
0000
0001
1000
0000
0010
0000
,
1000
0100
0010
0100
1000
0001
0010
0001
,
0100
0000
0000
0010
0100
0000
0001
1000
0001
0010
0000
0010
0000
0100
1000
0000
,
0010
0000
MMMM
0000
1010
0000
MMMM
0000
0101
0000
0000
0001
0100
0000
0001
0000
,
0010
0000
0000
0000
0100
0000
0000
0000
0010
0000
0100
0000
0000
MMMM
0000
0000
1100
0000
0000
0000
0000
0000
1000
0000
0100
0000
1000
0000
0001
0000
0000
0000
,
0010
0000
MMMM
0000
0101
0000
MMMM
0000
1010
0000
0000
1000
0010
0000
1000
0000
,
0100
0000
0010
0100
0000
0010
0100
0000
1000
0000
0000
1000
0010
0000
0100
0000
,
0010
0000
MMMM
0000
1010
0000
MMMM
0000
0101
0000
0000
0100
0001
0000
0010
0000
,
0001
0000
0000
0000
1000
0000
0000
0000
0100
0000
1000
0000
0000
MMMM
0000
0000
1010
0000
0000
0000
0000
0000
0010
0000
1000
0000
0010
0000
0100
0000
0000
0000
,
0001
0000
0100
0000
1000
0000
0100
0000
0001
0000
0000
0001
1000
0000
0010
0000
,
1000
0001
0010
0001
0100
0010
1000
0001
1000
0100
0010
0001
0010
0100
1000
0001
,
0100
0000
0000
0000
0100
0000
0000
0000
0010
0000
0000
0010
0000
0000
0010
0000
,
0000
0000
1000
0000
0000
1000
0000
0000
0001
0000
0000
0001
0000
0000
0001
0000
,
0010
0000
0000
0000
0010
0000
0000
0010
0000
0010
0001
0000
0100
0000
0010
0000
,
1000
0000
0000
0000
0010
0000
0000
0100
0000
0100
0001
0010
0000
0001
0010
0100
,
1000
0000
0001
0000
0100
0000
0001
0000
0010
0000
0100
0010
0000
0001
0010
0000
,
0100
0000
1000
0000
0010
1000
0000
0000
0001
0000
0100
0001
0000
0001
0010
0000
,
0100
0010
0001
1000
0001
0100
0010
1000
,
0100
1000
0100
1000
0010
1000
0010
0100
0001
0010
0000
0001
0000
0001
1000
0000
,
0010
0000
MMMM
0000
1000
0000
MMMM
0000
0101
0000
0000
0001
1000
0000
0001
0000
,
0010
0000
0000
0000
0100
0000
0000
0000
0010
0000
0001
0000
0000
MMMM
0000
0000
1100
0000
0000
0000
0000
0000
0100
0000
1000
0000
0100
0000
0010
0000
0000
0000
,
0001
0000
MMMM
0000
0101
0000
MMMM
0000
1010
0000
0000
1000
0001
0000
0100
0000
,
0001
0000
0100
0010
0000
0100
0001
0000
1000
0000
0001
0010
0000
0001
1000
0000
,
0010
0100
0001
0001
0001
MMMM
1100
0100
,
0010
0001
0010
0100
1000
0010
1000
1000
,
0010
1000
0100
0010
0001
MMMM
0110
0010
,
0001
0000
0000
0010
0100
0000
0010
0001
1000
0000
0100
0010
0000
0100
1000
0000
,
0010
0000
MMMM
0000
1001
0000
0001
0000
0100
0000
0010
1000
0000
0010
1000
0000
,
0100
0000
0010
0000
0000
MMMM
0000
0000
0011
0000
0000
0000
0001
0000
0000
0000
0100
0000
0000
0000
0010
0000
0100
0000
0000
0000
0010
0000
0100
0000
0000
0000
,
0010
0000
1000
0000
0000
MMMM
0000
0000
0101
0000
0000
0000
0001
0000
0000
0000
0010
0000
0000
0000
0100
0000
0010
0000
0000
0000
0100
0000
0010
0000
0000
0000
,
0001
0000
0010
0000
0000
MMMM
0000
0000
1100
0000
0000
0000
0100
0000
0000
0000
1000
0000
0000
0000
0010
0000
1000
0000
0000
0000
0010
0000
1000
0000
0000
0000
,
0010
0000
0100
0000
0000
MMMM
0000
0000
1001
0000
0000
0000
0001
0000
0000
0000
0100
0000
0000
0000
0010
0000
1000
0000
0000
0000
0001
0000
1000
0000
0000
0000
,
0100
0000
0010
0000
0000
MMMM
0000
0000
0011
0000
0000
0000
0001
0000
0000
0000
1000
0000
0000
0000
0100
0000
1000
0000
0000
0000
0100
0000
0010
0000
0000
0000
,
0001
0000
1000
0000
0000
MMMM
0000
0000
1010
0000
0000
0000
1000
0000
0000
0000
0010
0000
0000
0000
0100
0000
0001
0000
0000
0000
0100
0000
0010
0000
0000
0000
,
1010
0000
MMMM
0000
0101
0000
MMMM
0000
0001
1000
0000
0100
0000
0100
1000
0000
,
0010
0000
MMMM
0000
1010
0000
0000
1000
0000
1000
0100
0000
0010
0000
0100
0000
,
1000
0000
MMMM
0000
0101
0000
0000
0001
0000
0010
0001
0100
0000
0010
0100
0000
,
0001
0000
MMMM
0000
1010
0000
0000
1000
0000
1000
0010
0000
0100
0000
0010
0000
,
1000
0000
MMMM
0000
0011
0000
0000
0001
0000
0001
0010
0100
1000
0100
0010
0001
,
1000
0000
MMMM
0000
0101
0000
0000
0001
0000
0001
0010
0000
0100
0000
0010
0000
,
0001
0000
MMMM
0000
1100
0000
0000
1000
0000
0010
1000
0001
0000
1000
0100
0000
,
0010
0000
MMMM
0000
1001
0000
0000
1000
0010
0000
0000
1010
0000
0000
1001
0000
,
0000
0100
0001
0100
0010
1000
0001
1000
0100
0010
0001
1000
0001
0010
0100
1000
;

//---------------dance-single - ----------------
#NOTEDATA:;
#CHARTNAME:;
#STEPSTYPE:dance-single;
#DESCRIPTION:;
#CHARTSTYLE:;
#DIFFICULTY:Hard;
#METER:13;
#RADARVALUES:0.516904,0.626239,0.270024,0.015430,0.486044,469.000000,434.000000,35.000000,2.000000,0.000000,0.000000,0.000000,0.000000,0.000000,0.516904,0.626239,0.270024,0.015430,0.486044,469.000000,434.000000,35.000000,2.000000,0.000000,0.000000,0.000000,0.000000,0.000000;
#CREDIT:Daniel Van Eden;
#NOTES:
0000
0000
0000
0000
,
0000
0000
0000
0000
,
0000
0000
0000
0000
,
0000
0000
0000
0000
,
0000
0000
0000
0000
,
0000
0000
0000
0000
,
0000
0000
0000
0000
,
0000
0000
0000
0000
,
0000
0000
0000
1000
,
0010
0000
1000
0000
0001
0010
0010
0100
,
2000
0000
0000
3010
0000
0000
0000
0000
,
0010
0000
0100
0000
0001
0010
0010
0001
,
0020
0000
0000
0130
0000
0000
0000
0000
,
0000
0100
1000
1000
1000
0000
0000
0010
,
1000
0001
0100
0010
1000
0100
0010
0010
,
0000
0001
0010
0100
1000
0000
0000
0100
,
0010
0000
0000
0001
0010
0000
0100
1000
0001
0000
0000
0000
0100
0000
0000
0000
,
0001
0000
0000
0000
1001
0000
0000
0000
1000
0000
0000
1000
0010
0000
1000
0000
,
0000
0000
0100
0000
0010
0100
0000
0000
1000
0000
0000
0010
0000
0010
1000
0000
,
0001
0000
0000
0000
0101
0000
0000
0000
0010
0000
0000
0010
0001
0000
0100
0000
,
0000
0000
0010
1000
0000
0010
1000
0000
0001
0000
0000
0001
1000
0000
0100
0000
,
0010
0000
0000
0000
1001
0000
0000
0000
0001
0000
0000
0001
0010
0000
0001
0000
,
0000
0000
0100
0000
0010
0100
0000
0000
0001
0000
0000
0001
1000
0000
0010
0000
,
1000
0100
0010
0100
1000
0001
0010
0001
,
0100
0000
0000
0010
0100
0000
0001
1000
0001
0010
0000
0010
0000
0100
1000
0000
,
0010
0000
0000
0000
1010
0000
0000
0000
0101
0000
0000
0001
0100
0000
0001
0000
,
0010
0000
0100
0000
0010
0100
0000
0000
1100
0000
0000
1000
0100
1000
0001
0000
,
0010
0000
0000
0000
0101
0000
0000
0000
1010
0000
0000
1000
0010
0000
1000
0000
,
0100
0000
0010
0100
0000
0010
0100
0000
1000
0000
0000
1000
0010
0000
0100
0000
,
0010
0000
0000
0000
1010
0000
0000
0000
0101
0000
0000
0100
0001
0000
0010
0000
,
0001
0000
1000
0000
0100
1000
0000
0000
1010
0000
0000
0010
1000
0010
0100
0000
,
0001
0000
0100
0000
1000
0000
0100
0000
0001
0000
0000
0001
1000
0000
0010
0000
,
1000
0001
0010
0001
0100
0010
1000
0001
1000
0100
0010
0001
0010
0100
1000
0001
,
0100
0000
0000
0000
0100
0000
0000
0000
0010
0000
0000
0010
0000
0000
0010
0000
,
0000
0000
1000
0000
0000
1000
0000
0000
0001
0000
0000
0001
0000
0000
0001
0000
,
0010
0000
0000
0000
0010
0000
0000
0010
0000
0010
0001
0000
0100
0000
0010
0000
,
1000
0000
0000
0000
0010
0000
0000
0100
0000
0100
0001
0010
0000
0001
0010
0100
,
1000
0000
0001
0000
0100
0000
0001
0000
0010
0000
0100
0010
0000
0001
0010
0000
,
0100
0000
1000
0000
0010
1000
0000
0000
0001
0000
0100
0001
0000
0001
0010
0000
,
0100
0010
0001
1000
0001
0100
0010
1000
,
0100
1000
0100
1000
0010
1000
0010
0100
0001
0010
0000
0001
0000
0001
1000
0000
,
0010
0000
0000
0000
1000
0000
0000
0000
0101
0000
0000
0001
1000
0000
0001
0000
,
0010
0000
0100
0000
0010
0001
0000
0000
1100
0000
0000
0100
1000
0100
0010
0000
,
0001
0000
0000
0000
0101
0000
0000
0000
1010
0000
0000
1000
0001
0000
0100
0000
,
0001
0000
0100
0010
0000
0100
0001
0000
1000
0000
0001
0010
0000
0001
1000
0000
,
0010
0100
0001
0001
0001
0000
1100
0100
,
0010
0001
0010
0100
1000
0010
1000
1000
,
0010
1000
0100
0010
0001
0000
0110
0010
,
0001
0000
0000
0010
0100
0000
0010
0001
1000
0000
0100
0010
0000
0100
1000
0000
,
0010
0000
0000
0000
1001
0000
0001
0000
0100
0000
0010
1000
0000
0010
1000
0000
,
0100
0010
0000
0000
0011
0000
0001
0000
0100
0000
0010
0100
0000
0010
0100
0000
,
0010
1000
0000
0000
0101
0000
0001
0000
0010
0000
0100
0010
0000
0100
0010
0000
,
0001
0010
0000
0000
1100
0000
0100
0000
1000
0000
0010
1000
0000
0010
1000
0000
,
0010
0100
0000
0000
1001
0000
0001
0000
0100
0000
0010
1000
0000
0001
1000
0000
,
0100
0010
0000
0000
0011
0000
0001
0000
1000
0000
0100
1000
0000
0100
0010
0000
,
0001
1000
0000
0000
1010
0000
1000
0000
0010
0000
0100
0001
0000
0100
0010
0000
,
1010
0000
0000
0000
0101
0000
0000
0000
0001
1000
0000
0100
0000
0100
1000
0000
,
0010
0000
0000
0000
1010
0000
0000
1000
0000
1000
0100
0000
0010
0000
0100
0000
,
1000
0000
0000
0000
0101
0000
0000
0001
0000
0010
0001
0100
0000
0010
0100
0000
,
0001
0000
0000
0000
1010
0000
0000
1000
0000
1000
0010
0000
0100
0000
0010
0000
,
1000
0000
0000
0000
0011
0000
0000
0001
0000
0001
0010
0100
1000
0100
0010
0001
,
1000
0000
0000
0000
0101
0000
0000
0001
0000
0001
0010
0000
0100
0000
0010
0000
,
0001
0000
0000
0000
1100
0000
0000
1000
0000
0010
1000
0001
0000
1000
0100
0000
,
0010
0000
0000
0000
1001
0000
0000
1000
0010
0000
0000
1010
0000
0000
1001
0000
,
0000
0100
0001
0100
0010
1000
0001
1000
0100
0010
0001
1000
0001
0010
0100
1000
;

//---------------dance-single - ----------------
#NOTEDATA:;
#CHARTNAME:;
#STEPSTYPE:dance-single;
#DESCRIPTION:;
#CHARTSTYLE:;
#DIFFICULTY:Medium;
#METER:10;
#RADARVALUES:0.361502,0.400407,0.162015,0.007715,0.088722,328.000000,307.000000,21.000000,1.000000,0.000000,0.000000,0.000000,0.000000,0.000000,0.361502,0.400407,0.162015,0.007715,0.088722,328.000000,307.000000,21.000000,1.000000,0.000000,0.000000,0.000000,0.000000,0.000000;
#CREDIT:Daniel Van Eden;
#NOTES:
0000
0000
0000
0000
,
0000
0000
0000
0000
,
0000
0000
0000
0000
,
0000
0000
0000
0000
,
0000
0000
0000
0000
,
0000
0000
0000
0000
,
0000
0000
0000
0000
,
0000
0000
0000
0000
,
0000
0000
0000
0000
,
0010
0000
1000
0000
0001
1000
0001
0000
,
0010
0010
0000
0010
0000
0000
0000
0000
,
0010
0000
0001
0000
0100
0001
0100
0000
,
0010
0010
0000
0010
0000
0000
0000
0000
,
0000
0010
1000
1000
1000
1000
0000
0001
,
1000
0001
0100
0000
0010
1000
0100
0010
,
0000
0010
0001
0100
0001
0000
0000
1000
,
0010
0000
1000
0100
1000
0000
0010
0000
,
1000
0000
0101
0000
0001
1000
0000
1000
,
0001
0000
0001
1000
1000
0010
0100
0000
,
0001
0000
1100
0000
1000
0001
0000
0001
,
1000
0000
0010
1000
0001
0000
0101
0000
,
0100
0000
1010
0000
0010
0100
0000
0100
,
0010
0000
0010
1000
0001
0000
1000
0000
,
0100
0010
0100
1000
0001
0000
1000
0001
,
0100
0000
0001
0000
0100
0000
0010
0000
1000
0000
0000
0001
0000
0000
1000
0000
,
0010
0000
1001
0000
1000
0010
0100
0010
,
1000
0000
1000
0001
0010
0000
0001
0000
,
0100
0000
1001
0000
0001
0010
0100
0010
,
0001
0000
1000
0001
0100
0000
0010
0000
,
1000
0000
0101
0000
0010
0001
1000
0001
,
0010
0000
0100
1000
0010
0000
1000
0000
,
0001
0100
0010
1000
0001
0000
1000
0100
,
0010
0011
1100
1010
,
0010
0000
0000
0000
0010
0000
0000
0000
1000
0000
0000
1000
0000
0000
1000
0000
,
0000
0000
0001
0000
0000
0001
0000
0000
0100
0000
0000
0100
0000
0000
0100
0000
,
0010
0000
0000
0000
0010
0000
0000
0000
1000
0000
0000
0001
0000
0000
0010
0000
,
0000
0000
0001
0000
0000
0001
0000
0000
0100
0000
0000
0100
0000
0000
0100
0000
,
0010
0000
0000
0000
1000
0000
0000
0000
0001
0000
0000
0001
1000
0000
0100
0000
,
0000
0000
0010
0000
0100
0010
0000
0000
0001
0000
0000
0001
1000
0000
0000
0000
,
0010
0000
1000
0000
0001
0000
1000
0000
0100
0000
0010
0000
0000
0010
0000
0000
,
0001
0200
0010
0310
,
1000
0000
0001
0000
1001
1000
0010
1000
,
0100
0010
0100
1000
0001
0010
0100
0000
,
0010
0000
0011
0000
0001
0100
0010
0100
,
0001
1000
0010
1000
0100
0010
0001
0000
,
0010
0100
1000
1000
1000
0100
0010
0001
,
0100
0001
1000
0010
1000
0100
0010
0001
,
0000
0001
1000
0100
0010
0000
0100
0010
,
0001
1100
0101
1001
,
0000
0000
0000
0000
1001
0000
0000
0000
0010
0000
0000
1000
0000
0000
1000
0000
,
0000
0000
1000
0000
0001
0000
0000
0000
0010
0000
0000
0001
0000
0000
0001
0000
,
0100
0000
0000
0000
0110
0000
0000
0000
0010
0000
0000
1000
0000
0000
1000
0000
,
0010
0000
0100
0000
0010
0000
0000
0000
1000
0000
0000
0001
0000
0000
1000
0000
,
0100
0000
0000
0000
0011
0000
0000
0000
0001
0000
0000
0001
0000
0000
0001
0000
,
0000
0000
0100
0000
0010
0000
0000
0000
1000
0000
0000
0001
0000
0000
1000
0000
,
0010
1000
0001
1000
0100
0000
0010
0100
,
0010
0011
1001
0101
,
1000
0000
0000
0000
1000
0000
0000
1000
0000
0000
0010
0000
1000
0000
0000
0000
,
0100
0000
0000
0000
0010
0000
0000
0100
0000
0000
0010
0000
0100
0000
0000
0000
,
0010
0000
0000
0000
0010
0000
0000
0010
0000
0000
0001
0000
0010
0000
0000
0000
,
0001
0000
0000
0000
1000
0000
0000
0001
0000
0000
0100
0000
0001
0000
1000
0000
,
0010
0000
0000
0000
1000
0000
0000
1000
0000
0000
0001
0000
1000
0000
0000
0000
,
0001
0000
0000
0000
0100
0000
0000
0001
0000
0000
0100
0000
0001
0000
0000
0000
,
1000
0000
0010
0000
1000
0000
0001
0100
,
0000
0001
1000
0100
1000
0001
0010
0001
;

//---------------dance-single - ----------------
#NOTEDATA:;
#CHARTNAME:;
#STEPSTYPE:dance-single;
#DESCRIPTION:;
#CHARTSTYLE:;
#DIFFICULTY:Easy;
#METER:6;
#RADARVALUES:0.220428,0.299727,0.069435,0.000000,0.000000,200.000000,191.000000,9.000000,0.000000,0.000000,0.000000,0.000000,0.000000,0.000000,0.220428,0.299727,0.069435,0.000000,0.000000,200.000000,191.000000,9.000000,0.000000,0.000000,0.000000,0.000000,0.000000,0.000000;
#CREDIT:Daniel Van Eden;
#NOTES:
0000
0000
0000
0000
,
0000
0000
0000
0000
,
0000
0000
0000
0000
,
0000
0000
0000
0000
,
0000
0000
0000
0000
,
0000
0000
0000
0000
,
0000
0000
0000
0000
,
0000
0000
0000
0000
,
0000
0000
0000
0000
,
0010
1000
0001
1000
,
0100
0000
0000
0100
0000
0000
0000
0000
,
0010
0001
1000
0001
,
0100
0000
0000
0100
0000
0000
0000
0000
,
0000
0000
0010
0010
0010
0000
0000
0000
,
1000
0000
0000
0000
0001
0000
0000
0001
,
0000
1000
0010
0000
,
0010
0010
0010
0000
,
1001
0000
1000
0000
0001
0000
0000
1000
,
0000
0010
0100
0000
,
0010
0000
0100
0000
0001
0000
0000
1000
,
0000
0001
0010
0000
,
0100
0000
1000
0000
0100
0000
0000
0010
,
0000
0010
0001
0000
,
1000
0001
1000
0000
,
0010
0100
0100
0100
,
0000
0000
1001
0000
0010
0000
0000
0001
,
0000
0010
0100
0010
,
0001
0000
1000
0000
0010
0000
0000
0010
,
0000
0000
1000
0001
1000
0000
0001
0000
,
0010
0000
0001
0000
1000
0000
0000
1000
,
0000
0100
0010
0100
,
1000
0000
0010
0000
1000
0000
0000
1000
,
0001
0001
1000
0010
,
1000
0000
0001
0000
,
0010
0010
0001
0001
,
1000
0000
0010
0000
,
0100
0000
0010
1000
,
0100
1000
0010
1000
,
0001
0000
1000
0000
,
0010
0100
0100
0010
,
1000
0010
1000
0001
,
0000
0000
0000
0000
1001
0000
0000
0010
,
0000
0001
0100
0010
,
1000
0000
1000
0000
0010
0000
0000
1000
,
0000
0000
0100
0010
0100
0000
0010
0000
,
0001
0000
1000
1000
1000
0000
0000
0000
,
0010
0000
1000
0000
0001
0000
0000
0100
,
0000
0000
0010
0100
0010
0000
0000
0000
,
1000
0001
1001
1001
,
0000
0000
0110
0000
0010
0000
0000
1000
,
0000
0000
0100
0000
0010
0001
0010
0000
,
0001
0000
1000
0000
0010
0000
0000
0010
,
0000
0000
0100
0001
0100
0000
0001
0000
,
1000
0000
0001
0000
0010
0000
0000
0010
,
0000
0001
1000
0100
,
1000
0010
0100
0000
,
1000
0101
1100
1001
,
0010
0001
0010
0001
,
0100
0010
0100
0001
,
1000
0010
1000
0100
,
0010
0100
1000
0001
,
0010
0010
0001
0100
,
0010
0010
1000
0001
,
1000
0100
1000
0010
,
1000
0100
0010
0001
;

//---------------dance-single - ----------------
#NOTEDATA:;
#CHARTNAME:;
#STEPSTYPE:dance-single;
#DESCRIPTION:;
#CHARTSTYLE:;
#DIFFICULTY:Beginner;
#METER:2;
#RADARVALUES:0.136665,0.174841,0.023145,0.000000,0.000000,124.000000,121.000000,3.000000,0.000000,0.000000,0.000000,0.000000,0.000000,0.000000,0.136665,0.174841,0.023145,0.000000,0.000000,124.000000,121.000000,3.000000,0.000000,0.000000,0.000000,0.000000,0.000000,0.000000;
#CREDIT:Daniel Van Eden;
#NOTES:
// measure 0
0000
0000
0000
0000
,  // measure 1
0000
0000
0000
0000
,  // measure 2
0000
0000
0000
0000
,  // measure 3
0000
0000
0000
0000
,  // measure 4
0000
0000
0000
0000
,  // measure 5
0000
0000
0000
0000
,  // measure 6
0000
0000
0000
0000
,  // measure 7
0000
0000
0000
0000
,  // measure 8
0000
0000
0000
0000
,  // measure 9
0010
0000
1000
0000
,  // measure 10
0001
0000
0000
0000
,  // measure 11
0001
0000
1000
0000
,  // measure 12
0100
0000
0000
0000
,  // measure 13
0000
0010
0010
0000
,  // measure 14
0010
0000
0100
0000
,  // measure 15
1000
0000
0010
0000
,  // measure 16
1000
0001
1000
0000
,  // measure 17
0010
0000
0010
0000
,  // measure 18
1000
1000
1000
0000
,  // measure 19
0001
0000
1000
0000
,  // measure 20
0001
0001
0001
0000
,  // measure 21
0010
0000
0001
0000
,  // measure 22
0100
0100
0100
0000
,  // measure 23
0010
0000
1000
0000
,  // measure 24
0001
0000
0010
0000
,  // measure 25
0000
1001
0000
1000
,  // measure 26
0000
0010
0010
0000
,  // measure 27
1000
0000
0001
0000
,  // measure 28
0100
0100
0100
0000
,  // measure 29
0001
0000
1000
0000
,  // measure 30
0001
0001
0001
0000
,  // measure 31
0010
0000
0001
0000
,  // measure 32
1000
0001
1000
0000
,  // measure 33
0100
0000
0010
0000
,  // measure 34
0010
0000
0001
0001
,  // measure 35
0001
0000
0000
0000
,  // measure 36
1000
0000
0001
0000
,  // measure 37
0100
0000
0010
0000
,  // measure 38
0010
0000
0000
0000
,  // measure 39
1000
0000
0001
0000
,  // measure 40
0100
0100
0000
0000
,  // measure 41
0000
0000
0110
0000
,  // measure 42
0010
0010
0010
0000
,  // measure 43
1000
0000
0010
0000
,  // measure 44
0100
0100
0100
0000
,  // measure 45
0000
0001
0001
0000
,  // measure 46
1000
0000
0001
0000
,  // measure 47
0010
0000
0100
0000
,  // measure 48
1000
0001
1000
0000
,  // measure 49
0000
1001
0000
0001
,  // measure 50
0000
0100
0100
0000
,  // measure 51
0010
0000
1000
0000
,  // measure 52
0001
0001
0001
0000
,  // measure 53
0010
0000
0100
0000
,  // measure 54
0010
0010
0010
0000
,  // measure 55
0001
0000
1000
0000
,  // measure 56
0100
0000
0100
0000
,  // measure 57
0010
0000
0001
0000
,  // measure 58
1000
0000
0010
0000
,  // measure 59
1000
0000
0001
0000
,  // measure 60
0100
0000
0010
0000
,  // measure 61
1000
0000
0100
0000
,  // measure 62
0010
0000
0100
0000
,  // measure 63
1000
0000
0001
0000
,  // measure 64
0100
0000
0010
0010
;
