#VERSION:0.83;
#TITLE:Sunrise;
#SUBTITLE:;
#ARTIST:KATOMORI feat. shully;
#TITLETRANSLIT:;
#SUBTITLETRANSLIT:;
#ARTISTTRANSLIT:;
#GENRE:;
#ORIGIN:;
#CREDIT:;
#BANNER:banner.png;
#BACKGROUND:background.png;
#PREVIEWVID:;
#JACKET:jacket.png;
#CDIMAGE:;
#DISCIMAGE:;
#LYRICSPATH:;
#CDTITLE:;
#MUSIC:Sunrise.ogg;
#OFFSET:1.563847;
#SAMPLESTART:37.157127;
#SAMPLELENGTH:12.387100;
#SELECTABLE:YES;
#DISPLAYBPM:155.000000;
#BPMS:0.000=155.000,
128.000=310.000,
130.500=155.000,
159.000=310.000,
161.500=155.000,
230.000=310.000,
230.750=155.000,
253.000=310.000,
255.500=155.000,
284.000=310.000,
286.500=155.000,
443.000=310.000,
445.500=155.000,
514.000=310.000,
514.750=155.000,
537.000=310.000,
539.500=155.000;
#STOPS:128.000=0.290,
128.500=0.290,
129.000=0.290,
159.000=0.290,
159.500=0.290,
160.000=0.290,
230.000=0.145,
230.250=0.145,
230.500=0.145,
230.750=0.097,
253.000=0.290,
253.500=0.290,
254.000=0.290,
284.000=0.290,
284.500=0.290,
285.000=0.290,
412.000=0.290,
412.500=0.290,
413.000=0.290,
443.000=0.290,
443.500=0.290,
444.000=0.290,
514.000=0.145,
514.250=0.145,
514.500=0.145,
514.750=0.097,
537.000=0.290,
537.500=0.290,
538.000=0.290;
#DELAYS:;
#WARPS:;
#TIMESIGNATURES:0.000=4=4;
#TICKCOUNTS:0.000=4;
#COMBOS:0.000=1;
#SPEEDS:0.000=1.000=0.000=0;
#SCROLLS:0.000=1.000;
#FAKES:;
#LABELS:0.000=Song Start;
#BGCHANGES:;
#KEYSOUNDS:;
#ATTACKS:
;

//---------------dance-single - ----------------
#NOTEDATA:;
#CHARTNAME:;
#STEPSTYPE:dance-single;
#DESCRIPTION:;
#CHARTSTYLE:;
#DIFFICULTY:Hard;
#METER:14;
#RADARVALUES:0.702459,0.826863,0.225632,0.389020,0.443483,632.000000,603.000000,29.000000,50.000000,0.000000,0.000000,0.000000,0.000000,0.000000,0.702459,0.826863,0.225632,0.389020,0.443483,632.000000,603.000000,29.000000,50.000000,0.000000,0.000000,0.000000,0.000000,0.000000;
#CREDIT:Daniel Van Eden;
#DISPLAYBPM:155.000000;
#NOTES:
// measure 0
0000
0000
0000
0000
,  // measure 1
0000
0000
0000
0000
,  // measure 2
0000
0000
0000
0000
,  // measure 3
0000
0000
0000
0000
,  // measure 4
0000
0000
0000
0000
,  // measure 5
0000
0000
0000
0000
,  // measure 6
0000
0000
0000
0000
,  // measure 7
0000
0000
0000
0000
,  // measure 8
0000
0000
0000
0000
,  // measure 9
0000
0010
0010
1000
0001
0100
0000
0100
,  // measure 10
0001
0010
0100
2000
0000
0000
0000
3000
,  // measure 11
0000
0100
0100
0010
0001
1000
0000
1000
,  // measure 12
0010
0100
0001
0020
0000
0000
0000
0030
,  // measure 13
0000
0010
0010
0001
1000
0100
0000
0100
,  // measure 14
1000
0010
0100
0002
0000
0000
0000
0003
,  // measure 15
0000
0100
0100
0010
1000
0001
0000
0001
,  // measure 16
0100
0010
1000
0200
0000
0000
0310
0000
,  // measure 17
0001
0000
0010
0000
0001
0000
0100
0000
0010
0000
1000
0001
1000
0000
0100
0000
,  // measure 18
0010
0001
1000
0001
0100
0010
1000
0001
,  // measure 19
0010
0000
0100
0000
1000
0000
0001
0000
1000
0000
0010
0100
0010
0000
1000
0000
,  // measure 20
0001
0010
0100
1000
0001
0010
0001
0100
,  // measure 21
0010
0000
0100
0000
0001
0000
1000
0000
0100
0000
0010
0001
0010
0000
0100
0000
,  // measure 22
1000
0001
0100
0010
1000
0001
1000
0010
,  // measure 23
0100
0001
0100
0010
1000
0001
1000
0100
,  // measure 24
0010
0001
0000
0001
0100
0010
1000
0000
0001
0000
0010
0000
0100
0000
1001
0000
,  // measure 25
0010
0000
1000
0100
0010
0000
0001
0000
0100
0000
0010
1000
0000
0100
1000
0000
,  // measure 26
0001
0000
0010
0000
0001
0000
1000
0000
0100
0000
1000
0000
0010
0100
0001
0000
,  // measure 27
1000
0000
0001
0100
0010
0000
1000
0000
0100
0000
0010
0001
0000
0000
0100
0010
,  // measure 28
1000
0000
0010
0000
1000
0100
0000
0010
0000
0000
0010
0000
0001
0000
1000
0000
,  // measure 29
0001
0000
0100
0010
1000
0000
0001
0000
1000
0000
1000
0010
0000
0010
1000
0100
,  // measure 30
0010
0000
0001
0000
1000
0100
0000
1000
0000
0000
0010
0000
0100
0000
0001
0000
,  // measure 31
1000
0000
0001
0010
0100
0000
1000
0000
0010
0000
1000
0001
0000
0000
0001
1000
,  // measure 32
0200
0300
0000
0000
0000
0000
0000
0000
0022
0033
0000
0000
0000
0000
0000
0000
0202
0303
0000
0000
0000
0000
0000
0000
2002
0000
0000
0000
0000
0000
0000
0000
0000
0000
0000
0000
0000
0000
0000
0000
3003
0000
0000
0000
0000
0000
0000
0000
1000
0000
0000
0000
0000
0000
0000
0000
0010
0000
0000
0000
0100
0000
0000
0000
,  // measure 33
0001
0000
0010
0000
0001
0000
1000
0010
0000
0010
0100
0000
0010
0000
1000
0000
,  // measure 34
0100
0000
0010
0000
0100
0000
1000
0000
0001
0000
1000
0000
0100
0000
0010
0001
,  // measure 35
0100
0000
0010
0000
1000
0000
0001
1000
0100
0000
0010
0000
0001
0000
0010
0000
,  // measure 36
0100
0000
1000
0010
1000
0000
0001
0000
0100
0010
0100
0001
1000
0000
0010
1000
,  // measure 37
0100
0000
0010
0000
0001
0000
1000
0010
1000
0000
0001
0000
0100
0000
0010
0000
,  // measure 38
0100
0000
0001
0000
1000
0000
0010
0000
1000
0000
0100
0000
0010
0000
0100
0010
,  // measure 39
0001
0000
0000
0000
0000
0000
0000
0000
1000
0000
0000
0000
0000
0000
0000
0000
0010
0000
0000
0000
0000
0000
0000
0000
1000
0000
0000
0000
0001
0000
0000
0000
1000
0000
0000
0000
0000
0000
0000
0000
0100
0000
0000
0000
0000
0000
0000
0000
0020
0030
0000
0000
0000
0000
0000
0000
2200
3300
0000
0000
0000
0000
0000
0000
,  // measure 40
2020
3030
0000
0000
0000
0000
0000
0000
2002
0000
0000
0000
0000
0000
0000
0000
0000
0000
0000
0000
0000
0000
0000
0000
3003
0000
0000
0000
0000
0000
0000
0000
0110
0000
0000
0000
0000
0000
0000
0000
0000
0000
0000
0000
0000
0000
0000
0000
0000
0000
0000
0000
0000
0000
0000
0000
0100
0000
0000
0000
0000
0000
0000
0000
,  // measure 41
0001
0000
0100
0000
0010
0100
0001
0000
1000
0000
0100
0000
0010
0000
0200
0000
,  // measure 42
0000
1300
0000
1000
1001
0000
0000
0010
,  // measure 43
1000
0000
0100
0000
0010
0100
1000
0000
0001
0000
0100
0000
0010
0000
0100
0001
,  // measure 44
0000
1010
1000
0100
0110
0000
0011
0000
,  // measure 45
0001
1000
0000
1000
0100
0000
0010
0000
0001
0000
0100
0000
0010
1000
0000
0001
,  // measure 46
0100
0000
0010
0000
1000
0000
0100
0000
0010
0000
0100
0000
0000
0010
0001
0000
,  // measure 47
0100
0000
0000
0001
1000
0100
0010
0001
1000
0000
0010
0000
1010
0000
1000
0000
,  // measure 48
1001
0000
0001
0000
2002
0000
3003
0000
1000
0000
0001
0000
0010
0000
0100
0010
,  // measure 49
0100
0010
0001
0000
1000
0000
0001
1000
0100
0000
0010
0000
0001
0000
1000
0001
,  // measure 50
1000
0001
0100
0000
0010
0000
1000
0001
0010
0000
0100
0000
1000
0000
0001
0100
,  // measure 51
0001
0100
0010
0000
1000
0000
0001
0010
0100
0000
0010
0000
0001
0000
1000
0010
,  // measure 52
1000
0010
0100
0000
0001
0000
1000
0100
0010
0000
0001
0000
1000
0000
0010
1000
,  // measure 53
0010
0000
1000
0000
0001
0000
0100
0001
0100
0000
0010
0000
1000
0000
0001
0010
,  // measure 54
0001
0000
1000
0000
0001
0000
1000
0100
1000
0000
0001
0000
0010
0000
0100
0000
,  // measure 55
1000
0100
0010
0001
0100
0010
1000
0100
0010
0100
0000
0100
0010
0001
0100
0000
,  // measure 56
0010
1000
0001
0110
0200
0000
0000
0000
,  // measure 57
0000
0000
0000
0000
0000
0000
0000
0000
0000
0000
0000
0000
0000
0000
0000
0000
0000
0000
0000
0000
0000
0000
0000
0000
0000
0000
0000
0000
0000
0000
0000
0000
0000
0000
0000
0000
0000
0000
0000
0000
0000
0000
0000
0000
0000
0000
0000
0000
0000
0000
0000
0000
0000
0000
0000
0000
0000
0000
0000
0000
0000
0000
0000
0000
0000
0000
0000
0000
0000
0000
0000
0000
0000
0000
0000
0000
0000
0000
0000
0000
0000
0000
0000
0000
0000
0000
0000
0000
0000
0000
0000
0000
0000
0000
0000
0000
0320
0030
0000
0000
0000
0000
0000
0000
0000
0000
0000
0000
2020
3030
0000
0000
0000
0000
0000
0000
0000
0000
0000
0000
2002
3003
0000
0000
0000
0000
0000
0000
0000
0000
0000
0000
0202
0303
0000
0000
0000
0000
0000
0000
0000
0000
0000
0000
0000
0000
0000
0000
0000
0000
0000
0000
0000
0000
0000
0000
0000
0000
0000
0000
0000
0000
0000
0000
0000
0000
0000
0000
0110
0000
0000
0000
0000
0000
0000
0000
0000
0000
0000
0000
0000
0000
0000
0000
0000
0000
0000
0000
0000
0000
0000
0000
,  // measure 58
2002
3003
2002
3003
0100
0000
0001
1000
0010
0000
0100
0000
0001
0000
1000
0100
,  // measure 59
1000
0000
0001
0000
0010
0000
0100
0000
1000
0000
0001
0010
0000
0001
0100
0000
,  // measure 60
0010
0100
0001
0010
0100
0000
1000
0100
0010
0000
0100
0000
1000
0000
0001
0100
,  // measure 61
0001
1000
0010
0100
0010
1000
0001
0010
,  // measure 62
0001
0000
0100
0000
0010
0000
1000
0001
0010
0000
0100
0000
1000
0000
0100
0010
,  // measure 63
0100
0000
0000
0000
0000
0000
0000
0000
1000
0000
0000
0000
0001
0000
0000
0000
0200
0300
0000
0000
0000
0000
0000
0202
0303
0000
0000
0000
0000
0000
0000
0000
2020
3030
0000
0000
0000
0000
0000
0000
2002
0000
0000
0000
0000
0000
0000
0000
0000
0000
0000
0000
0000
0000
0000
0000
3003
0000
0000
0000
0000
0000
0000
0000
,  // measure 64
0001
0000
0010
0100
1000
0000
0001
0000
0100
0000
0010
1000
0000
0100
1000
0000
,  // measure 65
0100
0010
0100
1000
0001
0100
0001
0010
,  // measure 66
0100
0000
1000
0010
0100
0000
0001
0000
1000
0000
0001
0010
0001
0000
0010
0000
,  // measure 67
0100
0000
1000
0000
0001
0000
0100
0001
0000
0010
0001
0000
0010
0100
1000
0001
,  // measure 68
0010
0000
0001
1000
0001
0000
0010
0000
0100
0000
1000
0001
1000
0000
0010
0000
,  // measure 69
0100
0010
1000
0001
0100
0001
0010
0100
,  // measure 70
1000
0000
0001
1000
0010
0000
0100
0000
0001
0100
0010
1000
0100
0010
0001
0100
,  // measure 71
0020
0030
0000
0000
0000
0000
0000
0000
2200
3300
0000
0000
0000
0000
0000
0000
2020
3030
0000
0000
0000
0000
0000
0000
2002
0000
0000
0000
0000
0000
0000
0000
0000
0000
0000
0000
0000
0000
0000
0000
3003
0000
0000
0000
0000
0000
0000
0000
0100
0000
0000
0000
0000
0000
0000
0000
0010
0000
0000
0000
0000
0000
0000
0000
,  // measure 72
1000
0000
0100
0000
0010
0000
0001
1000
0000
0001
0010
0000
0100
0000
0010
0000
,  // measure 73
0001
0000
0100
0000
0010
0000
1000
0001
0000
1000
0100
0000
0010
0000
0100
0000
,  // measure 74
1000
0000
0010
0000
0100
0000
0001
0010
0000
0001
1000
0000
0010
0000
0100
0000
,  // measure 75
0001
0000
0010
0000
0100
0000
1000
0010
0000
1000
0001
0000
1000
0000
0100
0000
,  // measure 76
0010
0000
0100
0000
1000
0000
0001
0010
0000
0001
1000
0000
0001
0000
1000
0000
,  // measure 77
0100
0000
0010
0000
0100
0000
1000
0010
0000
1000
0001
0000
0100
0000
0010
0000
,  // measure 78
1000
0000
0001
0000
1000
0000
0010
0100
0000
0010
1000
0000
0100
0000
0010
0000
,  // measure 79
0001
1000
0020
0000
0000
0030
2002
0000
,  // measure 80
0000
0000
0000
0000
,  // measure 81
0000
0000
0000
3003
;

//---------------dance-single - ----------------
#NOTEDATA:;
#CHARTNAME:;
#STEPSTYPE:dance-single;
#DESCRIPTION:;
#CHARTSTYLE:;
#DIFFICULTY:Beginner;
#METER:1;
#RADARVALUES:0.177838,0.217171,0.093365,0.000000,0.000000,160.000000,148.000000,12.000000,0.000000,0.000000,0.000000,0.000000,0.000000,0.000000,0.177838,0.217171,0.093365,0.000000,0.000000,160.000000,148.000000,12.000000,0.000000,0.000000,0.000000,0.000000,0.000000,0.000000;
#CREDIT:Daniel Van Eden;
#DISPLAYBPM:155.000000;
#NOTES:
0000
0000
0000
0000
,
0000
0000
0000
0000
,
0000
0000
0000
0000
,
0000
0000
0000
0000
,
0000
0000
0000
0000
,
0000
0000
0000
0000
,
0000
0000
0000
0000
,
0000
0000
0000
0000
,
0000
0000
0000
0000
,
0001
0000
1000
0000
,
0010
0000
0100
0000
,
0001
0000
0010
0000
,
0001
0000
1000
0000
,
0010
0000
1000
0000
,
0100
0000
0010
0000
,
0001
0000
1000
0000
,
0010
0000
1000
0000
,
0001
0000
0010
0000
,
0100
0100
0100
0000
,
0010
0000
0001
0000
,
1000
1000
1000
0000
,
0010
0000
0100
0000
,
0001
0001
0001
0000
,
1000
0000
0010
0000
,
1000
0000
0001
0000
,
1001
0000
0010
0000
,
0001
0000
1000
0000
,
1001
0000
0100
0000
,
0010
0000
1000
0000
,
0110
0000
0010
0000
,
1000
0000
0100
0000
,
0110
0000
0001
0000
,
1000
0000
0000
1001
,
0000
0010
0000
0100
,
0100
0100
0000
0010
,
0000
0001
0000
1000
,
1000
1000
0000
0010
,
0000
1000
0000
0001
,
0001
0001
0000
0100
,
0000
0010
0000
0100
,
0000
0000
1001
0000
,
0001
0000
0010
0000
,
0100
0000
0010
0000
,
0001
0000
1000
0000
,
0010
0000
1000
1000
,
1000
0000
0110
0000
,
0100
0000
0010
0000
,
1000
0000
0001
0000
,
0010
0000
0001
0000
,
0001
0000
1000
1000
,
1000
0000
0010
0000
,
0010
0000
0100
0100
,
0100
0000
0010
0000
,
0010
0000
1000
1000
,
1000
0000
0100
0000
,
0010
0000
0001
0001
,
0001
0000
1001
0000
,
0000
0000
0000
0000
,
0000
0110
0000
0010
,
0000
1000
0000
0001
,
0000
0010
0000
0100
,
0000
0010
0000
0001
,
0000
1000
0000
0010
,
0000
1000
0000
0000
,
1001
0000
0010
0000
,
0001
0001
0001
0000
,
0010
0000
0001
0000
,
1000
1000
1000
0000
,
0010
0000
1000
0000
,
0100
0100
0100
0000
,
0010
0000
0001
0000
,
0100
0000
0000
1001
,
0000
0000
0000
0010
,
0000
0010
0000
0001
,
0000
0000
0000
0010
,
0000
0010
0000
1000
,
0000
0000
0000
0100
,
0000
0100
0000
0001
,
0000
0000
0000
0010
,
0000
0001
0000
1001
;

//---------------dance-single - ----------------
#NOTEDATA:;
#CHARTNAME:;
#STEPSTYPE:dance-single;
#DESCRIPTION:;
#CHARTSTYLE:;
#DIFFICULTY:Easy;
#METER:6;
#RADARVALUES:0.261199,0.381629,0.031122,0.178949,0.007780,235.000000,231.000000,4.000000,23.000000,0.000000,0.000000,0.000000,0.000000,0.000000,0.261199,0.381629,0.031122,0.178949,0.007780,235.000000,231.000000,4.000000,23.000000,0.000000,0.000000,0.000000,0.000000,0.000000;
#CREDIT:Daniel Van Eden;
#DISPLAYBPM:155.000000;
#NOTES:
0000
0000
0000
0000
,
0000
0000
0000
0000
,
0000
0000
0000
0000
,
0000
0000
0000
0000
,
0000
0000
0000
0000
,
0000
0000
0000
0000
,
0000
0000
0000
0000
,
0000
0000
0000
0000
,
0000
0000
0000
0000
,
0010
1000
0010
0000
,
1000
0100
0010
0000
,
0010
0001
0010
0000
,
0001
1000
0100
0000
,
1000
0001
1000
0000
,
0001
0100
0010
0000
,
1000
0010
1000
0000
,
0001
0010
0100
0000
,
2000
0000
0000
3010
0000
0000
0000
0000
,
0020
0000
0000
0130
0000
0000
0010
0000
,
0200
0000
0000
0301
0000
0000
0000
0000
,
0002
0000
0000
0013
0000
0000
0001
0000
,
1000
0010
0010
0100
,
0001
0100
0010
1000
,
0100
0001
0100
1000
,
0001
0000
0000
0000
0000
0000
1000
0001
,
1000
0010
1000
0000
,
0001
0001
0010
0000
,
0010
0100
0010
0000
,
0001
0100
0010
1000
,
0001
1000
0001
0000
,
0100
0001
0001
0000
,
0010
0100
1000
0000
,
0010
0010
0010
0020
0000
0030
0100
0000
,
0001
0100
0000
0010
,
0010
1000
0001
0100
,
0001
0010
0000
0100
,
0100
0010
0001
1000
,
0001
0100
0000
0010
,
1000
0001
0000
1000
,
0100
0000
0010
0000
0001
0000
0100
0100
,
0100
0200
0000
0300
0010
0000
0000
0000
,
1000
0001
0100
0001
,
1000
0000
0010
0000
,
1000
0001
0010
0001
,
1000
0000
1001
1001
,
0110
1001
0000
0001
,
0010
0100
1000
0001
,
1000
0010
0100
0100
,
0100
0000
0100
0000
0002
0000
0000
1003
,
0000
0000
0000
0000
2000
0000
0000
3010
,
0000
0000
1000
0000
0020
0000
0000
0130
,
0000
0000
0000
0000
0200
0000
0000
0301
,
0000
0000
0100
0000
0001
0000
0010
0001
,
0000
0000
0000
0000
1000
0000
0010
1000
,
0000
0010
0100
0100
,
0001
0001
1000
0000
,
0010
0000
1000
0001
1000
0000
0000
0000
,
0000
0000
0000
0000
0000
0000
0000
0000
0100
0100
0100
0100
0000
0000
0000
0000
,
0010
0010
1000
0000
0001
0000
0010
0000
,
0000
0001
1000
0001
,
0100
0010
1000
0100
,
0000
1000
0001
0001
,
0000
0010
0100
0010
,
0000
0000
0001
1000
0001
2000
0000
3000
,
0010
1000
0001
0000
,
0100
0100
0001
0010
,
0001
1000
0010
0000
,
1000
1000
0100
0010
,
0001
1000
0001
0000
,
0100
0100
0010
0100
,
0001
1000
0010
0000
,
0100
0010
0100
0020
0000
0030
2000
0000
,
0000
3001
0000
0000
0000
0000
0002
0000
,
0000
0013
0000
0000
0001
0000
0200
0000
,
0000
0310
0000
0000
0000
0000
0020
0000
,
0000
0130
0000
0000
0010
0000
2000
0000
,
3001
0200
0000
0000
0300
0000
0002
0000
,
0000
1003
0000
0000
0001
0000
0020
0000
,
0000
0130
0000
0000
0000
0000
0020
0000
,
0000
0032
0000
2003
,
0000
0000
0000
0000
,
0000
0000
0000
3000
;

//---------------dance-single - ----------------
#NOTEDATA:;
#CHARTNAME:;
#STEPSTYPE:dance-single;
#DESCRIPTION:;
#CHARTSTYLE:;
#DIFFICULTY:Medium;
#METER:12;
#RADARVALUES:0.491277,0.604246,0.101145,0.124486,0.108926,442.000000,429.000000,13.000000,16.000000,0.000000,0.000000,0.000000,0.000000,0.000000,0.491277,0.604246,0.101145,0.124486,0.108926,442.000000,429.000000,13.000000,16.000000,0.000000,0.000000,0.000000,0.000000,0.000000;
#CREDIT:Daniel Van Eden;
#DISPLAYBPM:155.000000;
#NOTES:
0000
0000
0000
0000
,
0000
0000
0000
0000
,
0000
0000
0000
0000
,
0000
0000
0000
0000
,
0000
0000
0000
0000
,
0000
0000
0000
0000
,
0000
0000
0000
0000
,
0000
0000
0000
0000
,
0000
0000
0000
0000
,
0000
1000
0100
1000
0100
0010
0000
0010
,
0001
0100
0001
1000
0000
0000
0000
0000
,
0000
0001
0100
0001
1000
0010
0000
1000
,
0010
0100
0001
1000
0000
0000
0000
0000
,
0000
0001
0010
0001
0010
0100
0000
0100
,
1000
0001
0010
0100
0000
0000
0000
0000
,
0000
0100
0010
0100
1000
0010
0000
0010
,
1000
0001
0100
0010
0000
0000
1000
0000
,
0001
0000
0100
0000
0010
0000
1000
0000
0001
0000
0000
1000
0000
0000
0100
0000
,
0010
0001
0010
0001
0000
0100
0000
0010
,
0100
0000
0010
0000
1000
0000
0001
0000
1000
0000
0000
0001
0000
0000
0100
0000
,
0010
1000
0010
1000
0000
0001
0010
0000
,
0001
0000
1000
0000
0100
0000
0010
0000
0001
0000
0000
1000
0000
0000
0010
0000
,
1000
0001
0100
0010
0000
0000
0010
1000
,
0000
0000
0001
1000
0000
0100
0000
1000
,
0100
0010
0001
1000
0010
0100
0010
0000
,
1010
0000
0000
0000
1000
0000
0100
0000
0010
0000
0000
0001
0000
0000
1000
0000
,
0001
0010
0001
0100
0000
0010
0000
0010
,
1000
0000
0000
0000
0001
0000
0100
0000
0010
0000
0000
1000
0000
0000
0001
0000
,
1000
0000
0100
0000
0010
0000
0000
0100
0000
0000
0100
0000
0010
0000
0001
0000
,
1000
0000
0010
0000
1000
0000
0001
0000
0010
0000
0000
0001
0000
0000
0010
0000
,
0100
0000
1000
0000
0001
0000
0000
1000
0000
0000
0001
0000
0000
0000
1000
0000
,
0001
0000
0000
0000
0010
0000
0001
0000
1000
0000
0000
0100
0000
0000
1000
0000
,
0010
0010
0010
2002
3003
0000
0001
0100
,
1000
0000
0100
0000
0001
0000
0000
1000
0000
0000
1000
0000
0001
0000
0010
0000
,
0001
1000
0000
0010
0000
0010
1000
0100
,
0001
0000
0100
0000
1000
0000
0000
0001
0000
0000
0001
0000
0010
0000
0001
0000
,
0100
0000
0000
0010
0000
0000
0100
0000
0001
0000
0010
0000
0100
0000
1000
0000
,
0001
0000
1000
0000
0100
0000
0000
0010
0000
0000
0001
0000
1000
0000
0010
0000
,
1000
0010
0000
0100
0000
0001
0100
0001
,
1000
0000
0001
0000
0010
0000
0000
0100
0000
0000
0100
0000
0010
0000
0010
0000
,
0010
2002
3003
0000
1010
0000
0000
1000
,
0010
0100
0001
0010
0001
1000
0001
0010
,
0000
0100
0000
0010
0011
0000
0000
0001
,
0010
0000
0100
0000
1000
0000
0010
0000
1000
0000
0001
0000
0100
0000
0000
0010
,
0000
0010
0100
0001
1000
0000
0001
0000
,
1000
0001
0000
0001
1000
0000
0010
0000
1000
0000
0001
0000
0010
0000
0001
0000
,
1000
0000
0100
0000
1000
0000
0010
0000
0100
0000
0010
0000
0000
1000
0000
0000
,
0001
0000
0010
0001
1000
0100
0010
0100
,
1000
0001
0010
0000
0001
0010
0100
1000
,
0000
1000
0001
1000
0001
0010
0100
1000
,
0000
0010
1000
0000
0010
0000
0100
0001
,
0000
0001
0100
0010
1000
0001
0010
0100
,
0000
1000
0100
0000
0010
0000
0001
0100
,
0000
0100
0010
1000
0001
1000
0001
0100
,
0000
0010
1000
0100
0000
0010
0100
1000
,
0000
0011
0000
0010
0001
0100
0010
1000
,
0010
0100
0010
0000
2002
0000
0000
0000
,
0000
0000
0000
0000
3003
0000
0000
0000
0100
0001
0010
0100
0000
0000
0100
0000
,
0110
0000
0110
0000
1001
0000
0000
0000
0010
0000
0100
0000
0001
0000
0000
1000
,
0000
0000
0001
0000
0010
0000
0100
0000
1000
0000
0000
0001
0000
0000
0001
0000
,
1000
0000
0010
0000
1000
0000
0000
0000
0001
0000
0010
0000
0100
0000
0000
1000
,
0000
0010
1000
0001
1000
0100
0000
0010
,
0000
0000
0010
0000
0001
0000
0000
0000
1000
0000
0100
0000
0010
0000
0000
0001
,
0000
0001
0100
0100
0100
2002
3003
0000
,
0010
0000
0000
0000
0100
0000
0001
0000
1000
0000
0000
0010
0000
0000
0010
0000
,
1000
0001
1000
0100
0000
0010
0000
0001
,
1000
0000
0000
0000
0100
0000
1000
0000
0001
0000
0000
0010
0000
0000
0010
0000
,
0001
0000
0010
0000
0100
0000
0000
0010
0000
0000
0010
0000
0100
0000
1000
0000
,
0010
0000
0000
0000
1000
0000
0001
0000
1000
0000
0000
0010
0000
0000
0010
0000
,
0100
0001
0100
0010
0000
1000
0000
1000
,
0100
1000
0100
0010
0001
0100
0010
1000
,
0001
1000
0001
2002
3003
0000
1000
0000
,
0010
2000
0000
0000
3001
0100
0001
0010
,
0100
1000
0000
0100
0010
0000
0001
0000
,
0010
0002
0000
0000
0103
0010
1000
0010
,
0100
0001
0000
0001
1000
0000
0010
0000
,
0100
0002
0000
0000
0000
0103
0010
0100
,
0010
1000
0000
0001
1000
0010
0000
0100
,
0010
1000
0000
0001
0000
1000
0010
0100
,
0001
1000
0200
0000
0300
0000
2002
0000
,
0000
0000
0000
0000
,
0000
0000
0000
3003
;
