#TITLE:Store;
#SUBTITLE:;
#ARTIST:Carly Rae Jepsen;
#TITLETRANSLIT:;
#SUBTITLETRANSLIT:;
#ARTISTTRANSLIT:;
#GENRE:;
#CREDIT:;
#BANNER:store banner.png;
#BACKGROUND:background.png;
#LYRICSPATH:;
#CDTITLE:;
#MUSIC:Store.ogg;
#OFFSET:-0.076440;
#SAMPLESTART:35.008606;
#SAMPLELENGTH:17.454544;
#SELECTABLE:YES;
#BPMS:0.000000=110.000000
;
#STOPS:
;
#BGCHANGES:;
#KEYSOUNDS:;
#ATTACKS:;

//---------------dance-single - ----------------
#NOTES:
     dance-single:
     :
     Challenge:
     13:
     0.471707,0.513074,0.181047,0.077592,0.418132,383.000000,362.000000,21.000000,9.000000,0.000000,0.000000,0.471707,0.513074,0.181047,0.077592,0.418132,383.000000,362.000000,21.000000,9.000000,0.000000,0.000000:
0000
0000
0000
0000
,
0000
0000
0000
0000
,
0000
0000
0000
0000
,
0000
0000
0000
0000
,
0000
0000
0000
0000
,
0000
0000
0000
0000
,
0000
0000
0000
0000
,
0000
0000
0000
1001
,
1000
0010
0000
0010
1000
0000
0001
1000
0100
0000
0010
0000
0011
0000
0000
0000
,
0100
0000
0100
0000
0001
0000
0100
0010
0000
0000
1000
0001
0010
0000
0000
0000
,
0001
0010
0000
0010
0001
0000
1000
0001
0100
0000
0010
0000
1010
0000
0000
0000
,
1000
0000
1000
0000
0001
0000
1000
0010
0000
0000
0010
0100
0001
0000
0000
0000
,
0010
0100
0000
0100
1000
0000
0001
1000
0010
0000
0100
0000
0101
0000
0000
0000
,
0001
0000
0001
0000
0010
0000
0001
1000
0000
0000
0100
1000
0010
0000
1000
0000
,
0010
0000
0100
0002
0000
0000
1003
0000
0010
0000
1000
0200
0000
0000
0310
0000
,
0001
0000
0100
0020
0000
0000
1030
0000
0001
0000
0000
0000
0110
0000
0000
0000
,
0010
0000
0010
0000
1000
0010
1000
0100
0010
0000
0010
0001
1000
0100
0000
0000
,
0010
0000
0010
0000
0001
0010
0001
0100
0010
0000
0100
0000
1001
0000
0000
0001
,
0100
0010
0000
1000
0000
0001
1000
0001
1000
0000
0010
1000
0010
0000
0000
0000
,
1000
0000
1000
0000
0001
0010
0100
0010
0001
0000
1000
0000
0110
0000
0000
0000
,
0100
0000
0100
0000
0001
0100
0010
1000
0100
0000
0100
1000
0001
0010
0000
0000
,
0100
0000
0100
0000
1000
0100
0010
0001
0100
0000
0010
0000
1001
0000
0000
1000
,
0001
0100
0000
0010
0000
0100
0001
0100
0001
0000
1000
0010
1000
0000
0000
0000
,
0001
0000
0001
0000
1000
0010
0100
0010
1000
0000
0001
0000
0110
0000
0000
0000
,
2000
0010
3001
0101
,
0000
0100
0020
0000
1030
0001
0100
0000
,
0001
0000
0000
0000
1000
0001
0010
0001
0100
0000
0001
0000
0010
0000
0100
0000
,
1000
0001
0010
0001
0100
0000
0001
0000
0010
0000
0100
0000
1000
0000
0000
0000
,
0001
0000
0000
0001
0010
0000
0001
0000
1000
0000
0000
0000
1100
0000
0000
0000
,
1000
0000
0010
1000
0001
0000
1000
0000
0001
0000
0010
0000
0100
0000
0000
0000
,
0010
0000
0000
0010
0001
1000
0010
1000
0100
0000
1000
0000
0010
0000
0100
0000
,
0001
1000
0010
1000
0100
0000
1000
0000
0010
0000
0100
0000
0010
0000
0100
0000
,
0002
0000
0000
0010
0000
0000
0010
0000
,
2003
0000
0000
0100
0000
0000
3000
0000
,
1020
0000
0000
0100
0000
0000
0130
0000
,
0210
0000
0000
0001
0000
0000
0300
0000
,
0001
0000
0001
0000
0010
0001
0010
0100
1000
0000
1000
0100
0010
0001
0000
0000
,
1000
0000
1000
0000
0010
1000
0100
0010
0001
0000
1000
0000
0110
0000
0000
0100
,
0010
1000
0000
0001
0000
1000
0100
1000
0100
0000
0010
0001
0010
0000
0000
0000
,
0100
0000
0100
0000
1000
0100
0010
0001
0100
0000
0010
0000
1001
0000
0000
0000
,
1000
0000
1000
0000
0100
1000
0100
0010
0001
0000
0001
0010
0100
1000
0000
0000
,
0001
0000
0001
0000
0100
0001
0100
0010
1000
0000
0001
0000
0110
0000
0000
0100
,
0010
0001
0000
1000
0000
0010
1000
0010
1000
0000
0001
0100
0001
0000
0000
0000
,
0010
0000
0010
0000
0001
0010
0100
1000
0010
0000
0100
0000
1001
0000
0000
0000
,
0010
0000
0000
0000
0001
0000
0100
0010
0000
0000
0010
0000
1000
0000
0000
0000
,
0010
0000
0010
0000
1000
0000
0100
0010
0000
0000
0100
0000
0011
0000
0000
0000
,
0100
0000
0000
0000
1000
0000
0100
0010
0000
0000
0001
0000
0100
0000
0000
0000
,
0010
0000
0010
0000
0100
0000
0010
1000
0000
0000
0010
0000
1100
0000
0000
0000
,
1000
0100
1000
0000
0010
0000
1000
0001
1000
0000
0001
0000
0100
0000
0010
0000
,
0100
0010
0100
0000
0001
0000
0010
0001
0010
0000
0100
0000
1100
0000
0000
0000
,
0001
0100
0001
0000
0010
0000
0001
1000
0001
0000
1000
0000
0100
0000
0010
0000
,
0100
0010
0100
0000
1000
0000
0010
1000
0010
0000
0100
0000
1001
0000
0000
0000
;

//---------------dance-single - ----------------
#NOTES:
     dance-single:
     :
     Medium:
     8:
     0.229080,0.312306,0.103455,0.146562,0.000000,186.000000,174.000000,12.000000,17.000000,0.000000,0.000000,0.229080,0.312306,0.103455,0.146562,0.000000,186.000000,174.000000,12.000000,17.000000,0.000000,0.000000:
0000
0000
0000
0000
,
0000
0000
0000
0000
,
0000
0000
0000
0000
,
0000
0000
0000
0000
,
0000
0000
0000
0000
,
0000
0000
0000
0000
,
0000
0000
0000
0000
,
0000
0000
0000
0000
,
0010
1000
0001
1000
,
0200
0000
0000
0310
0000
0010
0001
0000
,
0010
0100
1000
0010
,
2000
0000
0000
3100
0000
0000
0011
0000
,
0010
0100
0010
0001
,
0200
0000
0000
0310
0000
0010
1000
0000
,
2000
0001
0000
3001
,
0002
0010
0003
0110
,
0100
0000
1000
0100
1000
0000
0010
0000
,
0010
0100
0000
0100
0000
0000
1001
0000
,
0001
0000
1000
0000
0100
1000
0100
0000
,
0010
1000
0010
1000
0010
0000
0110
0000
,
0100
0000
0001
0000
0010
0001
0010
0000
,
0001
1000
0010
1010
,
0100
0000
0001
0000
0010
0100
0010
0000
,
0001
1000
0001
1000
0001
0000
1001
0000
,
0020
1000
0100
1030
,
0000
2000
0100
3001
,
0000
0001
0010
0001
,
0100
0010
1000
0001
,
0020
0100
0001
0130
,
0000
0200
0010
0310
,
0000
1000
0010
1000
,
0001
0010
0100
0000
,
2000
0000
0000
0020
0000
0000
3030
0000
,
0020
0000
0000
0200
0000
0000
0330
0000
,
0002
0000
0000
0020
0000
0000
0033
0000
,
0200
0000
0000
2000
0000
0000
3300
0000
,
0010
0000
1000
0000
0001
0100
0001
0000
,
0010
0100
0000
0010
0000
0000
1001
0000
,
0100
0000
0010
0000
1000
0100
1000
0000
,
0010
1000
0010
1000
0010
0000
0000
0000
,
0100
0000
0001
0000
1000
0010
1000
0000
,
0100
0010
0010
0011
,
0100
0000
0001
0000
1000
0010
1000
0000
,
0001
0100
0001
0100
0001
0000
0000
0000
,
0100
0000
0010
1000
0000
0000
0001
0000
,
0010
0100
0000
0100
0000
0000
1010
0000
,
0100
0000
0001
0100
0000
0000
0010
0000
,
1000
0001
0000
0010
0000
0000
1100
0000
,
0010
0000
0100
0010
0000
0000
0001
0000
,
0010
1000
0000
0100
0000
0000
1001
0000
,
0100
0000
0001
1000
0000
0000
0010
0000
,
0100
0010
0000
1000
0000
0000
0110
0000
;

//---------------dance-single - ----------------
#NOTES:
     dance-single:
     :
     Beginner:
     1:
     0.094834,0.156153,0.051728,0.000000,0.000000,77.000000,71.000000,6.000000,0.000000,0.000000,0.000000,0.094834,0.156153,0.051728,0.000000,0.000000,77.000000,71.000000,6.000000,0.000000,0.000000,0.000000:
0000
0000
0000
0000
,
0000
0000
0000
0000
,
0000
0000
0000
0000
,
0000
0000
0000
0000
,
0000
0000
0000
0000
,
0000
0000
0000
0000
,
0000
0000
0000
0000
,
0000
0000
0000
0000
,
0010
0000
1000
0000
,
0001
0000
0000
0000
,
0001
0000
0010
0000
,
0100
0000
0000
0000
,
0010
0000
0001
0000
,
0100
0000
0010
0000
,
1000
0000
0000
0000
,
0000
0000
0000
1001
,
0000
0001
0000
0001
,
0000
1000
0000
1001
,
0000
0010
0000
0010
,
0000
0100
0000
0100
,
0000
1000
0000
0001
,
0000
1000
0000
1001
,
0000
0010
0000
0001
,
0000
1000
0000
0000
,
0010
0000
0000
0000
,
1000
0000
0000
0000
,
0100
0000
0000
0000
,
0001
0000
0000
0000
,
0010
0000
0000
0000
,
0100
0000
0000
0000
,
0001
0000
0000
0000
,
1000
0000
0000
0000
,
0010
0000
0100
0000
,
0001
0000
0000
0000
,
0100
0000
1000
0000
,
0010
0000
0000
0000
,
0000
0100
0000
0100
,
0000
0010
0000
0110
,
0000
0010
0000
1000
,
0000
0001
0000
0000
,
0000
0100
0000
0010
,
0000
0010
0000
0110
,
0000
0100
0000
0001
,
0000
0010
0000
0000
,
1000
0000
1000
0000
,
0001
0000
0001
0000
,
0010
0000
0001
0000
,
0100
0000
0010
0000
,
1000
0000
0001
0000
,
0010
0000
0100
0000
,
0010
0000
1000
0000
,
0001
0000
0000
1001
;

//---------------dance-single - ----------------
#NOTES:
     dance-single:
     :
     Easy:
     5:
     0.179815,0.245383,0.077592,0.051728,0.000000,146.000000,137.000000,9.000000,6.000000,0.000000,0.000000,0.179815,0.245383,0.077592,0.051728,0.000000,146.000000,137.000000,9.000000,6.000000,0.000000,0.000000:
0000
0000
0000
0000
,
0000
0000
0000
0000
,
0000
0000
0000
0000
,
0000
0000
0000
0000
,
0000
0000
0000
0000
,
0000
0000
0000
0000
,
0000
0000
0000
0000
,
0000
0000
0000
0000
,
1000
0010
1000
0010
,
0100
0000
0000
0100
0000
0000
0000
0000
,
0001
1000
0001
0010
,
0001
0000
0000
0001
0000
0000
0000
0000
,
0100
0010
1000
0010
,
1000
0000
0000
1000
0000
0000
0000
0000
,
0100
0010
0000
0000
,
0010
0100
0000
1001
,
0001
1000
0010
0010
,
1000
0100
0010
0011
,
0001
1000
0010
0010
,
0100
0100
0010
1000
,
0001
0100
0010
0010
,
0100
0001
1000
1100
,
1000
0010
1000
0001
,
0100
0010
1000
0010
,
0002
0000
1000
0003
,
2000
0000
0010
3000
,
0200
0000
0010
0300
,
0010
0010
1000
0000
,
0002
0000
0013
0000
,
2000
0000
3100
0000
,
0020
0000
0031
0000
,
1000
0001
1000
0000
,
0100
0000
0010
0000
,
0001
0000
0000
1000
0000
0000
0000
0000
,
0001
0000
0100
0000
,
0010
0000
0000
1000
0000
0000
1001
0000
,
1000
0100
1000
1000
,
0001
0010
0001
0101
,
0010
1000
0100
0100
,
0010
0100
0010
0000
,
0001
1000
0010
0100
,
0010
0010
1000
1001
,
0100
0001
0010
0001
,
0100
0100
0001
0000
,
1000
0010
1000
0100
,
0000
0100
0010
0011
,
0000
0001
0010
1000
,
0000
1000
0100
1000
,
0000
0010
0100
0010
,
0000
1000
0010
1010
,
0000
0100
0001
0010
,
0000
0001
1000
1001
;

//---------------dance-single - ----------------
#NOTES:
     dance-single:
     :
     Hard:
     10:
     0.342388,0.379229,0.181047,0.103455,0.099145,278.000000,257.000000,21.000000,12.000000,0.000000,0.000000,0.342388,0.379229,0.181047,0.103455,0.099145,278.000000,257.000000,21.000000,12.000000,0.000000,0.000000:
// measure 0
0000
0000
0000
0000
,  // measure 1
0000
0000
0000
0000
,  // measure 2
0000
0000
0000
0000
,  // measure 3
0000
0000
0000
0000
,  // measure 4
0000
0000
0000
0000
,  // measure 5
0000
0000
0000
0000
,  // measure 6
0000
0000
0000
0000
,  // measure 7
0000
0000
0000
0000
,  // measure 8
1000
0010
0000
0000
0010
0000
0100
0010
0000
0000
0000
0000
1100
0000
0000
0000
,  // measure 9
0001
0000
0001
0000
0010
0000
0001
0100
0000
0000
0100
0000
0110
0000
0000
0000
,  // measure 10
0100
0010
0000
0000
0010
0000
1000
0010
0000
0000
0000
0000
0101
0000
0000
0000
,  // measure 11
1000
0000
0100
0000
1000
0000
0001
1000
0000
0000
0000
0000
1001
0000
0000
0000
,  // measure 12
0001
0010
0000
0000
0010
0000
0100
1000
0000
0000
0000
0000
1010
0000
0000
0000
,  // measure 13
0100
0000
0100
0000
0010
0000
0100
0001
0000
0000
0001
0000
0100
0000
0000
0000
,  // measure 14
0001
0100
1000
0100
0020
0000
0230
0000
,  // measure 15
0301
0010
1000
0010
0100
0000
1001
0000
,  // measure 16
1000
0010
1000
0100
0010
0001
0010
0000
,  // measure 17
0010
0010
0010
0100
0010
0000
1001
0000
,  // measure 18
1000
0000
0000
0001
0000
0000
2000
0000
0010
0000
0010
0000
3010
0000
0000
0000
,  // measure 19
0100
0001
0100
1000
0100
0000
0011
0000
,  // measure 20
0001
1000
0100
1000
0010
0100
0001
0000
,  // measure 21
0010
0010
0100
0010
0001
0000
1100
0000
,  // measure 22
0100
0000
0000
1000
0000
0000
0020
0000
1000
0000
1000
0000
1030
0000
0000
0000
,  // measure 23
0001
0010
1000
0010
0001
0000
1001
0000
,  // measure 24
2000
0001
0010
3001
,  // measure 25
0001
0100
0001
0000
0010
0100
2000
0000
,  // measure 26
3000
0000
0010
1000
0010
0100
0001
0100
,  // measure 27
1000
0100
0001
0010
0100
1000
0010
0000
,  // measure 28
1000
0000
0000
1000
0100
0000
1000
0000
0000
0000
0001
0000
0010
0000
0000
0000
,  // measure 29
0001
0000
0000
0001
0100
0000
0010
0000
0100
0000
0001
0000
1000
0000
0000
0000
,  // measure 30
0100
0000
0010
0100
0010
0001
0100
0010
,  // measure 31
1000
0001
1000
0010
0100
0010
1000
0001
,  // measure 32
2000
0000
0000
0010
0000
0000
3010
0000
,  // measure 33
0020
0000
0000
0100
0000
0000
0030
0000
,  // measure 34
0200
0000
0000
0001
0000
0000
0301
0000
,  // measure 35
0002
0000
0000
1000
0000
0000
1003
0000
,  // measure 36
0001
0100
0001
0010
0100
0010
0100
0000
,  // measure 37
1000
1000
0010
1000
0100
0000
0110
0000
,  // measure 38
0010
0000
0000
0100
0000
0000
0020
0000
0001
0000
0001
0000
0031
0000
0000
0000
,  // measure 39
0010
0001
0100
0001
0010
0000
0110
0000
,  // measure 40
0001
0100
0010
1000
0001
1000
0001
0000
,  // measure 41
0010
0010
0001
0010
0100
0000
1001
0000
,  // measure 42
0010
0000
0000
1000
0000
0000
0020
0000
0100
0000
0100
0000
0130
0000
0000
0000
,  // measure 43
0010
1000
0100
1000
0010
0000
1000
0001
,  // measure 44
0100
0000
0000
0000
0001
0000
1000
0001
0000
0000
0000
0000
1010
0000
0000
0000
,  // measure 45
0100
0000
0100
0000
0010
0000
0100
0001
0000
0000
0000
0000
1001
0000
0000
0000
,  // measure 46
0001
0000
0000
0000
0010
0000
0001
0100
0000
0000
0000
0000
1010
0000
0000
0000
,  // measure 47
1000
0000
0010
0000
0100
0000
0010
0100
0000
0000
0000
0000
1001
0000
0000
0000
,  // measure 48
1000
0000
0000
0000
0010
0000
1000
0010
0000
0000
0000
0000
0101
0000
0000
0000
,  // measure 49
1000
0000
1000
0000
0001
0000
1000
0010
0000
0000
0000
0000
0110
0000
0000
0000
,  // measure 50
0001
0000
0000
0000
0010
0000
0001
0100
0000
0000
0000
0000
0101
0000
0000
0000
,  // measure 51
0010
0000
1000
0000
0001
0000
1000
0001
0000
0000
0000
0000
1001
0000
0000
0000
;
