#VERSION:0.83;
#TITLE:Signal;
#SUBTITLE:;
#ARTIST:rejection feat. Such;
#TITLETRANSLIT:;
#SUBTITLETRANSLIT:;
#ARTISTTRANSLIT:;
#GENRE:;
#ORIGIN:;
#CREDIT:;
#BANNER:Signal.png;
#BACKGROUND:Signal-bg.png;
#PREVIEWVID:;
#JACKET:Signal-jacket.png;
#CDIMAGE:;
#DISCIMAGE:;
#LYRICSPATH:;
#CDTITLE:;
#MUSIC:Signal.ogg;
#OFFSET:0.010883;
#SAMPLESTART:10.977070;
#SAMPLELENGTH:10.971428;
#SELECTABLE:YES;
#BPMS:0.000=175.000,
115.000=87.500,
119.000=175.000,
207.000=87.500,
211.000=175.000,
267.000=87.500,
271.000=175.000;
#STOPS:56.000=1.714;
#DELAYS:;
#WARPS:;
#TIMESIGNATURES:0.000=4=4;
#TICKCOUNTS:0.000=4;
#COMBOS:0.000=1;
#SPEEDS:0.000=1.000=0.000=0;
#SCROLLS:0.000=1.000;
#FAKES:;
#LABELS:0.000=Song Start;
#BGCHANGES:;
#KEYSOUNDS:;
#ATTACKS:
;

//---------------dance-single - ----------------
#NOTEDATA:;
#CHARTNAME:;
#STEPSTYPE:dance-single;
#DESCRIPTION:;
#CHARTSTYLE:;
#DIFFICULTY:Challenge;
#METER:17;
#RADARVALUES:0.911598,1.164473,0.296799,0.120575,0.959960,688.000000,656.000000,32.000000,13.000000,0.000000,0.000000,0.000000,0.000000,0.000000,0.911598,1.164473,0.296799,0.120575,0.959960,688.000000,656.000000,32.000000,13.000000,0.000000,0.000000,0.000000,0.000000,0.000000;
#CREDIT:Daniel Van Eden;
#NOTES:
0000
0000
0000
0000
,
0000
0000
0000
0000
,
0000
0000
0000
0000
,
0000
0000
0000
0000
,
0000
0000
0000
0000
,
0000
0000
0000
0000
,
0000
0000
0000
0000
,
0011
0000
0001
0000
1000
0000
1010
0000
0010
0000
0100
0000
0010
1000
0100
0010
,
0001
1000
0010
1000
0010
1000
0010
0100
,
0001
0010
0100
0010
0100
0010
0100
1000
,
0010
0100
0001
0100
0001
0100
0001
0010
,
0100
0000
1000
0000
0010
0000
1000
0010
1000
0000
0001
0000
0100
0000
0001
0100
,
0001
0000
1000
0000
0010
0000
1000
0001
0100
0000
0001
0000
0010
0000
0001
1000
,
0001
0000
0010
0000
0001
0000
0100
0000
0010
1000
0010
0100
0001
0010
0100
1000
,
0020
0030
0000
0000
0000
0000
1000
0001
1001
0000
0100
0000
1010
0000
1000
0000
,
0000
0000
1000
0000
0000
0000
1000
0000
0000
0010
1000
0010
0100
0000
0001
0000
,
0001
0000
0100
0001
0000
0001
0100
0000
0010
0000
0100
0000
0101
0000
0001
0000
,
0000
0000
0001
0000
0000
0000
0001
0000
0000
0010
0001
0010
0100
0000
1000
0000
,
1000
0000
0100
1000
0000
1000
0100
0000
0020
0032
2003
3200
0310
0000
0001
1000
,
0010
0000
1000
0001
0100
0010
0100
0010
0100
0000
0001
1000
0100
0000
1000
0001
,
0100
0000
0001
1000
0010
0100
0010
0100
0002
0003
0002
0003
0100
0001
0010
0100
,
1000
0010
0001
0010
1000
0100
0010
0001
0100
1000
0100
0001
1000
0000
0001
0000
,
0100
0001
0010
0100
0110
0000
1000
0001
,
1001
0000
1000
0100
0010
0000
0100
0010
0001
0010
0001
1000
0100
0000
1000
0010
,
1000
0000
0010
1000
0001
0100
0001
1000
0100
0000
1000
0000
0001
0010
0001
0010
,
0100
0000
0010
0100
1000
0000
0100
1000
0100
0010
0001
1000
0010
0000
0100
0001
,
0000
0001
0000
0100
0010
1000
0001
0010
0200
0300
0010
0000
0002
0000
1003
0000
,
1001
0000
0001
0010
0100
0000
0010
0100
1000
0100
1000
0001
0010
0000
0001
0100
,
0001
0000
0100
0001
0100
0010
0100
0010
1000
0000
0001
0000
0101
0000
0001
0100
,
0110
0010
1000
0100
1100
1000
0100
0010
0011
0001
0010
0100
1000
0000
0001
0000
,
1001
0000
1000
0001
0100
0000
0001
1000
0100
0010
0001
1000
0010
0000
1000
0001
,
0010
0000
0100
0010
0001
1000
0100
1000
0010
0000
0100
0000
0010
1000
0010
1000
,
0001
0000
0010
0001
1000
0000
0100
1000
0100
0010
0001
0100
0010
0000
1000
0001
,
0000
0001
0000
1000
0001
0100
0010
1000
0200
0300
0010
0000
0002
0000
1003
0000
,
1001
0000
0001
1000
0100
0000
1000
0001
0100
0010
1000
0001
0010
0000
0001
1000
,
0010
0000
0100
0010
1000
0001
0100
0001
0010
0000
0100
0000
1000
0000
0010
0000
,
1000
0000
0010
0000
0001
0000
0010
0000
0001
0000
0010
0000
1000
0010
0100
0010
,
1000
0100
0001
0100
1000
0010
0100
0001
0010
0000
0100
0000
0110
0000
0010
0000
,
0001
0000
0010
0000
0100
1000
0000
1000
0100
0000
0010
0000
0001
0000
1000
0010
,
0100
0000
0010
0100
0001
1000
0000
1000
0001
0000
0100
0000
0010
0000
1000
0000
,
0010
0000
0100
0000
0001
0010
0000
0010
0001
0000
0100
0000
0010
0000
1000
0001
,
0100
0000
0001
1000
0010
0100
0000
0100
0010
0000
1000
0000
1001
0000
0001
0000
,
1000
0000
0010
0000
0100
0001
0000
0001
0100
0000
0010
0000
1000
0000
0001
0010
,
0100
0000
0010
0100
1000
0001
0000
0001
1000
0000
0100
0000
1000
0000
0100
0000
,
0001
0100
1000
0010
0001
0010
1000
0001
,
0001
0000
1000
0010
0100
0001
0010
0100
1000
0000
0010
0000
0110
0000
0100
0000
,
0001
0000
0100
0000
0010
1000
0000
1000
0010
0000
0100
0000
0001
0000
1000
0100
,
0010
0000
0100
0010
0001
1000
0000
1000
0001
0000
0100
0000
0010
0000
1000
0000
,
0001
0000
1000
0000
0100
0010
0000
0010
0100
0000
1000
0000
0010
0000
1000
0001
,
0010
0000
0001
1000
0100
0010
0000
0010
0100
0000
1000
0000
1001
0000
0001
0000
,
1000
0000
0100
0000
0010
0001
0000
0001
0010
0000
0100
0000
1000
0000
0001
0100
,
0010
0000
0100
0010
1000
0001
0000
0001
1000
0000
0100
0000
1100
0000
1000
0001
,
0101
0000
0010
0000
0000
0000
0110
0000
0100
0000
1000
0000
1010
0000
0000
0000
1000
0001
0100
0000
0100
0000
0000
0000
0011
0000
0000
0000
0001
0000
0000
0000
,
1000
0001
0100
0000
0001
1000
0000
1000
0001
0000
0100
0000
0001
0000
1000
0010
,
0100
0000
0010
1000
0100
0010
0000
0010
0100
0000
1000
0000
0001
0000
0010
0000
,
0001
1000
0100
0000
1000
0001
0000
0001
1000
0000
0100
0000
1000
0000
0001
0010
,
0100
0000
0010
0001
0100
0010
0000
0010
0100
0000
0001
0000
1001
0000
1000
0000
,
0001
1000
0010
0000
1000
0100
0000
0100
1000
0000
0010
0000
0100
0000
0001
0010
,
0100
0000
0010
0001
0100
0010
0000
0010
0100
0000
0001
0000
1000
0000
0010
0000
,
0001
0010
1000
0100
0001
0100
1000
0010
,
0010
0000
1000
0010
0100
0001
0010
0100
1000
0000
0001
0000
1001
0000
1000
0000
,
0100
0010
0001
0000
1000
0010
0000
0010
1000
0001
0100
0000
0001
0000
0010
0001
,
1000
0000
0010
1000
0100
0010
0100
1000
0001
0000
0010
0000
0001
0000
0100
0000
,
0010
1000
0001
0000
1000
0100
0000
0100
1000
0001
0010
0000
0100
0000
0010
0001
,
1000
0000
0010
0100
0001
1000
0000
1000
0001
0000
0100
0000
0110
0000
0010
0000
,
0100
0010
1000
0000
0001
0010
0000
0010
0001
1000
0100
0000
1000
0000
0010
1000
,
0001
0000
0100
0001
1000
0010
1000
0100
0010
0000
0001
0000
0011
0010
0100
1000
,
0010
0000
1010
0000
1000
0000
1001
0000
0001
0000
0011
0000
1001
0000
1000
0000
0001
1000
0010
0000
0100
0000
0001
0000
2002
0000
0000
0000
0000
0000
0000
0000
,
0000
0000
0000
0000
,
0000
0000
0000
3003
;

//---------------dance-single - ----------------
#NOTEDATA:;
#CHARTNAME:;
#STEPSTYPE:dance-single;
#DESCRIPTION:;
#CHARTSTYLE:;
#DIFFICULTY:Hard;
#METER:15;
#RADARVALUES:0.780423,0.905701,0.120575,0.046375,0.602873,589.000000,576.000000,13.000000,5.000000,0.000000,0.000000,0.000000,0.000000,0.000000,0.780423,0.905701,0.120575,0.046375,0.602873,589.000000,576.000000,13.000000,5.000000,0.000000,0.000000,0.000000,0.000000,0.000000;
#CREDIT:Daniel Van Eden;
#NOTES:
// measure 0
0000
0000
0000
0000
,  // measure 1
0000
0000
0000
0000
,  // measure 2
0000
0000
0000
0000
,  // measure 3
0000
0000
0000
0000
,  // measure 4
0000
0000
0000
0000
,  // measure 5
0000
0000
0000
0000
,  // measure 6
0000
0000
0000
0000
,  // measure 7
0000
0000
0000
0000
,  // measure 8
1000
0100
1000
0100
1000
0100
1000
0100
,  // measure 9
0010
0001
0010
0001
0010
0001
0010
0001
,  // measure 10
0100
0001
0100
0001
0100
0010
0100
0010
,  // measure 11
1000
0010
0100
0001
0010
0001
1000
0100
,  // measure 12
1000
0000
0010
0000
1000
0000
0001
0100
0001
0000
0010
0000
0001
0000
1000
0100
,  // measure 13
1000
0000
0010
0000
1000
0000
0010
0000
1000
0001
1000
0100
0010
0001
0010
0100
,  // measure 14
2000
3000
0000
0000
0000
0000
0010
1000
0001
0000
0100
0000
0101
0000
1000
0000
,  // measure 15
0000
0000
1000
0000
0000
0000
1000
0001
0000
0001
1000
0000
0010
0000
1000
0000
,  // measure 16
0100
0000
1000
0010
0000
0010
1000
0000
0001
0000
1000
0000
1100
0000
0001
0000
,  // measure 17
0000
0000
0001
0000
0000
0000
0001
1000
0000
1000
0001
0000
0010
0000
0001
0000
,  // measure 18
0100
0000
0001
0010
0000
0010
0001
0000
2000
0000
0000
0000
3001
0000
0100
0000
,  // measure 19
1000
0000
0100
0000
0001
1000
0001
1000
0001
0000
0010
0001
1000
0000
0100
0000
,  // measure 20
0001
0000
0100
0000
1000
0001
1000
0001
0020
0030
0020
0030
0001
0100
0001
0100
,  // measure 21
0010
0100
0010
0100
0010
1000
0010
1000
0100
0010
0001
1000
0001
0000
0010
0000
,  // measure 22
0100
0010
0001
1000
1001
0000
0001
0100
,  // measure 23
0010
0000
1000
0010
1000
0000
0100
1000
0100
0000
0010
0100
0010
0000
0001
0010
,  // measure 24
0001
0000
0100
0000
0001
1000
0001
1000
0001
0000
1000
0000
0001
0010
0001
0010
,  // measure 25
0001
0000
1000
0100
1000
0000
0010
1000
0010
0000
1000
0001
1000
0000
0010
0100
,  // measure 26
0000
0100
0000
0010
1000
0001
1000
0000
0100
0000
0010
0000
0001
0000
1000
0000
,  // measure 27
1000
0000
0001
0100
0001
0000
0100
0010
0100
0000
0010
1000
0010
0000
1000
0001
,  // measure 28
1000
0000
0100
0000
0010
0100
0010
0100
0010
0000
0001
0000
0101
0000
0100
0001
,  // measure 29
0010
0001
0100
0010
0000
0010
1000
0100
1000
0010
0000
0000
1000
0000
0001
0000
,  // measure 30
0001
0000
1000
0010
1000
0000
0001
1000
0001
0000
0100
0001
0100
0000
0010
0100
,  // measure 31
0010
0000
1000
0000
0001
1000
0001
1000
0001
0000
1000
0000
0010
1000
0010
1000
,  // measure 32
0010
0000
1000
0001
1000
0000
0001
0010
0001
0000
1000
0100
1000
0000
0001
1000
,  // measure 33
0000
1000
0000
0001
0010
0001
0010
0000
0100
0000
1000
0000
0001
0000
1000
0000
,  // measure 34
1000
0000
0001
0010
0001
0000
1000
0001
1000
0000
0100
1000
0100
0000
0010
0100
,  // measure 35
0010
0000
0001
0000
1000
0001
1000
0001
1000
0000
0010
0000
1000
0000
0001
0000
,  // measure 36
0010
0000
0100
0000
0010
0000
0001
0000
1000
0000
0010
0000
1000
0000
0001
0100
,  // measure 37
0010
0000
1000
0100
0010
0000
0001
0100
0010
0000
0000
0000
1001
0000
1000
0000
,  // measure 38
0010
0000
1000
0000
0001
0010
0000
0010
0001
0000
1000
0000
0100
0000
0001
0000
,  // measure 39
0100
0000
1000
0000
0010
0100
0000
0100
0010
0000
1000
0000
0001
0000
0010
0000
,  // measure 40
0001
0000
1000
0000
0001
0100
0000
0100
0001
0000
1000
0000
0010
0000
0001
0000
,  // measure 41
0010
0000
1000
0000
0100
0010
0000
0010
0100
0000
1000
0000
1001
0000
0001
0000
,  // measure 42
0010
0000
0001
0000
1000
0010
0000
0010
1000
0000
0001
0000
0100
0000
1000
0000
,  // measure 43
0100
0000
0001
0000
0010
0100
0000
0100
0010
0000
0001
0000
1000
0000
0010
0000
,  // measure 44
0100
0010
0001
0010
0100
0010
1000
0001
,  // measure 45
0001
0000
0010
0001
0010
0100
1000
0100
0010
0000
0001
0000
1001
0000
1000
0000
,  // measure 46
0010
0000
0100
0000
0001
1000
0000
1000
0001
0000
0010
0000
0001
0000
1000
0000
,  // measure 47
0100
0000
1000
0000
0010
0100
0000
0100
0010
0000
1000
0000
0001
0000
0100
0000
,  // measure 48
0010
0000
1000
0000
0010
0100
0000
0100
0010
0000
1000
0000
0100
0000
0010
0000
,  // measure 49
0100
0000
0010
0000
0001
1000
0000
1000
0001
0000
0100
0000
0110
0000
0010
0000
,  // measure 50
1000
0000
0100
0000
1000
0001
0000
0001
1000
0000
0010
0000
1000
0000
0001
0000
,  // measure 51
0100
0000
0001
0000
0010
0100
0000
0100
0010
0000
0001
0000
0101
0000
0100
0001
,  // measure 52
1000
0000
0010
0000
0000
0000
1010
0000
0000
0000
0010
0000
1000
0000
0000
0000
0100
1000
0100
0000
0010
0000
0000
0000
0001
0000
0000
0000
0100
0000
0000
0000
,  // measure 53
0010
0100
0001
0100
0010
1000
0001
1000
,  // measure 54
0100
0000
0010
0000
0001
1000
0100
0000
1000
0000
0010
0000
1000
0000
0100
0000
,  // measure 55
0010
0100
0001
0100
1000
0010
0001
0010
,  // measure 56
1000
0000
0001
0100
0001
0000
0010
0000
0100
0000
1000
0000
0010
0000
1000
0000
,  // measure 57
0100
0010
0100
1000
0010
1000
0001
0100
,  // measure 58
1000
0000
0100
0000
0001
0010
0100
0000
1000
0000
0001
0000
0010
0000
0001
0000
,  // measure 59
0010
0100
0010
1000
0010
0001
0100
0010
,  // measure 60
0010
0000
1000
0010
0100
0001
0100
0010
1000
0000
0001
0000
1001
0000
1000
0000
,  // measure 61
0100
0010
0100
1000
0100
0010
0001
0100
,  // measure 62
0010
0000
0100
0000
0001
1000
0010
0000
1000
0000
0100
0000
0010
0000
0001
0000
,  // measure 63
1000
0010
0001
0010
1000
0100
0001
0100
,  // measure 64
1000
0000
0010
1000
0010
0000
1000
0000
0100
0000
0010
0000
0110
0000
0100
0000
,  // measure 65
0010
0001
0010
0100
1000
0100
0010
0001
,  // measure 66
1000
0000
0001
0000
0100
0010
1000
0000
0001
0000
0010
0000
0110
0100
1000
0100
,  // measure 67
0001
0000
0100
0000
1000
0000
0010
0000
0100
0000
0001
0000
0001
0000
1000
0000
0001
0100
0001
0000
1000
0000
0010
0000
0200
0000
0000
0000
0000
0000
0000
0000
,  // measure 68
0000
0000
0000
0000
,  // measure 69
0000
0000
0000
0300
;

//---------------dance-single - ----------------
#NOTEDATA:;
#CHARTNAME:;
#STEPSTYPE:dance-single;
#DESCRIPTION:;
#CHARTSTYLE:;
#DIFFICULTY:Beginner;
#METER:7;
#RADARVALUES:0.253074,0.377028,0.046375,0.000000,0.000000,191.000000,186.000000,5.000000,0.000000,0.000000,0.000000,0.000000,0.000000,0.000000,0.253074,0.377028,0.046375,0.000000,0.000000,191.000000,186.000000,5.000000,0.000000,0.000000,0.000000,0.000000,0.000000,0.000000;
#CREDIT:Daniel Van Eden;
#NOTES:
0000
0000
0000
0000
,
0000
0000
0000
0000
,
0000
0000
0000
0000
,
0000
0000
0000
0000
,
0000
0000
0000
0000
,
0000
0000
0000
0000
,
0000
0000
0000
0000
,
0000
0000
0000
0000
,
0010
0000
1000
1000
,
1000
0000
0001
0001
,
0001
0000
0000
0010
0000
0000
0000
0000
,
0001
0010
0100
1000
,
0001
0000
1000
0000
,
0010
1000
0010
0100
,
0001
0000
0000
1001
,
0000
1000
0000
0001
,
0000
1000
0000
1010
,
0000
0010
0000
1000
,
0000
0010
0000
0100
,
0100
0100
0000
0010
,
0010
0010
0000
1000
,
0100
0010
0001
1000
,
0000
0000
0000
0001
,
0000
0001
0100
0001
,
0100
0010
1000
0001
,
1000
0001
1000
0100
,
1000
0100
0010
0001
,
0000
1000
0100
1000
,
0100
0010
0001
1000
,
0010
0000
1000
1000
0001
0000
1000
0000
,
0000
0001
0100
0001
,
0100
0001
0010
0100
,
0010
0100
0010
0100
,
1000
0010
1000
0001
,
0000
1000
0100
1000
,
0100
0010
0100
0010
,
0000
0001
0000
1000
,
0000
0001
0000
1001
,
0000
0010
0000
0001
,
0100
0010
0100
0001
,
0000
1000
0000
0100
,
0010
0100
1000
0010
,
0000
1000
0000
0001
,
0100
0010
1000
0001
,
0000
0010
0000
0100
,
0010
0010
0100
1000
,
0000
0001
0000
0100
,
0010
1000
0000
0001
,
0000
1000
0000
0100
,
0010
0001
1000
0001
,
0000
0100
0000
0010
,
0100
0010
0100
0001
,
1000
0000
0100
0010
0100
0000
0110
0000
,
0000
0010
0000
0100
,
0100
0010
0001
1000
,
0000
0010
0000
0100
,
0100
0010
1000
0001
,
0000
0010
0000
0001
,
0001
0100
0010
1000
,
0000
0001
0000
1000
,
1000
0001
0001
1000
,
0000
0100
0000
1000
,
0010
1000
0001
0100
,
0000
0001
0000
0010
,
0001
0010
0100
1000
,
0000
0010
0000
1000
,
0001
0100
0010
1000
,
0001
0000
1000
1000
0001
0010
0110
0000
;

//---------------dance-single - ----------------
#NOTEDATA:;
#CHARTNAME:;
#STEPSTYPE:dance-single;
#DESCRIPTION:;
#CHARTSTYLE:;
#DIFFICULTY:Easy;
#METER:10;
#RADARVALUES:0.357749,0.485197,0.083475,0.046375,0.000000,270.000000,261.000000,9.000000,5.000000,0.000000,0.000000,0.000000,0.000000,0.000000,0.357749,0.485197,0.083475,0.046375,0.000000,270.000000,261.000000,9.000000,5.000000,0.000000,0.000000,0.000000,0.000000,0.000000;
#CREDIT:Daniel Van Eden;
#NOTES:
0000
0000
0000
0000
,
0000
0000
0000
0000
,
0000
0000
0000
0000
,
0000
0000
0000
0000
,
0000
0000
0000
0000
,
0000
0000
0000
0000
,
0000
0000
0000
0000
,
0000
0000
0000
0000
,
1000
0100
0100
0010
,
0001
0000
0000
0001
0100
0000
0010
0000
,
1000
0000
0000
0001
0000
0000
1000
0000
,
0100
0010
0100
1000
,
0010
0010
1000
0001
,
0100
0100
0001
0010
,
1001
0000
0000
0020
,
0000
0001
0000
0001
,
0000
0031
0100
0020
,
0000
1000
0000
1030
,
0001
1000
0200
0310
,
0001
0000
0010
0000
0100
0100
1000
0000
,
0010
0000
1000
0000
0100
0100
0010
0000
,
0001
0000
1000
0000
0010
0100
0000
0100
,
0010
0000
1000
0001
0000
0000
0010
0000
,
1001
1000
0010
0100
,
0010
0000
1000
0000
0100
0000
0010
0001
,
0010
0001
1000
0010
,
0100
0010
1000
0001
,
1001
1000
0100
0010
,
0001
0000
0100
0001
0100
0000
0010
1000
,
0001
1000
0100
0010
0100
1000
0010
0000
,
1010
1000
0001
0100
,
0010
0100
0001
0010
,
0100
1000
0001
0010
,
0001
0000
1000
0000
0010
0000
1000
0001
,
1000
0100
0010
0001
,
0100
0010
1000
0010
,
1000
0000
0100
0010
0000
0001
0000
0001
,
0000
0010
0100
0000
1000
0000
0010
0000
,
1000
0001
0100
0010
,
0100
0000
0001
1000
0001
0000
0010
0000
,
0100
1000
0001
1000
,
0100
0010
0001
1000
,
0010
1000
0001
0100
,
0010
0000
1000
0001
1000
0000
0100
0000
,
0100
0010
0010
0001
,
0001
0000
0100
0010
1000
0000
0001
0000
,
0100
0001
0010
0100
,
0010
0000
0001
0100
0001
0000
0010
0000
,
0100
1000
0010
1000
,
0100
0000
0010
0100
0010
0000
0001
0000
,
1000
0010
0100
0001
,
1000
0000
0010
1000
0010
1000
0001
0000
,
0011
0010
0100
1000
1001
0000
0010
0000
,
0100
0010
0001
0100
,
0010
0000
1000
0010
1000
0000
0001
0000
,
0100
0010
1000
0100
,
0010
0010
0010
0000
0001
0000
1000
0000
,
0100
1000
0010
0100
,
0001
0000
1000
0001
1000
0000
0001
0000
,
0010
0100
1000
0010
,
0010
0000
1000
0001
0100
0000
0001
0000
,
0010
0100
0010
0001
,
1000
0000
0010
1000
0010
0000
1000
0000
,
0001
0100
0010
1000
,
0100
0010
0100
0000
0010
0000
0001
0000
,
1000
0010
0100
0001
,
0010
0000
0001
1000
0001
0000
1001
0000
,
0010
0001
1000
0100
1100
0000
2002
0000
,
0000
0000
0000
0000
,
0000
0000
0000
3003
;

//---------------dance-single - ----------------
#NOTEDATA:;
#CHARTNAME:;
#STEPSTYPE:dance-single;
#DESCRIPTION:;
#CHARTSTYLE:;
#DIFFICULTY:Medium;
#METER:13;
#RADARVALUES:0.588298,0.808662,0.204049,0.037100,0.097387,444.000000,422.000000,22.000000,4.000000,0.000000,0.000000,0.000000,0.000000,0.000000,0.588298,0.808662,0.204049,0.037100,0.097387,444.000000,422.000000,22.000000,4.000000,0.000000,0.000000,0.000000,0.000000,0.000000;
#CREDIT:Daniel Van Eden;
#NOTES:
0000
0000
0000
0000
,
0000
0000
0000
0000
,
0000
0000
0000
0000
,
0000
0000
0000
0000
,
0000
0000
0000
0000
,
0000
0000
0000
0000
,
0000
0000
0000
0000
,
0000
0000
0000
0000
,
1010
0010
1000
0100
,
0011
0000
0000
0010
0001
0000
1000
0000
,
1100
0000
0000
0001
0000
0000
0100
0000
,
0101
0011
0110
1100
,
1000
0100
0010
0100
1000
0010
0100
0010
,
0100
0001
0010
0001
1000
0010
0100
0001
,
2000
3000
0000
0000
0000
0000
0000
0000
0000
0000
0000
0000
0010
0000
0001
0000
,
0000
0001
0100
0001
0000
0001
1000
0001
,
0000
0001
0100
0010
1000
0000
0100
1000
,
0000
1000
0010
1000
0000
1000
0001
1000
,
0000
1000
0100
0010
0002
0000
0103
0000
,
1010
0000
1000
0000
0001
1000
0001
0000
,
0011
0000
1000
0000
0001
0100
0001
0010
,
0100
0010
0001
1000
0100
1000
0010
0000
,
1000
0000
0110
0000
1001
0000
1000
0001
,
1000
0010
1000
0100
0010
0100
0010
0001
,
0100
0010
0100
0010
1000
0001
0010
0001
,
1000
0100
1000
0010
0100
0001
0010
0001
,
1000
0100
1000
0010
0100
0010
1000
0001
,
0001
0010
0001
0100
0010
0100
0010
1000
,
0100
0000
0010
0000
0100
0000
0010
0000
0001
0000
1000
0000
0010
0000
1000
0001
,
0000
0010
0000
0100
0000
0100
0010
0001
1000
0100
0000
0000
1000
0000
0010
0000
,
1000
0001
0100
0001
0010
0100
1000
0100
,
1000
0010
0100
0001
0010
0001
0010
0001
,
0100
0010
1000
0001
0010
0001
1000
0100
,
1000
0010
0100
0001
0010
0100
1000
0001
,
0001
1000
0100
1000
0010
0100
0001
0100
,
0001
0010
0100
1000
0010
1000
0010
0000
,
1000
0000
0010
0100
0000
0101
0000
1001
,
0000
1000
0100
0000
0010
0000
0001
0010
,
0100
0000
1100
0000
1000
0010
0100
0000
,
0010
1000
0001
0010
0100
0000
1000
0010
,
0100
0000
0101
0000
0001
0010
0100
0000
,
1000
0001
1000
0100
0010
0000
0001
0010
,
0001
0000
0101
0000
0100
0010
0100
0000
,
0010
0100
0010
1000
0001
0000
1000
0010
,
1000
0010
0100
0001
0100
0001
0010
0100
,
0100
0000
0010
0000
0001
0000
1000
0001
1000
0000
0100
0000
0100
0000
1000
0000
,
0010
0100
0010
0000
0100
0001
1000
0000
,
0001
0010
0001
1000
0100
0000
1000
0010
,
1000
0000
0011
0000
0010
0001
0100
0000
,
1010
0000
1000
0001
0100
0000
0001
0010
,
0100
0000
1001
0000
0010
1000
0001
0000
,
0100
0000
0001
0000
0100
0000
0010
0000
1000
0000
0001
0000
0010
0000
0100
0100
,
0010
0001
0000
1001
0000
1000
0001
0000
0010
0100
0100
0000
0010
0000
1000
0000
,
0001
1000
0010
1000
0001
1000
0001
0010
,
1000
0010
0001
0100
0010
1000
0001
0010
,
0001
0100
1000
0100
0001
1000
0010
1000
,
0001
0001
1000
0010
0100
0001
1000
0001
,
0010
0001
1000
0001
0010
0001
1000
0100
,
0001
0100
1000
0010
0100
0001
0010
0001
,
0010
0001
1000
0100
1000
0100
1000
0010
,
0010
0000
0100
0000
0001
0000
1000
0001
1000
0000
0100
0000
0010
0000
0001
0000
,
0100
0010
1000
0001
0010
0100
0010
0001
,
0100
0010
1000
0010
0100
0001
1000
0100
,
0010
0001
1000
0001
0100
0010
0100
0001
,
1000
1000
0001
0010
0100
1000
0010
1000
,
0100
0010
0001
0100
0010
0100
0001
1000
,
0010
0000
0100
0000
0010
0000
1000
0000
0100
0000
0010
0000
0001
0100
0001
0100
,
0010
1000
0000
1010
0000
1000
0001
0100
0001
0010
0100
1000
2002
0000
0000
0000
,
0000
0000
0000
0000
,
0000
0000
0000
3003
;
