#VERSION:0.83;
#TITLE:Shunrai;
#SUBTITLE:;
#ARTIST:Kenshi Yonezu;
#TITLETRANSLIT:;
#SUBTITLETRANSLIT:;
#ARTISTTRANSLIT:;
#GENRE:;
#ORIGIN:;
#CREDIT:;
#BANNER:banner.png;
#BACKGROUND:background.png;
#PREVIEWVID:;
#JACKET:jacket.png;
#CDIMAGE:;
#DISCIMAGE:;
#LYRICSPATH:;
#CDTITLE:;
#MUSIC:Shunrai.ogg;
#OFFSET:1.662802;
#SAMPLESTART:66.108345;
#SAMPLELENGTH:15.483871;
#SELECTABLE:YES;
#BPMS:0.000=124.000;
#STOPS:138.750=0.484;
#DELAYS:;
#WARPS:;
#TIMESIGNATURES:0.000=4=4;
#TICKCOUNTS:0.000=4;
#COMBOS:0.000=1;
#SPEEDS:0.000=1.000=0.000=0;
#SCROLLS:0.000=1.000;
#FAKES:;
#LABELS:0.000=Song Start;
#BGCHANGES:3.250=shunrai.avi=1.000=0=0=0=StretchNoLoop====,
99999=-nosongbg-=1.000=0=0=0 // don't automatically add -songbackground-
;
#KEYSOUNDS:;
#ATTACKS:
;

//---------------dance-single - ----------------
#NOTEDATA:;
#CHARTNAME:;
#STEPSTYPE:dance-single;
#DESCRIPTION:;
#CHARTSTYLE:;
#DIFFICULTY:Hard;
#METER:14;
#RADARVALUES:0.703894,0.761780,0.259329,0.086443,0.777988,570.000000,540.000000,30.000000,10.000000,0.000000,0.000000,0.000000,0.000000,0.000000,0.703894,0.761780,0.259329,0.086443,0.777988,570.000000,540.000000,30.000000,10.000000,0.000000,0.000000,0.000000,0.000000,0.000000;
#CREDIT:Daniel Van Eden;
#NOTES:
0000
0000
0000
0000
,
0000
0000
0000
0000
,
0000
0000
0000
0000
,
0001
0010
0000
0000
0101
0000
0000
0000
0010
1000
0000
0000
1100
0000
0000
0000
,
1000
0001
0000
0000
0001
0100
0000
0000
0100
0010
0000
0000
1010
0000
0000
0000
,
1000
0001
0000
0000
0011
0000
0000
0000
0001
0100
0000
0000
1010
0000
0000
0000
,
0010
1000
0000
0000
1000
0100
0000
0000
0010
0001
0100
0000
0010
0100
0000
0100
,
0010
1000
0000
0000
1001
0000
0000
0000
0100
0001
0000
0000
1001
0000
0000
0000
,
1000
0001
0000
0000
0001
0100
0000
0000
0100
0010
0000
0000
1010
0000
0000
0000
,
1000
0100
0000
0000
0110
0000
0000
0000
0010
0001
0000
0000
0101
0000
0000
0000
,
0100
0010
0000
0000
0010
0100
0000
0000
0100
0001
1000
0000
0100
1000
0100
0010
,
0001
0010
0100
0000
1000
0010
1000
0001
0100
0001
0010
0000
0100
0010
0001
0000
,
0000
0001
0100
0010
1000
0001
1000
0100
1000
0010
0100
0001
1000
0000
0001
0000
,
0010
0000
0001
0100
0000
0100
0001
0010
0100
0000
1000
0010
0000
0010
1000
0001
,
0100
0010
0100
0001
0000
0001
1000
0000
0100
0000
0010
0000
0100
0010
0001
0010
,
0001
1000
0100
0000
1000
0010
0100
0010
1000
0100
0010
0000
0001
0010
0100
0000
,
0000
0010
0001
0100
0001
1000
0010
0100
0001
1000
0001
0010
0100
0000
0010
0000
,
0001
1000
0100
1000
0001
0010
0100
1000
0001
0000
0000
0000
0001
0000
1000
0010
,
0000
0010
0100
0001
0100
0010
1000
0000
0100
0000
1000
0000
0001
1000
0001
0100
,
0010
1000
0010
0000
1000
0001
0010
0100
0010
0001
0100
0010
1000
0010
0100
0000
,
0000
0010
1000
0001
1000
0100
0010
0001
0100
0010
0100
0001
1000
0000
0001
0000
,
0010
0000
0100
0010
0000
0010
0001
0010
0100
0000
1000
0100
0000
0100
1000
0010
,
0100
0000
0001
1000
0000
1000
0001
0000
0010
0000
0100
0000
1000
0001
0100
0010
,
0100
0001
0100
0000
0001
1000
0010
0100
0001
0010
0100
0010
0001
1000
0100
0000
,
0000
1000
0100
0010
0100
1000
0001
0100
0010
1000
0100
0010
0001
0000
1000
0000
,
0010
0000
0010
1000
0000
1000
0001
0000
0011
0000
0000
0000
1000
0000
0010
0100
,
0000
0001
0100
0010
1000
0001
0010
0000
0100
0000
0010
0000
0100
0010
0000
0010
,
0001
1000
0100
0000
1000
0001
0000
0000
0001
0010
0000
0001
1000
0100
0010
0000
,
0100
0010
0000
0000
0010
0001
0000
0000
0001
0000
1000
0001
1000
0010
0100
0001
,
0000
1000
0001
0100
0010
0000
1000
0000
0010
0000
1000
0001
0010
0001
0100
0001
,
0000
0100
0010
1000
0100
0010
0001
0010
0100
0000
1000
0000
0100
0010
0000
0100
,
0010
0001
1000
0000
0100
1000
0000
0000
1000
0010
0000
0010
1000
0001
0100
0000
,
0001
0100
0000
0000
0100
0010
0000
0000
1001
0000
0001
1000
0010
0100
0001
0000
,
1100
0000
0001
0000
1000
0010
0000
0000
0101
0000
0000
0010
0001
0100
0010
0000
,
1000
0000
0000
0000
0001
0000
0000
0002
2000
0000
0000
3003
0010
0000
1000
0000
,
1010
0000
0010
0000
0100
0000
0001
0000
0100
0000
0010
1000
0000
0000
1000
0000
,
1100
0000
0100
0000
0010
0000
0001
0000
0100
0000
0001
0010
0000
0000
0010
0000
,
0001
0100
0010
1000
0011
0000
0001
0000
,
0101
0000
0100
0000
0010
0000
1000
0000
0001
1000
0000
0001
1000
0000
0100
0000
,
0110
0000
0010
0000
0001
0000
0100
0000
0001
0000
0100
0010
0000
0000
1000
0000
,
1001
0000
0001
0000
0010
0000
0100
0000
1000
0000
0100
0010
0000
0000
0100
0000
,
0010
0002
0000
1003
0010
1000
1000
0000
,
1100
0000
0000
0000
0101
0000
0010
0000
1000
0010
0000
1000
0100
0000
0010
0000
,
0011
0000
0001
0000
1000
0000
0100
0000
1000
0000
0010
1000
0000
0000
0100
0000
,
1100
0000
1000
0000
0010
0000
0100
0000
0001
0000
1000
0001
0000
0000
0010
0000
,
0100
1000
0010
1000
0001
0010
0001
0000
,
0010
0000
1000
0000
1010
0000
0010
0000
0100
0001
0000
0001
1000
0000
0010
0000
,
1000
0000
0001
0000
1000
0000
0100
0000
0010
0000
0001
0100
0000
0000
0001
0000
,
0010
0000
0001
0000
0100
0000
0010
0000
0100
0000
0001
1000
0000
0000
1000
0000
,
0010
0200
0000
0301
0010
0001
1000
0000
,
0110
0000
0000
0000
0101
0000
0010
0000
0100
1000
0000
1000
0100
0010
0100
0000
,
0010
0000
0001
0000
1000
0010
1000
0000
0001
0000
0100
0000
0010
0100
0010
0000
,
1000
0100
1000
0000
0100
0010
0100
0000
0022
0000
0033
0000
0001
1000
0001
0000
,
0100
0000
0010
0000
1000
0100
1000
0000
0010
0000
1000
0000
0001
0100
0001
0000
,
0010
0100
0010
0000
0001
0000
1000
0000
0010
0100
0000
0100
0010
1000
0010
0000
,
1000
0000
0001
0000
0100
0001
0100
0000
0010
0000
1000
0000
0100
1000
0100
0000
,
0010
0100
0010
0000
0001
0010
0100
0000
2200
0000
3300
0000
1000
0001
1000
0000
,
0010
0000
0100
0000
0001
0010
0001
0000
0100
0000
0010
0000
1000
0001
1000
0000
,
0001
0100
0001
0000
1000
0010
1000
0000
0220
0000
0000
0000
0330
0000
0000
0000
;

//---------------dance-single - ----------------
#NOTEDATA:;
#CHARTNAME:;
#STEPSTYPE:dance-single;
#DESCRIPTION:;
#CHARTSTYLE:;
#DIFFICULTY:Medium;
#METER:11;
#RADARVALUES:0.493961,0.482461,0.086443,0.103732,0.207464,400.000000,390.000000,10.000000,12.000000,0.000000,0.000000,0.000000,0.000000,0.000000,0.493961,0.482461,0.086443,0.103732,0.207464,400.000000,390.000000,10.000000,12.000000,0.000000,0.000000,0.000000,0.000000,0.000000;
#CREDIT:Daniel Van Eden;
#NOTES:
0000
0000
0000
0000
,
0000
0000
0000
0000
,
0000
0000
0000
0000
,
0001
0010
0001
0000
1000
0010
1000
0000
,
0100
1000
0001
1000
0010
0100
0010
0000
,
1000
0100
1000
0000
0001
0010
0001
0000
,
0100
0010
0100
0001
0100
0010
1000
0000
,
0001
1000
0001
0000
1000
0100
1000
0000
,
0100
0010
0100
0010
0001
1000
0010
0000
,
1000
0001
1000
0000
0010
0100
0010
0000
,
1000
0100
0010
0100
0001
0100
1000
0000
,
0010
1000
0001
1000
0100
0010
0001
0001
,
0000
0010
0001
0100
0010
1000
0001
0001
,
1000
0000
0000
1000
0000
0000
1000
0000
0010
0000
0000
0010
0000
0000
0010
0000
,
0100
0000
0010
0100
0000
0010
0100
0000
0001
0000
0000
0000
1001
0000
0000
0000
,
1000
0010
0100
0010
1000
0001
0010
0100
,
0000
0100
0010
0001
0100
0010
1000
1000
,
0010
0000
0000
1000
0000
0000
0001
0000
1000
0000
0000
0000
0100
0000
0000
0010
,
0000
0001
0100
0001
1000
0000
0110
0000
,
1000
0100
0001
0100
1000
0001
1000
0010
,
0000
1000
0001
0100
1000
0100
0001
0001
,
0010
0000
0000
0010
0000
0000
0010
0000
0100
0000
0000
0100
0000
0000
0100
0000
,
1000
0000
0000
1000
0000
0000
1000
0000
0001
0000
0010
0000
0001
0100
0000
0001
,
0100
0010
0100
0001
0100
0010
1000
0001
,
0000
1000
0100
0010
0001
0010
0100
1000
,
0001
0000
0000
1000
0000
0000
0010
0000
0100
0000
0000
0000
0001
0000
0000
0010
,
0000
0000
0100
0000
0010
0000
0001
0000
1000
0000
0001
0000
1000
0010
0000
1000
,
0100
0010
0000
0000
0010
0001
0000
0000
0001
1000
0000
0000
1000
0100
0000
0000
,
0100
1000
0000
0000
1000
0010
0000
0000
0110
0000
0000
0000
1000
0000
0001
0000
,
0010
0001
0100
0001
0010
1000
0010
0001
,
0100
0010
1000
0100
0010
0010
0010
0000
,
0001
1000
0000
0000
1000
0100
0000
0000
0100
0010
0000
0000
0010
0001
0000
0000
,
0001
0100
0000
0000
0100
0001
0000
0000
1001
0000
0000
0000
0001
0020
0000
0000
,
0130
0000
0000
0000
0100
2000
0000
0000
3010
0000
0000
0000
0010
0200
0000
0000
,
0301
0000
0000
0000
1000
0000
0000
0000
0020
0000
0000
0030
0001
0000
0100
0000
,
0001
0000
0100
0000
1000
0000
0100
0000
0001
0000
0010
0001
0000
0000
0010
0000
,
0100
0000
1000
0000
0100
0000
1000
0000
0010
0000
0100
0001
0000
0000
1000
0000
,
0001
1000
0010
0100
0002
0000
0023
0000
,
0130
0000
1000
0000
0001
0000
1000
0000
0010
1000
0000
0010
0100
0000
0010
0000
,
0100
0000
0001
0000
0100
0000
1000
0000
0100
0000
0010
1000
0000
0000
1000
0000
,
0100
0000
0010
0000
0001
0000
0010
0000
1000
0000
0010
0001
0000
0000
0001
0000
,
0100
0020
0000
1030
0001
0100
0010
0000
,
0110
0000
0000
0000
1001
0000
0000
0000
1000
0010
0000
1000
0010
0000
0100
0000
,
0100
0000
0001
0000
0010
0000
0100
0000
1000
0000
0001
1000
0000
0000
0010
0000
,
0010
0000
1000
0000
0100
0000
0010
0000
0001
0000
0100
0001
0000
0000
0100
0000
,
0010
0100
0001
1000
0010
0100
0002
0000
,
0013
0000
0100
0000
0020
0000
0000
0000
0130
1000
0000
0100
1000
0000
0010
0000
,
1000
0000
0001
0000
1000
0000
0100
0000
0010
0000
0001
0100
0000
0000
0010
0000
,
0100
0000
0001
0000
0100
0000
0010
0000
1000
0000
0100
1000
0000
0000
0010
0000
,
1000
0002
0000
0013
0100
0000
1100
0000
,
0101
0000
0000
0000
1001
0000
0000
0000
0001
1000
0000
0001
1000
0000
0010
0000
,
1000
0000
0100
1000
0100
0000
0010
0001
,
0100
0001
0010
0100
1000
0000
0010
1000
,
0010
0000
0100
0001
0100
0000
0010
0100
,
0010
0000
0001
0000
0010
0000
1000
0000
0100
0010
0000
0100
0010
0000
0001
0000
,
1000
0000
0100
1000
0001
0000
0100
0010
,
0100
0001
1000
0010
1000
0000
0100
1000
,
0100
0000
0010
0001
1000
0000
0100
0010
,
0001
0100
0010
0000
2002
0000
3003
0000
;

//---------------dance-single - ----------------
#NOTEDATA:;
#CHARTNAME:;
#STEPSTYPE:dance-single;
#DESCRIPTION:;
#CHARTSTYLE:;
#DIFFICULTY:Easy;
#METER:7;
#RADARVALUES:0.317370,0.355497,0.155598,0.129665,0.000000,257.000000,239.000000,18.000000,15.000000,0.000000,0.000000,0.000000,0.000000,0.000000,0.317370,0.355497,0.155598,0.129665,0.000000,257.000000,239.000000,18.000000,15.000000,0.000000,0.000000,0.000000,0.000000,0.000000;
#CREDIT:Daniel Van Eden;
#NOTES:
0000
0000
0000
0000
,
0000
0000
0000
0000
,
0000
0000
0000
0000
,
0010
1010
1000
1001
,
0100
0001
0100
0110
,
1000
1100
0010
0011
,
0001
0000
1001
0000
0001
1000
0001
0000
,
1000
1010
0001
0101
,
0010
0100
0010
1001
,
1000
1100
0010
0011
,
0001
0000
0100
0000
0010
0100
0010
0000
,
1000
0100
1000
0010
,
1000
0001
0100
0010
,
0100
0100
0010
0010
,
1000
0000
1000
0000
0001
0010
0001
0000
,
1000
0100
0010
0001
,
1000
0100
0001
0100
,
1000
0010
0100
0001
,
1000
0000
0100
0000
0010
0100
0010
0000
,
0001
1000
0010
1000
,
0100
1000
0010
0100
,
0001
0001
1000
1000
,
0010
0000
0010
0000
0100
0001
0100
0000
,
0010
1000
0001
0001
,
0010
0100
1000
1000
,
0100
0010
0001
1000
,
0010
0000
0100
0000
0001
1000
0001
0000
,
0020
0032
0203
0320
,
2030
3002
1003
0010
,
0100
0001
1000
0010
,
1000
0000
0100
0000
0010
0010
0010
0000
,
0002
2003
3200
2300
,
3020
0230
0301
1000
,
0010
0100
0001
1000
,
0010
0000
0000
0000
0100
0000
0000
0000
2002
0000
0000
3003
0000
0000
0100
0000
,
0010
0000
0001
0000
0100
0000
0010
1000
,
0010
0000
1000
0000
0100
0000
0010
0001
,
0010
0001
1000
0010
,
1000
0001
1000
0000
0001
0000
0100
0010
,
0100
0000
0010
0000
1000
0000
0001
0100
,
0001
1000
0100
1000
,
0010
1000
0100
1001
,
0110
0000
1001
0000
0000
0000
0010
0100
,
0010
0000
0100
0000
0001
0000
1000
0100
,
1000
0100
1000
0010
,
0100
0001
1000
0100
,
0010
0001
0010
0000
0100
0000
1000
0001
,
1000
0000
0010
0000
0100
0000
0001
1000
,
0001
0010
0001
1000
,
0100
1000
0010
1010
,
0101
1001
0000
0010
,
1000
0001
1000
0100
,
0010
0001
0100
0010
,
1000
0010
1000
0100
,
0010
0000
0001
0100
0001
0000
1000
0000
,
0010
0100
0001
1000
,
0100
0010
0001
1000
,
0010
1000
0100
0010
,
0100
1000
0002
0003
;

//---------------dance-single - ----------------
#NOTEDATA:;
#CHARTNAME:;
#STEPSTYPE:dance-single;
#DESCRIPTION:;
#CHARTSTYLE:;
#DIFFICULTY:Beginner;
#METER:4;
#RADARVALUES:0.202524,0.227562,0.034577,0.000000,0.000000,164.000000,160.000000,4.000000,0.000000,0.000000,0.000000,0.000000,0.000000,0.000000,0.202524,0.227562,0.034577,0.000000,0.000000,164.000000,160.000000,4.000000,0.000000,0.000000,0.000000,0.000000,0.000000,0.000000;
#CREDIT:Daniel Van Eden;
#NOTES:
// measure 0
0000
0000
0000
0000
,  // measure 1
0000
0000
0000
0000
,  // measure 2
0000
0000
0000
0000
,  // measure 3
0010
0000
1000
0000
,  // measure 4
1000
1000
0100
0010
,  // measure 5
0001
0000
0010
0000
,  // measure 6
0001
0100
0010
0100
,  // measure 7
0010
0000
0100
0000
,  // measure 8
0010
1000
0001
1000
,  // measure 9
0100
0000
0010
0000
,  // measure 10
0010
0001
0100
0010
,  // measure 11
1000
0000
0001
0000
,  // measure 12
0100
0100
0010
0100
,  // measure 13
0001
0000
1000
0000
,  // measure 14
0010
1000
0010
0000
,  // measure 15
1000
0000
0100
0000
,  // measure 16
0010
0001
0010
0010
,  // measure 17
0001
0000
1000
0000
,  // measure 18
0001
1000
1001
0000
,  // measure 19
0100
0000
0010
0000
,  // measure 20
0100
0001
0100
0100
,  // measure 21
0010
0000
1000
0000
,  // measure 22
0001
1000
0001
0000
,  // measure 23
0010
0000
0100
0000
,  // measure 24
0010
0001
1000
1000
,  // measure 25
0100
0000
1000
0000
,  // measure 26
0010
0100
0110
0000
,  // measure 27
1000
1000
0001
0001
,  // measure 28
1000
1000
0001
0000
,  // measure 29
0010
0000
0100
0000
,  // measure 30
0010
0000
0001
0000
,  // measure 31
0100
0100
0010
0010
,  // measure 32
0100
0100
0010
0000
,  // measure 33
1000
0000
0001
0000
,  // measure 34
0100
0000
0100
0000
,  // measure 35
1000
0010
1000
0000
,  // measure 36
0001
0100
0001
0000
,  // measure 37
0010
0100
0010
0001
,  // measure 38
0001
1000
1000
0000
,  // measure 39
0100
1000
0100
0000
,  // measure 40
0010
0001
0010
0000
,  // measure 41
0100
0000
0010
0100
,  // measure 42
0100
1001
0000
0000
,  // measure 43
1000
0010
1000
0000
,  // measure 44
0001
0100
0001
0000
,  // measure 45
1000
0100
0010
0001
,  // measure 46
0001
1000
1000
0000
,  // measure 47
0010
0100
0010
0000
,  // measure 48
1000
0001
1000
0000
,  // measure 49
0100
0010
0001
1000
,  // measure 50
1000
1000
0000
0010
,  // measure 51
0000
1000
0000
0001
,  // measure 52
0100
0001
0000
0010
,  // measure 53
0000
0001
0000
1000
,  // measure 54
0001
1000
0000
0100
,  // measure 55
0000
1000
0000
0010
,  // measure 56
1000
0010
0000
0100
,  // measure 57
0000
0001
0000
1000
,  // measure 58
0001
1000
1001
0000
;
