#VERSION:0.83;
#TITLE:Shake It;
#SUBTITLE:;
#ARTIST:Metro Station;
#TITLETRANSLIT:;
#SUBTITLETRANSLIT:;
#ARTISTTRANSLIT:;
#GENRE:;
#ORIGIN:;
#CREDIT:;
#BANNER:banner.png;
#BACKGROUND:background.png;
#PREVIEWVID:;
#JACKET:jacket.png;
#CDIMAGE:;
#DISCIMAGE:;
#LYRICSPATH:;
#CDTITLE:;
#MUSIC:Shake It.ogg;
#OFFSET:-0.343839;
#SAMPLESTART:44.412094;
#SAMPLELENGTH:12.799999;
#SELECTABLE:YES;
#BPMS:0.000=150.000;
#STOPS:;
#DELAYS:;
#WARPS:;
#TIMESIGNATURES:0.000=4=4;
#TICKCOUNTS:0.000=4;
#COMBOS:0.000=1;
#SPEEDS:0.000=1.000=0.000=0;
#SCROLLS:0.000=1.000;
#FAKES:;
#LABELS:0.000=Song Start;
#BGCHANGES:;
#KEYSOUNDS:;
#ATTACKS:
;

//---------------dance-single - ----------------
#NOTEDATA:;
#CHARTNAME:;
#STEPSTYPE:dance-single;
#DESCRIPTION:;
#CHARTSTYLE:;
#DIFFICULTY:Hard;
#METER:14;
#RADARVALUES:0.626618,0.692578,0.371024,0.049470,0.131920,532.000000,487.000000,45.000000,6.000000,0.000000,0.000000,0.000000,0.000000,0.000000,0.626618,0.692578,0.371024,0.049470,0.131920,532.000000,487.000000,45.000000,6.000000,0.000000,0.000000,0.000000,0.000000,0.000000;
#CREDIT:;
#NOTES:
// measure 0
0000
0000
0000
0000
,  // measure 1
0000
0000
0000
0000
,  // measure 2
0000
0000
0000
0000
,  // measure 3
0000
0000
0000
0000
,  // measure 4
1000
0001
0101
0000
0001
0100
0001
0010
,  // measure 5
0100
0000
1100
0100
0010
0001
0001
1000
,  // measure 6
0100
0010
0100
0010
0001
0100
0010
0001
,  // measure 7
0010
1000
0100
0010
0001
0100
0100
0010
,  // measure 8
1000
0001
1001
0000
0001
1000
0001
0100
,  // measure 9
0010
0000
0110
0100
0010
1000
1000
0100
,  // measure 10
0010
0001
0100
0001
0010
0100
0010
1000
,  // measure 11
0010
0000
0001
0000
0010
0000
0100
0000
1000
0000
0100
0010
0100
0010
0001
0100
,  // measure 12
0001
0100
0001
0100
0010
0100
0010
1000
,  // measure 13
0100
1000
0100
0010
0001
0000
1001
0000
,  // measure 14
0100
1001
0010
1100
,  // measure 15
1000
0000
0110
0000
0001
0010
0010
0000
,  // measure 16
0100
1000
0100
0010
0001
0000
1000
0001
,  // measure 17
0000
0001
0100
0010
1000
0000
1001
0000
,  // measure 18
0010
1100
0001
1010
,  // measure 19
0100
0000
1001
0000
0001
1000
1000
0000
,  // measure 20
0010
1000
0010
0100
0010
0100
0001
0010
,  // measure 21
0000
0010
0100
1000
0001
0000
0101
0000
,  // measure 22
1010
1001
0100
0011
,  // measure 23
1000
0000
0110
0000
1000
0001
0001
0000
,  // measure 24
0100
0010
0100
0001
0100
0010
1000
0200
,  // measure 25
0000
0010
0000
0001
0001
0000
1300
0000
,  // measure 26
0100
1000
0001
0100
0010
1000
0001
0200
,  // measure 27
0000
0000
0010
0000
0300
0000
1000
0000
0001
0000
1000
0100
1000
0100
0010
0001
,  // measure 28
0010
0100
0010
0001
0100
0001
0010
0100
,  // measure 29
1000
0010
1000
0001
0100
0010
0010
0100
,  // measure 30
0001
0010
0100
1000
0100
1000
0001
0010
,  // measure 31
0100
0010
0001
0100
0010
1000
1000
0010
,  // measure 32
0100
0001
0100
0001
0010
0100
0010
0001
,  // measure 33
1000
1000
0001
0100
0010
1000
0100
0010
,  // measure 34
0001
0010
0011
0000
0011
0000
0001
0110
,  // measure 35
0000
0000
1010
0000
0000
0000
1000
0000
0100
0000
0010
0100
1000
0000
0100
0010
,  // measure 36
0001
0000
1000
0000
0010
0000
0100
0000
0010
0000
1000
0010
1000
0000
0100
0000
,  // measure 37
1000
0100
0010
0001
1100
0000
0101
0000
,  // measure 38
0100
0000
0001
0000
1000
0000
0001
0000
1000
0000
0010
0100
0010
0000
0100
0000
,  // measure 39
0001
0010
0100
1000
0011
1000
1010
0000
,  // measure 40
0100
0000
0010
0000
0001
0000
0100
0000
0010
0000
1000
0010
1000
0000
0100
0000
,  // measure 41
0010
0100
1000
0010
0110
0000
0101
0000
,  // measure 42
0001
0000
0010
0000
0100
0000
1000
0000
0100
0000
1000
0010
1000
0000
0001
0000
,  // measure 43
0100
0000
0010
0000
0100
0000
0001
0000
1000
0000
0001
0010
0001
0010
0100
0010
,  // measure 44
0001
0100
0010
0100
0001
0100
0010
0010
,  // measure 45
1000
0100
0010
0001
0010
0100
0110
0000
,  // measure 46
1000
0100
0010
0010
0010
0100
1000
1000
,  // measure 47
1000
0010
0100
0000
0001
0100
0101
0000
,  // measure 48
1000
0010
1000
0100
0010
0001
0010
0200
,  // measure 49
0000
1300
0001
0010
0100
0010
0110
0100
,  // measure 50
1000
0001
0000
0101
0000
0010
1000
0010
,  // measure 51
0100
0000
0001
0000
0100
0001
0100
0010
1000
0100
1000
0100
0010
0001
0010
0100
,  // measure 52
2000
0010
3020
0030
0102
0000
0010
0013
,  // measure 53
0100
0010
0001
0010
0001
0000
1000
0000
0010
0100
0010
0100
0001
0010
0100
1000
,  // measure 54
0100
1000
0100
0010
0001
0100
1000
0100
,  // measure 55
0001
0010
0100
0000
1100
1000
1000
0010
,  // measure 56
0100
0010
0100
0001
0010
0001
0100
0010
,  // measure 57
1000
0001
1000
0000
0011
0001
0001
0100
,  // measure 58
0100
0000
0110
0000
1010
0000
0010
1000
,  // measure 59
0010
0010
0100
0000
0011
0000
0100
1001
,  // measure 60
0000
1000
0110
0000
0110
0000
0100
0101
,  // measure 61
0000
0000
0011
0000
0000
0000
0010
0000
1100
0000
0100
1000
0100
0010
0001
0010
,  // measure 62
0100
1000
0010
1000
0010
1000
0001
0010
,  // measure 63
0001
0010
0100
1000
0010
0000
0101
0000
,  // measure 64
0001
0100
1000
0100
1000
0100
0001
1000
,  // measure 65
0001
1000
0100
0001
1000
0001
0100
0000
,  // measure 66
0010
1000
0100
1000
0100
0010
0001
0100
,  // measure 67
0001
0100
0001
1000
0100
0000
1010
0000
,  // measure 68
1000
0010
0001
0010
0001
0010
1000
0001
,  // measure 69
1000
0000
0001
0000
0010
0000
1000
0000
0001
0000
0100
0000
1000
0001
1000
0001
,  // measure 70
0100
0000
0000
0000
;

//---------------dance-single - ----------------
#NOTEDATA:;
#CHARTNAME:;
#STEPSTYPE:dance-single;
#DESCRIPTION:;
#CHARTSTYLE:;
#DIFFICULTY:Medium;
#METER:10;
#RADARVALUES:0.360423,0.415547,0.173144,0.057715,0.000000,306.000000,285.000000,21.000000,7.000000,0.000000,0.000000,0.000000,0.000000,0.000000,0.360423,0.415547,0.173144,0.057715,0.000000,306.000000,285.000000,21.000000,7.000000,0.000000,0.000000,0.000000,0.000000,0.000000;
#CREDIT:;
#NOTES:
0000
0000
0000
0000
,
0000
0000
0000
0000
,
0000
0000
0000
0000
,
0000
0000
0000
0000
,
0010
1000
0010
0000
0010
0000
0100
0000
,
0001
1000
0001
1001
,
0001
0010
0001
0000
0100
0000
0010
0000
,
0100
0001
1000
1001
,
1000
0100
1000
0000
0100
0000
0010
0000
,
0001
0100
0010
0110
,
0010
0100
0010
0000
0100
0000
0001
0000
,
0100
0000
0010
0000
1000
0001
1000
0001
,
1000
0001
0001
0100
,
0010
0100
0010
0000
0010
0000
2000
0000
,
0000
0001
0010
3010
,
0000
0001
0100
0010
,
0100
0000
0001
1000
0001
0000
0001
0000
,
0010
0100
0010
0002
,
0000
0010
0100
0103
,
0010
0100
0010
0001
,
1000
0000
0010
0100
0010
0000
1000
0000
,
0001
0000
1000
0100
0010
0000
0001
0000
,
0002
1000
0000
1003
,
0000
0010
1000
0001
,
0000
0000
1000
0000
0100
0000
0000
0010
,
0000
0010
0000
0000
0001
0000
0001
0000
,
0100
0000
0010
0000
1000
0000
0000
0001
,
0000
0001
0000
0000
1000
0000
1000
0000
,
0001
0100
0001
0000
0100
0000
0010
0000
,
1000
0010
1000
0000
0001
0000
0000
0000
,
1000
0100
1000
0000
0100
0000
0010
0000
,
0001
0010
0001
0000
0100
0000
0000
0000
,
0010
1010
1010
0000
,
0001
0100
0001
0000
1001
0000
0000
0000
,
1000
0000
0110
0000
0110
0000
0000
0101
,
0000
0101
0000
0000
1100
0000
1100
0000
,
0001
0000
0000
1000
0000
0000
0001
0000
,
0100
0001
0100
0000
1010
0000
0000
0000
,
1000
0000
0000
0100
0000
0000
1000
0000
,
0010
0100
0010
0000
0001
0000
1000
0000
,
0001
0000
0000
1000
0000
0000
0100
0000
,
0010
0100
0010
0000
0001
0000
0000
0000
,
1000
0000
0000
0001
0000
0000
0100
0000
,
0000
0100
0010
0000
0010
0000
1000
0000
,
0001
1000
0010
0100
,
0010
1000
0010
0000
0100
0001
0100
0000
,
0001
0001
1000
1000
,
0010
0010
0100
0010
,
1000
0100
0010
0001
,
0100
0001
0100
0000
0010
1000
0010
0000
,
1000
0001
1000
0100
,
0010
0100
0010
0100
0010
0001
0010
0001
,
0100
0000
0001
0000
0001
0000
0001
1000
,
0000
1000
0010
0000
0010
0100
0010
0000
,
1000
0001
0100
0010
,
1000
0001
1000
0000
1100
0000
0100
0000
,
0010
0001
0100
0001
,
1000
0010
1000
0000
0110
0000
0010
0000
,
1000
0001
1000
0100
,
0010
0001
0010
0000
0101
0000
0100
0000
,
0001
0000
1000
0000
1000
0000
0000
0010
,
0000
0010
0000
0000
0100
0000
0100
0000
,
0001
0000
0001
1000
0000
0000
1000
0000
,
0010
1000
0010
0000
0110
0000
0000
0000
,
0100
0000
0100
2000
0000
0000
3001
0000
,
1000
0010
1000
0000
0110
0000
0000
0000
,
1000
0000
0010
0200
0000
0000
0301
0000
,
0001
1000
0001
0000
1100
0000
0000
0000
,
0010
0000
0100
0020
0000
0000
0031
0000
,
1000
0100
1000
0000
1010
0000
0000
0000
,
0010
0000
1000
0002
0000
0000
0103
0000
,
0100
0010
0100
0000
1001
0000
1000
0000
,
0001
0000
0000
0000
;

//---------------dance-single - ----------------
#NOTEDATA:;
#CHARTNAME:;
#STEPSTYPE:dance-single;
#DESCRIPTION:;
#CHARTSTYLE:;
#DIFFICULTY:Easy;
#METER:6;
#RADARVALUES:0.248527,0.258789,0.074205,0.000000,0.000000,211.000000,202.000000,9.000000,0.000000,0.000000,0.000000,0.000000,0.000000,0.000000,0.248527,0.258789,0.074205,0.000000,0.000000,211.000000,202.000000,9.000000,0.000000,0.000000,0.000000,0.000000,0.000000,0.000000;
#CREDIT:;
#NOTES:
0000
0000
0000
0000
,
0000
0000
0000
0000
,
0000
0000
0000
0000
,
0000
0000
0000
0000
,
0010
0000
1000
0000
0000
0001
0000
0000
,
0100
0000
0010
0010
,
0000
0000
1000
0000
0000
0100
0000
0000
,
1000
0000
0010
0010
,
0000
0000
1000
0000
0000
0001
0000
0000
,
0010
0000
0100
0100
,
0000
0000
1000
0000
0000
0001
0000
0000
,
0100
0000
0010
0010
,
0000
1000
0001
0010
,
0001
0100
0010
0010
,
0000
1000
0000
0001
,
0000
0100
0000
0100
,
0000
0010
0100
0001
,
1000
0100
0010
0001
,
0000
1000
0000
0001
,
0000
0100
0000
1000
,
0000
0001
0001
0100
,
0010
0100
0001
1000
,
1000
0000
0100
0000
,
1000
0010
0000
0010
,
0000
0000
1000
0000
0001
0000
0000
0001
,
0000
0001
1000
0000
,
0100
0000
0010
0000
0100
0000
0000
0100
,
0000
0100
1000
0000
,
0010
1000
0010
0100
,
0001
0001
0001
0000
,
0010
0100
0010
0001
,
1000
1000
1000
0000
,
0010
0100
0100
0010
,
1000
1000
0001
0001
,
0010
0000
0100
0000
0100
0000
0000
0010
,
0000
0010
0000
0000
0001
0000
1001
0000
,
0000
0000
1000
0000
1000
0000
0000
0001
,
0000
0001
0000
0000
0100
0000
0110
0000
,
0000
0000
0010
0000
0010
0000
0000
1000
,
0000
1000
0000
0000
0001
0000
0101
0000
,
0000
0000
0100
0000
0100
0000
0000
0001
,
0000
0001
0000
0000
1000
0000
1001
0000
,
0000
0000
0001
0000
0001
0000
0000
0010
,
0000
0010
0000
0000
0100
0000
0110
0000
,
0000
1000
0001
1000
,
0000
0100
0010
0010
,
0001
1000
1000
0001
,
0100
0010
0100
0000
,
0001
0000
0100
0010
,
0100
0000
0010
1000
,
0001
0000
1000
0000
,
0001
1000
0100
0010
,
0001
0000
1000
0000
,
0001
1000
0010
0100
,
0010
0010
1000
0010
,
0100
0100
0001
0000
,
0001
0001
1000
0001
,
0010
0010
0100
0000
,
0100
0010
0010
0000
,
1000
1000
1000
0000
,
0001
0000
0100
0000
0100
0000
0000
0010
,
0000
0010
0000
0000
0100
0000
0001
0000
,
1000
0000
1000
0000
1000
0000
0000
0001
,
0000
0001
0000
0000
0010
0000
0011
0000
,
0000
0000
0100
0000
0100
0000
0000
1000
,
0000
1000
0000
0000
0010
0000
1010
0000
,
0000
0000
0010
0000
0010
0000
0000
0100
,
0000
0100
0000
0000
0100
0000
0101
0000
,
0000
0000
0001
0000
0001
0000
0000
1000
,
0000
1000
0000
0000
0001
0000
0101
0000
;

//---------------dance-single - ----------------
#NOTEDATA:;
#CHARTNAME:;
#STEPSTYPE:dance-single;
#DESCRIPTION:;
#CHARTSTYLE:;
#DIFFICULTY:Beginner;
#METER:3;
#RADARVALUES:0.161366,0.202002,0.041225,0.000000,0.000000,137.000000,132.000000,5.000000,0.000000,0.000000,0.000000,0.000000,0.000000,0.000000,0.161366,0.202002,0.041225,0.000000,0.000000,137.000000,132.000000,5.000000,0.000000,0.000000,0.000000,0.000000,0.000000,0.000000;
#CREDIT:;
#NOTES:
0000
0000
0000
0000
,
0000
0000
0000
0000
,
0000
0000
0000
0000
,
0000
0000
0000
0000
,
1000
0000
0000
0000
,
0010
0000
0100
0000
,
1000
0000
0000
0000
,
0001
0000
0010
0000
,
0001
0000
0000
0000
,
0100
0000
0010
0000
,
1000
0000
0000
0000
,
1000
0000
0001
0000
,
0001
0000
0000
0000
,
1000
0000
0010
0000
,
1000
0000
0100
0000
,
1000
0000
0010
0000
,
0100
0000
0000
0000
,
0010
0000
0000
0000
,
1000
0000
0001
0000
,
0010
0010
0010
0000
,
0001
0000
1000
0000
,
0010
0000
1000
1000
,
1000
0000
0001
0000
,
1000
0000
0000
0000
,
0100
0000
0100
0000
,
0010
0010
0010
0000
,
1000
0000
0001
0000
,
1000
0000
1000
0000
,
0010
0000
1000
0000
,
0001
0001
0001
0000
,
0100
0000
0001
0000
,
1000
1000
1000
0000
,
0100
0000
0010
0000
,
0010
0010
0010
0000
,
0001
0000
1000
0000
,
0001
0000
1001
0000
,
0100
0000
0100
0000
,
0010
0000
0010
0000
,
1000
0000
0100
0000
,
0010
0000
0001
0000
,
1000
0000
0001
0000
,
0100
0000
0001
0000
,
1000
0000
0010
0000
,
1000
0000
1000
0000
,
1001
0000
0000
0000
,
1000
0000
0000
0000
,
0001
0000
0001
0000
,
0010
0000
0010
0000
,
0100
0000
0000
0000
,
1000
0000
0000
0000
,
0010
0000
1000
0000
,
0001
0000
1000
1000
,
1000
0000
0001
0000
,
0010
0000
0110
0000
,
0100
0000
1000
0000
,
0010
0010
0010
0000
,
0100
0000
0001
0000
,
1000
1000
1000
0000
,
0100
0000
0010
0000
,
0001
0001
0001
0000
,
1000
0000
0010
0000
,
1000
0000
1001
0000
,
0001
0000
0100
0000
,
0010
0000
0010
0000
,
1000
0000
0001
0000
,
0100
0000
0100
0000
,
0010
0000
1000
0000
,
0001
0000
0001
0000
,
0010
0000
0100
0000
,
1000
1000
1000
0000
,
1001
0000
0000
0000
;
