#VERSION:0.83;
#TITLE:Seize the Day;
#SUBTITLE:;
#ARTIST:DJ'TEKINA\/\/SOMETHING feat. yuyoyuppe;
#TITLETRANSLIT:;
#SUBTITLETRANSLIT:;
#ARTISTTRANSLIT:;
#GENRE:;
#ORIGIN:;
#CREDIT:;
#BANNER:Seize The Day.png;
#BACKGROUND:Seize The Day-bg.png;
#PREVIEWVID:;
#JACKET:Seize The Day-jacket.png;
#CDIMAGE:;
#DISCIMAGE:;
#LYRICSPATH:;
#CDTITLE:;
#MUSIC:Seize The Day.ogg;
#OFFSET:0.865413;
#SAMPLESTART:56.106487;
#SAMPLELENGTH:13.714283;
#SELECTABLE:YES;
#BPMS:0.000=140.000;
#STOPS:1.000=0.214;
#DELAYS:;
#WARPS:;
#TIMESIGNATURES:0.000=4=4;
#TICKCOUNTS:0.000=4;
#COMBOS:0.000=1;
#SPEEDS:0.000=1.000=0.000=0;
#SCROLLS:0.000=1.000;
#FAKES:;
#LABELS:0.000=Song Start;
#BGCHANGES:0.000=Seize the day.avi=1.000=0=0=0=StretchNoLoop====,
99999=-nosongbg-=1.000=0=0=0 // don't automatically add -songbackground-
;
#KEYSOUNDS:;
#ATTACKS:
;

//---------------dance-single - ----------------
#NOTEDATA:;
#CHARTNAME:;
#STEPSTYPE:dance-single;
#DESCRIPTION:;
#CHARTSTYLE:;
#DIFFICULTY:Beginner;
#METER:3;
#RADARVALUES:0.132280,0.195480,0.042868,0.000000,0.000000,108.000000,103.000000,5.000000,0.000000,0.000000,0.000000,0.000000,0.000000,0.000000,0.132280,0.195480,0.042868,0.000000,0.000000,108.000000,103.000000,5.000000,0.000000,0.000000,0.000000,0.000000,0.000000,0.000000;
#CREDIT:Daniel Van Eden;
#NOTES:
0000
0000
0000
0000
,
0000
0000
0000
0000
,
0000
0000
0000
0000
,
0000
0000
0000
0000
,
0000
0000
0000
0000
,
0000
0000
0000
0000
,
0000
0000
0000
0000
,
0000
0000
0000
0000
,
0000
0000
0000
0000
,
1000
0000
1000
0000
0001
0000
0000
0100
,
0000
0000
0000
0100
0000
0000
0000
0000
,
0001
0000
0001
0000
0000
0000
0000
1000
,
0000
0000
0000
0010
0000
0000
0000
0000
,
1000
0000
0010
0000
,
1000
0000
0100
0000
,
0010
0000
0001
0000
,
1000
0000
0000
0000
,
1001
0000
0000
0000
1000
0000
0000
1000
,
0000
0000
0000
0000
0001
0000
0000
0001
,
0000
0000
0000
0000
0010
0000
0000
0010
,
0000
0000
0100
0100
,
0100
0000
0000
0000
1000
0000
0000
1000
,
0000
0000
0010
0000
0000
0010
0000
0000
,
0000
0000
0000
0000
0100
0000
0000
0100
,
0000
0000
0001
0001
,
0001
0000
0000
0000
0010
0000
0000
0010
,
0000
0000
0000
0000
0001
0000
0000
0001
,
0000
0000
0000
0000
1000
0000
0000
1000
,
0000
0000
0010
0010
,
0010
0000
1000
0000
,
0001
0000
0010
0000
,
0001
0000
1000
0000
,
0000
0000
0000
0000
,
1001
0000
0001
0001
,
0001
0000
1000
1000
,
1000
0000
0010
0010
,
0010
0000
0110
0000
,
1000
0000
0100
0100
,
0100
0000
0010
0010
,
0010
0000
0001
0001
,
0001
0000
1000
0000
,
0010
0000
0000
0010
0000
0000
0000
0000
,
0100
0000
0000
0100
0000
0000
0000
0000
,
0010
0000
0000
0010
0000
0000
0000
0000
,
1000
0001
1000
0000
,
0001
0000
0000
0001
0000
0000
0000
0000
,
1000
0000
0000
1000
0000
0000
0000
0000
,
0010
0000
0000
0010
0000
0000
0000
0000
,
1000
0001
1000
0000
,
1001
0000
0000
0000
,
0001
0000
0010
0000
,
0001
0000
0000
0000
,
1000
0000
0010
0010
,
0010
0000
0000
0000
,
1000
0000
0010
0000
,
1000
0000
0000
0000
,
0001
0000
1000
0000
,
1001
0000
0000
0000
;

//---------------dance-single - ----------------
#NOTEDATA:;
#CHARTNAME:;
#STEPSTYPE:dance-single;
#DESCRIPTION:;
#CHARTSTYLE:;
#DIFFICULTY:Easy;
#METER:7;
#RADARVALUES:0.248637,0.293220,0.162900,0.068589,0.021434,203.000000,184.000000,19.000000,8.000000,0.000000,0.000000,0.000000,0.000000,0.000000,0.248637,0.293220,0.162900,0.068589,0.021434,203.000000,184.000000,19.000000,8.000000,0.000000,0.000000,0.000000,0.000000,0.000000;
#CREDIT:Daniel Van Eden;
#NOTES:
0000
0000
0000
0000
,
0000
0000
0000
0000
,
0000
0000
0000
0000
,
0000
0000
0000
0000
,
0000
0000
0000
0000
,
0000
0000
0000
0000
,
0000
0000
0000
0000
,
0000
0000
0000
0000
,
0000
0000
0000
0000
,
0001
0000
0001
0000
0010
0000
0000
1001
,
0000
0000
0000
0101
0000
0000
0001
0000
,
1000
0000
1010
0000
0000
0000
0000
1100
,
0000
0100
0000
0110
0000
0000
0010
0000
,
0001
1000
0001
0100
,
0010
1000
0001
1000
,
0100
0010
0001
0001
,
1001
0000
0000
1001
,
1000
0000
0000
0000
0000
0000
0000
0000
0001
0000
0000
0001
0000
0000
0100
0000
,
0000
0000
0000
0000
0000
0000
0000
0000
0001
0000
0000
0001
0000
0000
1000
0000
,
0000
0000
0000
0000
0010
1000
0000
0001
,
0000
1000
0100
0000
0010
0000
0001
0000
,
1001
0000
0000
0000
0000
0000
0000
0000
1000
0000
0000
1000
0000
0000
0010
0000
,
0000
0000
0000
0000
0000
0000
0000
0000
1000
0000
0000
1000
0000
0000
0002
0000
,
0000
0000
0000
0000
0013
0000
0000
0000
0010
0000
0000
0100
0000
0000
0200
0000
,
0000
1300
1001
0110
,
1001
0000
1000
0000
0010
0000
1000
1000
,
0000
0000
0001
0000
0010
0000
0001
0001
,
0000
0000
1000
0000
0001
0010
0000
0100
,
0000
1000
0100
0000
0010
0000
0001
0000
,
1001
0000
0010
0000
1000
0000
0010
0010
,
0000
0000
0100
0000
0001
0000
0100
0100
,
0000
0000
0010
0000
0010
0000
0100
0100
,
0000
0010
0010
1001
,
1000
0001
1000
0010
,
1000
0100
0010
0010
,
0001
0100
0001
1000
,
1000
0010
1000
1001
,
0010
0001
0100
0010
,
1000
0100
0010
0010
,
0100
1000
0001
0010
,
0001
0100
0010
1001
,
0010
0000
0010
0010
0000
0010
0010
0000
,
0100
0100
0000
0100
0100
0000
0100
0000
,
0001
0000
0001
0001
0000
0001
0001
0000
,
1000
0010
0100
1001
,
0010
0000
1000
0010
0000
1000
0010
0000
,
0100
0000
0001
0100
0000
0001
0100
0000
,
1000
0000
0001
1000
0000
0001
1000
0000
,
0010
1000
0001
0101
,
2000
0000
0000
0010
0000
0000
3010
0000
,
0001
0000
0000
0002
0000
0000
0013
0000
,
0020
0000
0000
0100
0000
0000
0130
0000
,
1000
0100
0010
1001
,
0200
0000
0000
0001
0000
0000
0310
0000
,
0010
0000
0000
2000
0000
0000
3010
0000
,
0002
0000
0000
1000
0000
0000
0013
0000
,
0010
0100
1000
0010
,
0110
0000
0000
0000
;

//---------------dance-single - ----------------
#NOTEDATA:;
#CHARTNAME:;
#STEPSTYPE:dance-single;
#DESCRIPTION:;
#CHARTSTYLE:;
#DIFFICULTY:Medium;
#METER:9;
#RADARVALUES:0.328250,0.415395,0.240063,0.102884,0.111458,268.000000,240.000000,28.000000,12.000000,0.000000,0.000000,0.000000,0.000000,0.000000,0.328250,0.415395,0.240063,0.102884,0.111458,268.000000,240.000000,28.000000,12.000000,0.000000,0.000000,0.000000,0.000000,0.000000;
#CREDIT:Daniel Van Eden;
#NOTES:
0000
0000
0000
0000
,
0000
0000
0000
0000
,
0000
0000
0000
0000
,
0000
0000
0000
0000
,
0000
0000
0000
0000
,
0000
0000
0000
0000
,
0000
0000
0000
0000
,
0000
0000
0000
0000
,
0000
0000
0000
0000
,
0012
0000
0000
0000
1003
0000
0000
0000
0001
0000
0000
0100
0000
0000
0101
0000
,
0000
0000
0001
1000
0000
0000
1010
0000
,
2100
0000
0000
0000
3001
0000
0000
0000
0010
0000
0000
0100
0000
0000
0110
0000
,
0000
1000
0000
0020
0000
1030
0001
0000
,
1000
0000
0010
0000
1000
0010
1000
0000
,
0001
0000
1000
0001
0000
0000
0001
1000
,
0000
0000
0010
1000
0000
0000
0001
1000
,
0001
0000
0000
0110
,
1100
0000
0000
0000
0000
0000
0000
0000
1000
0000
0000
0100
0000
0000
0011
0000
,
0000
0000
0000
0000
1000
0000
0000
0000
0001
0000
0000
0100
0000
0000
1010
0000
,
0000
0000
0000
1000
0100
0010
0000
0001
,
0000
0100
0010
0000
0100
0000
1001
0000
,
1000
0000
0000
0000
0020
0000
0000
0000
0130
0000
0000
0001
0000
0000
1001
0000
,
0000
0000
0000
0000
0020
0000
2030
0000
3100
0000
0000
0010
0000
0000
0011
0000
,
0000
0001
0100
0000
0100
0000
0010
1000
,
0000
0010
0100
0000
0101
0000
1001
0000
,
1010
0000
0000
0000
1000
0000
0000
0000
0001
0000
0000
1000
0000
0000
0001
0000
,
0010
0000
0000
0000
0010
0000
0000
0000
0001
0000
0000
0100
0000
0000
0001
0000
,
1000
0000
1000
0000
0010
0100
0000
0001
,
0000
1000
0001
0000
0100
0000
1010
0000
,
1001
0000
0100
0000
0001
0000
0010
0100
,
0010
0000
0001
0000
1000
0000
0100
1000
,
0010
1000
0001
0000
0001
0100
0010
1000
,
0000
0000
0000
1001
,
0010
0000
0000
0000
1000
0000
0000
0000
0001
0000
0000
0010
0000
0000
0001
0000
,
0100
0000
0000
0000
0010
0000
0000
0000
0100
0000
0000
0001
0000
0000
0100
0000
,
0010
0000
0000
0000
1000
0000
0000
0000
0010
0000
0000
0100
0000
0000
0010
0000
,
1000
0001
0010
0110
,
1000
0000
0000
0000
0100
0000
0000
0000
0010
0000
0000
0001
0000
0000
1000
0000
,
0001
0000
0000
0000
0100
0000
0000
0000
0010
0000
0000
0100
0000
0000
0001
0000
,
1000
0000
0000
0000
0001
0000
0000
0000
0010
0000
0000
0100
0000
0000
0010
0000
,
0001
1000
0010
0110
,
0100
0000
0000
0100
0001
0000
0100
0000
0000
0100
0001
0000
0100
0000
0010
0000
,
1000
0000
0000
1000
0010
0000
1000
0000
0000
1000
0010
0000
1000
0000
0001
0000
,
0100
0000
0000
0100
0010
0000
0100
0000
0000
0100
0010
0000
0100
0000
0001
0000
,
0100
0010
1000
1001
,
0001
0000
0000
0001
0010
0000
0001
0000
0000
0001
0010
0000
0001
0000
0100
0000
,
0010
0000
0000
0010
0100
0000
0010
0000
0000
0010
0100
0000
0010
0000
1000
0000
,
0100
0000
0000
0100
1000
0000
0100
0000
0000
0100
1000
0000
0100
0000
0010
0000
,
0001
0010
1010
1001
,
2000
0000
0010
0010
0000
0010
0010
0000
,
3001
0000
0001
0001
0020
0001
0031
0000
,
0102
0000
0100
0100
0000
0100
0100
0000
,
1003
0010
1000
1001
,
1020
0000
1000
1000
0000
1000
1000
0000
,
1030
0000
0100
0100
2000
0100
3100
0000
,
0021
0000
0001
0001
0000
0001
0001
0000
,
0031
0100
0010
1000
,
1001
0000
0000
0000
;

//---------------dance-single - ----------------
#NOTEDATA:;
#CHARTNAME:;
#STEPSTYPE:dance-single;
#DESCRIPTION:;
#CHARTSTYLE:;
#DIFFICULTY:Hard;
#METER:12;
#RADARVALUES:0.470328,0.488700,0.257210,0.025721,0.325800,384.000000,354.000000,30.000000,3.000000,0.000000,0.000000,0.000000,0.000000,0.000000,0.470328,0.488700,0.257210,0.025721,0.325800,384.000000,354.000000,30.000000,3.000000,0.000000,0.000000,0.000000,0.000000,0.000000;
#CREDIT:Daniel Van Eden;
#NOTES:
// measure 0
0000
0000
0000
0000
,  // measure 1
0000
0000
0000
0000
,  // measure 2
0000
0000
0000
0000
,  // measure 3
0000
0000
0000
0000
,  // measure 4
0000
0000
0000
0000
,  // measure 5
0000
0000
0000
0000
,  // measure 6
0000
0000
0000
0000
,  // measure 7
0000
0000
0000
0000
,  // measure 8
0000
0000
0000
0000
,  // measure 9
1010
0000
0000
0000
1001
0000
0000
0000
0001
0000
0000
0001
0000
0000
0011
0000
,  // measure 10
0000
0000
0000
0000
0010
0000
0110
0000
0000
0000
1000
0100
0010
0000
0000
0000
,  // measure 11
1001
0000
0000
0000
0101
0000
0000
0000
1000
0010
1000
0010
0000
0000
1010
0000
,  // measure 12
0000
0000
0100
0000
0000
0000
0011
0000
0000
0000
1000
0000
0001
0100
0010
1000
,  // measure 13
0001
0000
1000
0000
0010
1000
0010
0010
,  // measure 14
0100
0001
0010
0001
1000
0100
1000
0010
,  // measure 15
0100
0001
1000
0010
0100
0010
1000
0100
,  // measure 16
0010
0000
0000
1001
,  // measure 17
1000
0000
0000
0000
0010
1000
0010
1000
0001
0000
0000
1000
0000
0000
0101
0000
,  // measure 18
0000
0000
0010
0000
0001
0000
0100
0000
0010
0000
0000
1000
0000
0000
1010
0000
,  // measure 19
0000
0000
1000
0000
0100
1000
0100
0000
0010
0000
0000
0001
0000
0000
1010
0000
,  // measure 20
0000
0000
1000
0000
0001
0000
0000
0000
0110
0000
0000
0000
1000
0000
0010
1000
,  // measure 21
0010
0000
0000
0000
0200
0000
0301
0000
0010
0000
0000
0001
0000
0000
1100
0000
,  // measure 22
0000
0000
0100
0000
1000
0000
0010
0100
0001
0000
0000
1000
0000
0000
1001
0000
,  // measure 23
0000
0000
0011
0000
0001
0000
0000
0000
1100
0000
0000
1000
0000
0000
1010
0000
,  // measure 24
0000
0010
0100
0000
0011
0000
0110
0000
,  // measure 25
1100
0000
0000
0000
0100
0010
0100
0010
0100
0000
0000
0100
0010
0000
0001
0000
,  // measure 26
0100
0000
0000
0000
0001
1000
0001
1000
0001
0000
0000
0001
1000
0000
0010
0000
,  // measure 27
0100
0000
0000
0000
0010
0100
0010
0100
0010
0000
0000
1000
0000
0000
1001
0000
,  // measure 28
0000
0000
0010
0000
0001
0000
0000
0000
1100
0000
0000
0000
0001
0000
0100
0001
,  // measure 29
1000
0000
0001
0000
1000
0000
0010
0000
1000
0000
0100
1000
0000
0000
0010
0000
,  // measure 30
0100
0000
0001
0000
0100
0000
0010
0000
0100
0000
0001
0010
0000
0000
0200
0000
,  // measure 31
0000
0000
1000
0000
1000
0300
0000
0000
1000
0000
0001
0000
0100
0000
0002
0000
,  // measure 32
0000
0010
0013
0000
0010
0000
1001
0000
,  // measure 33
0001
0000
0100
0000
1000
0000
0100
0000
0001
0000
1000
0010
0000
1000
0001
0000
,  // measure 34
1000
0000
0100
0000
0001
0000
0100
0000
1000
0000
0001
1000
0000
0001
0010
0000
,  // measure 35
0100
0000
0010
0000
0001
0000
0010
0000
0100
0000
1000
0010
0000
1000
0001
0000
,  // measure 36
0100
0000
0001
0000
0010
0100
0000
0100
1000
0000
0010
0000
1010
0000
0000
0000
,  // measure 37
0010
0000
0100
0000
0001
0000
0100
0000
0010
0000
1000
0001
0000
0001
1000
0000
,  // measure 38
0010
0000
1000
0000
0100
0000
0010
0000
0100
0000
1000
0001
0000
0001
1000
0000
,  // measure 39
0001
0000
0010
0000
0001
0000
0100
0000
0010
0000
0100
0001
0000
0001
0100
0000
,  // measure 40
0010
0000
1000
0000
0100
1000
0000
1000
0100
0000
0010
0000
0011
0000
0000
0000
,  // measure 41
1000
0000
0000
0100
1000
0000
0001
0000
0000
0010
0001
0000
1000
0000
0001
0000
,  // measure 42
0100
0000
0000
0001
0100
0000
0010
0000
0000
1000
0010
0000
1000
0000
0001
0000
,  // measure 43
1000
0000
0000
0100
1000
0000
0010
0000
0000
1000
0010
0000
0100
0000
0001
0000
,  // measure 44
1000
0000
0010
0000
0100
0010
0000
0010
0100
0000
0001
0000
1001
0000
0000
0000
,  // measure 45
0001
0000
0000
0010
0001
0000
1000
0000
0000
0100
1000
0000
0001
0000
0100
0000
,  // measure 46
0010
0000
0000
1000
0010
0000
0100
0000
0000
0001
0100
0000
0010
0000
1000
0000
,  // measure 47
0100
0000
0000
0010
0100
0000
1000
0000
0000
0001
1000
0000
0010
0000
0100
0000
,  // measure 48
0001
0000
0000
1000
0010
0000
0000
0010
0100
0000
0000
0100
0001
0000
0000
0000
,  // measure 49
1100
0000
0000
0100
1000
0000
0100
0000
0000
1000
0100
0000
1000
0000
0010
0000
,  // measure 50
0100
0000
0000
0010
0100
0000
0010
0000
0100
0001
0100
0000
0001
0000
0100
0000
,  // measure 51
0001
0000
0000
0010
0001
0000
0010
0000
0000
0001
0010
0000
0001
0000
0100
0000
,  // measure 52
0001
0000
1000
0000
0010
1000
0000
1000
0001
0000
0100
0000
1001
0000
0000
0000
,  // measure 53
0001
0000
0000
0100
0001
0000
0100
0000
0000
0001
0100
0000
0001
0000
0100
0000
,  // measure 54
0010
0000
0000
0100
0010
0000
0100
0000
0010
1000
0010
0000
1000
0000
0010
0000
,  // measure 55
1000
0000
0000
0100
1000
0000
0100
0000
0000
1000
0100
0000
1000
0000
0100
0000
,  // measure 56
0010
0001
0100
0010
0100
0001
1000
0000
,  // measure 57
1001
0000
0000
0000
;

//---------------dance-single - ----------------
#NOTEDATA:;
#CHARTNAME:;
#STEPSTYPE:dance-single;
#DESCRIPTION:;
#CHARTSTYLE:;
#DIFFICULTY:Challenge;
#METER:15;
#RADARVALUES:0.611181,0.830790,0.668747,0.077163,0.570150,499.000000,421.000000,78.000000,9.000000,0.000000,0.000000,0.000000,0.000000,0.000000,0.611181,0.830790,0.668747,0.077163,0.570150,499.000000,421.000000,78.000000,9.000000,0.000000,0.000000,0.000000,0.000000,0.000000;
#CREDIT:Daniel Van Eden;
#NOTES:
0000
0000
0000
0000
,
0000
0000
0000
0000
,
0000
0000
0000
0000
,
0000
0000
0000
0000
,
0000
0000
0000
0000
,
0000
0000
0000
0000
,
0000
0000
0000
0000
,
0000
0000
0000
0000
,
0000
0000
0000
0000
,
1100
0000
0000
0000
0011
0000
0000
0000
0010
0000
0001
1000
0001
0000
2000
0000
,
0000
0000
0000
0000
3010
0000
0100
0000
0000
0000
0100
0010
1000
0000
0001
0100
,
0001
0000
0000
0000
1100
0000
0000
0000
0010
0100
0010
0001
0000
0000
1001
0000
,
0000
0000
0001
0000
0000
0000
1010
0000
0000
0000
1000
0000
0001
0100
0010
1000
,
0001
1000
0010
0100
,
0010
1000
0010
1000
0100
0010
0001
0010
,
0100
1000
0100
1000
0001
0010
0001
0010
0100
1000
0100
0010
0001
0100
0010
1000
,
0001
0000
0000
1001
,
0011
0000
0000
0000
0100
0001
0100
0010
1000
0000
0000
0010
0000
0000
0101
0000
,
0000
0000
0000
0000
0000
0000
1000
0000
0001
0000
1000
0000
0001
0000
0000
0000
0000
0000
0010
0000
0000
0100
0000
0000
1000
0000
0000
0000
0000
0000
0000
0000
0000
0001
0000
0000
0000
0000
0000
0000
0000
0000
1100
0000
0000
0000
0000
0000
,
0000
0000
1000
0000
0100
0010
0100
1000
0001
0000
0010
0100
0010
0000
0001
0000
,
0000
0000
0100
0000
0010
0000
0000
0000
0110
0000
0000
0000
1000
0000
0010
0100
,
0001
0000
0000
0000
0010
0000
0100
0010
0100
0000
0000
1000
0000
0000
1010
0000
,
0000
0000
0010
1000
0002
0000
0013
0100
1000
0000
0100
0010
0100
0000
0010
0000
,
0000
0000
0010
0000
0001
0000
0000
0000
0101
0000
0000
0110
0000
0000
1010
0000
,
0000
0000
1000
0010
1000
0000
0001
0000
0011
0000
0000
0000
0110
0000
0000
0000
,
1001
0000
0000
0000
0010
0001
0010
0100
1000
0000
0000
1100
0000
0000
0101
0000
,
0000
0000
0000
0000
0000
0000
0010
0000
0100
0000
0010
0000
1000
0000
0000
0100
0000
0000
0010
0000
0000
0001
0000
0000
0010
0000
0000
0000
0000
0000
0000
0000
0000
0100
0000
0000
0000
0000
0000
0000
0000
0000
1100
0000
0000
0000
0000
0000
,
0000
0000
0010
1000
0100
1000
0001
0010
0100
0000
1000
0100
1000
0000
1001
0000
,
0000
0000
0001
0100
0001
0000
0000
0000
1010
0000
0000
0000
1001
0000
1000
0001
,
1000
0000
0010
0000
1000
0000
0100
0000
0010
0000
0100
1000
0001
0000
0010
0000
,
0001
0000
0100
0000
0010
0000
0100
0000
0001
0000
0010
0001
1000
0000
0010
0000
,
1000
0010
1000
0010
0100
0001
0100
0001
1000
0010
0100
0001
0010
0100
1000
0000
,
0000
0000
0000
1001
,
0001
0000
0100
0010
1000
0000
0010
0100
0001
0000
1000
0001
0000
1000
0010
0000
,
1000
0000
0100
0010
0001
0000
0100
0010
1000
0000
0010
0100
0000
0010
1000
0000
,
0001
0000
1000
0010
0100
0000
0001
0100
0010
0000
1000
0001
0000
1000
0100
0000
,
0010
0000
0001
0100
0010
0000
0010
0100
0001
0010
0100
1000
0001
0000
0000
0000
,
1000
0000
0010
1000
0001
0000
0100
0001
1000
0000
0100
0010
0000
0100
1000
0000
,
0001
0000
0010
0001
1000
0000
0010
1000
0001
0000
0100
0001
0000
0100
0010
0000
,
1000
0000
0100
1000
0001
0000
0100
0001
0010
0000
0100
1000
0000
0010
1000
0000
,
0020
0000
0030
0000
0010
1000
0010
0100
0001
0000
0010
0000
0110
0000
0000
0000
,
1010
0000
0000
1010
1010
0000
1001
0000
0000
1001
1001
0000
0101
0000
0011
0000
,
1100
0000
0000
1100
1100
0000
0110
0000
0000
0110
0110
0000
0110
0000
0011
0000
,
1001
0000
0000
1001
1001
0000
0101
0000
0000
0101
0101
0000
0101
0000
0110
0000
,
1000
0001
0010
0001
1000
0100
0000
0100
1000
0001
0010
0100
1000
0000
0000
0000
,
1010
0000
0000
1010
1010
0000
0110
0000
0000
0110
0110
0000
0101
0000
0011
0000
,
0110
0000
0000
0110
0110
0000
1001
0000
0000
1001
1001
0000
1100
0000
1010
0000
,
0101
0000
0000
0101
0101
0000
1100
0000
0000
1100
1100
0000
0011
0000
1010
0000
,
0001
0010
0000
0010
0001
0000
0100
0001
0100
0010
1000
0100
0010
0000
0000
0000
,
0012
0000
0000
0010
0010
0000
0010
0000
0000
0010
0010
0000
0010
0000
0010
0000
,
1000
0000
0000
1000
1000
0000
1003
0000
0020
1000
1000
0000
1000
0000
1030
0000
,
2100
0000
0000
0100
0100
0000
0100
0000
0000
0100
0100
0000
0100
0000
0100
0000
,
3001
0100
0010
0100
0001
1000
0000
1000
0010
0100
0001
1000
0100
0000
0000
0000
,
2010
0000
0000
0010
0010
0000
0010
0000
0000
0010
0010
0000
0010
0000
0010
0000
,
0001
0000
0000
0001
0001
0000
3001
0000
0200
0001
0001
0000
0001
0000
0301
0000
,
0012
0000
0000
0010
0010
0000
0010
0000
0000
0010
0010
0000
0010
0000
0013
0000
,
0001
0100
0001
0100
0010
1000
0010
1000
0010
0100
0001
1000
0010
0000
0000
0000
,
1001
0000
0000
0000
;
