#TITLE:Sayonara Planet Wars Ver. B;
#SUBTITLE:;
#ARTIST:Chroma;
#TITLETRANSLIT:;
#SUBTITLETRANSLIT:;
#ARTISTTRANSLIT:;
#GENRE:;
#CREDIT:;
#BANNER:Sayonara Planet Wars (Ver B).png;
#BACKGROUND:Sayonara Planet Wars (Ver B)-bg.png;
#LYRICSPATH:;
#CDTITLE:;
#MUSIC:Sayonara Planet Wars (Ver B).ogg;
#OFFSET:0.041581;
#SAMPLESTART:1.027992;
#SAMPLELENGTH:8.571427;
#SELECTABLE:YES;
#DISPLAYBPM:112.000000:448.000000;
#BPMS:0.000000=224.000000
,4.000000=448.000000
,260.000000=224.000000
,262.000000=448.000000
,482.000000=896.000000
,506.000000=224.000000
,571.000000=896.000000
,595.000000=448.000000
,869.000000=112.000000
,877.000000=448.000000
;
#STOPS:132.000000=0.045000,
132.333328=0.045000,
132.666672=0.045000,
133.000000=0.045000,
133.333328=0.045000,
133.666672=0.045000,
134.000000=0.089000,
134.666672=0.089000,
135.333328=0.089000,
506.000000=2.411000,
595.000000=0.134000
;
#BGCHANGES:;
#KEYSOUNDS:;
#ATTACKS:;

//---------------dance-single - ----------------
#NOTES:
     dance-single:
     :
     Challenge:
     20:
     1.355199,1.927377,0.405140,0.596244,0.145239,1241.000000,1188.000000,53.000000,78.000000,0.000000,0.000000,1.355199,1.927377,0.405140,0.596244,0.145239,1241.000000,1188.000000,53.000000,78.000000,0.000000,0.000000:
// measure 0
0000
0000
0000
0000
,  // measure 1
0000
0000
0000
0000
,  // measure 2
0000
0000
0000
0000
,  // measure 3
0000
0000
0000
0000
,  // measure 4
0000
0000
0000
0000
,  // measure 5
0000
0000
0000
0000
,  // measure 6
0000
0000
0000
0000
,  // measure 7
0000
0000
0000
0000
,  // measure 8
0000
0000
0000
0000
,  // measure 9
2200
0000
0000
0000
0300
0000
3100
0010
,  // measure 10
0001
1000
0010
2020
,  // measure 11
0000
0000
3000
0100
,  // measure 12
0030
0000
0000
0100
0000
0000
0001
0000
0000
1000
0010
1000
,  // measure 13
0010
0000
0000
0000
1000
0000
0100
1000
,  // measure 14
0100
0010
0001
0200
,  // measure 15
0000
0000
0000
0000
0310
1000
0010
1000
,  // measure 16
0001
0100
0001
0100
0010
1000
0001
0100
,  // measure 17
0010
0000
1000
0000
0001
0000
1000
0100
,  // measure 18
1000
0000
0001
0000
0010
0000
0001
0100
,  // measure 19
0001
0000
0100
0000
0010
0000
1000
0010
,  // measure 20
0100
0000
0001
1000
0010
0000
1000
0000
,  // measure 21
0100
0000
0001
0100
0001
0000
0100
0000
,  // measure 22
1000
0000
0010
0001
0010
0000
1000
0000
,  // measure 23
0001
0000
0010
1000
0010
0000
0010
0001
,  // measure 24
1000
0000
0100
1000
0001
1000
0100
0010
,  // measure 25
0001
0000
1000
0000
0001
0000
0010
0100
,  // measure 26
0010
0000
0001
0000
1000
0000
0100
0010
,  // measure 27
0100
0000
1000
0000
0010
0000
0100
0001
,  // measure 28
0100
0000
0001
1000
0010
0000
1000
0000
,  // measure 29
0010
0000
1000
0100
0001
0000
0100
0000
,  // measure 30
0010
0000
0001
0010
1000
0000
0010
0000
,  // measure 31
0001
0100
0001
1000
0010
0100
0010
1000
,  // measure 32
0100
0010
0100
1000
0002
0000
0000
0003
,  // measure 33
1000
1000
1000
0001
0001
0001
0110
0000
0110
0000
0110
0000
,  // measure 34
0010
0000
0100
1000
0000
0100
0001
0000
,  // measure 35
0100
1000
0000
0100
0010
0000
0100
1000
,  // measure 36
0000
0100
0001
0000
0100
1000
0000
0001
,  // measure 37
1000
0100
0010
0001
0010
0100
1000
0001
,  // measure 38
0010
0000
0001
1000
0000
0001
0100
0000
,  // measure 39
0001
1000
0000
0001
0010
0000
0001
0100
,  // measure 40
0000
0001
1000
0000
0010
1000
0000
0100
,  // measure 41
0001
0000
0100
1000
0000
0010
0100
0000
,  // measure 42
0001
0000
0001
0010
0001
0000
1000
0000
,  // measure 43
0100
1000
0100
1000
0001
0100
0001
0010
,  // measure 44
0100
0000
0010
0001
0000
1000
0001
0100
,  // measure 45
0001
0000
1000
0010
0000
1000
0001
1000
,  // measure 46
0100
0000
1000
0001
0000
0010
0100
1000
,  // measure 47
0001
0000
0100
0001
0000
1000
0010
0100
,  // measure 48
0001
0000
0001
1000
0001
1000
0001
1000
,  // measure 49
0101
0000
0000
0011
0000
0000
0101
0000
,  // measure 50
0010
0000
1000
0100
0000
1000
0001
0000
,  // measure 51
1000
0001
0000
0100
0001
0000
0010
0001
,  // measure 52
0000
0010
0100
0000
0010
0001
0000
1000
,  // measure 53
0100
0010
0001
0100
0010
1000
0100
0010
,  // measure 54
0001
0000
0010
0100
0000
0010
0001
0000
,  // measure 55
1000
0010
0000
1000
0100
0000
1000
0001
,  // measure 56
0000
1000
0010
0000
1000
0100
0000
1000
,  // measure 57
0001
0000
1000
0010
0000
0100
0001
0000
,  // measure 58
0100
0000
0010
0100
0010
1000
0010
0000
,  // measure 59
1001
0000
1000
0100
1000
0000
0001
0100
,  // measure 60
0001
0010
0001
0000
0101
0000
0001
0100
,  // measure 61
0010
0000
1000
0010
0000
1000
0001
0000
,  // measure 62
0010
0001
0020
0000
0000
0000
0130
0001
,  // measure 63
0200
0000
0000
0000
0000
0000
1300
0010
,  // measure 64
2000
0000
0000
0000
3001
0010
0001
0010
,  // measure 65
2200
0000
0000
3300
0001
1000
0001
1000
,  // measure 66
0001
0000
1000
0010
1000
0000
0001
0100
,  // measure 67
0001
0100
0001
0000
0100
0010
0100
0010
,  // measure 68
0100
0000
0010
1000
0010
0000
1000
0001
,  // measure 69
1000
0001
0100
0000
0001
0100
0001
0100
,  // measure 70
0001
0000
1000
0010
1000
0000
0100
0010
,  // measure 71
0100
0010
0100
0010
0001
0000
1000
0100
,  // measure 72
0010
0000
0100
1000
0001
0000
0100
0001
,  // measure 73
1000
0010
1000
0001
0100
0001
0100
0001
,  // measure 74
0100
0000
0010
0100
0010
0000
1000
0100
,  // measure 75
1000
0100
1000
0000
0001
0010
0001
0010
,  // measure 76
0001
0000
0010
0100
0010
0000
0100
0010
,  // measure 77
0100
0010
0001
0000
1001
0000
0010
0000
,  // measure 78
0001
0101
1000
0010
,  // measure 79
0110
0000
0010
1000
0100
0000
0011
0000
,  // measure 80
0010
0100
1010
0100
,  // measure 81
0011
0000
0001
1000
0001
0000
0100
1000
,  // measure 82
0000
0100
0001
0000
0010
0000
1001
0000
,  // measure 83
0001
0100
0010
1000
0001
0000
0010
1000
,  // measure 84
0000
0010
0001
0000
0100
0000
0110
0000
,  // measure 85
0010
1000
0100
0010
0001
0000
0010
0001
,  // measure 86
0010
0100
1000
0000
0001
0000
1000
0010
,  // measure 87
1000
0001
0100
0000
0010
0100
0010
0100
,  // measure 88
0010
0100
0010
0100
1010
0000
1010
0000
,  // measure 89
0000
0000
0202
0000
0000
0303
1000
0001
,  // measure 90
0100
0010
1000
0100
0010
0100
1000
0001
,  // measure 91
0010
0001
0100
0010
1000
0100
0010
0001
,  // measure 92
0010
0100
1000
0001
0011
0000
0101
0000
,  // measure 93
0000
0000
2020
0000
0000
3030
0010
1000
,  // measure 94
0001
0100
0010
0100
0001
0010
0100
1000
,  // measure 95
0100
0010
0001
0100
0001
0010
0001
1000
,  // measure 96
0100
1000
0010
0100
0101
0000
1100
0000
,  // measure 97
0000
0000
0022
0000
0000
0033
0100
0010
,  // measure 98
0100
0001
0010
0100
0010
0001
1000
0100
,  // measure 99
0010
0100
1000
0010
0100
0001
0100
0010
,  // measure 100
1000
0001
0010
0100
1100
0000
0110
0000
,  // measure 101
0000
0000
0022
0000
0000
0033
0001
1000
,  // measure 102
0010
1000
0100
0010
0001
1000
0100
1000
,  // measure 103
0001
0100
0010
0001
0010
0100
1000
0010
,  // measure 104
0100
0001
1000
0100
0110
0000
0011
0000
,  // measure 105
0000
0000
2002
0000
0000
3003
0010
0100
,  // measure 106
0010
1000
0001
0010
0100
1000
0010
0100
,  // measure 107
0010
1000
0100
0010
0001
0010
0100
1000
,  // measure 108
0001
0100
0010
1000
0001
0010
0100
1000
,  // measure 109
0001
0100
0010
1000
0001
0010
0100
1000
,  // measure 110
0001
0100
0010
1000
0001
0010
0100
1000
,  // measure 111
0001
0100
0010
1000
0001
0010
0100
1000
,  // measure 112
0001
0100
0010
1000
0001
0010
0100
1000
,  // measure 113
0001
0100
0010
1000
0010
0100
0001
1000
,  // measure 114
0010
0100
0001
1000
0010
1000
0100
0010
,  // measure 115
0001
0100
0010
1000
0100
0010
0001
1000
,  // measure 116
0100
0010
0001
1000
0100
1000
0001
0010
,  // measure 117
0100
0010
0001
0100
0010
1000
0001
1000
,  // measure 118
0010
1000
0001
1000
0100
0010
0001
0010
,  // measure 119
0100
0010
0001
0010
0100
0010
0100
0010
,  // measure 120
0100
0010
0100
0010
2002
0000
0000
0000
,  // measure 121
0000
0000
0000
0000
,  // measure 122
0000
0000
0000
0000
,  // measure 123
0000
0000
0000
0000
,  // measure 124
0000
0000
0000
0000
,  // measure 125
0000
0000
0000
0000
,  // measure 126
0000
0000
3003
2000
,  // measure 127
3200
0000
0300
0000
0011
0000
0001
1000
0001
0000
0200
0000
0000
0000
0301
0000
,  // measure 128
0010
0000
0200
0000
0000
0000
0000
0000
0300
0000
0000
0000
0100
1000
0100
1000
,  // measure 129
0100
0000
0010
0000
0001
0000
1000
0010
1000
0000
0200
0000
0000
0000
1300
0000
,  // measure 130
0010
0200
0000
0000
0000
0000
0300
0000
,  // measure 131
0010
0000
0000
0000
0000
0000
1000
0000
0000
0010
0000
0000
2000
0000
0000
0000
0000
0000
3000
0000
0000
0000
0000
0000
0001
0000
0000
0100
0000
0000
0001
0000
0000
0000
0000
0000
0000
0000
0000
0000
0000
0000
1000
0000
0010
0000
1000
0000
,  // measure 132
0002
0000
0000
0000
1000
0000
0000
0000
1003
0000
0000
0000
1000
0100
1000
0100
,  // measure 133
0010
0001
0020
0000
0000
0032
0000
0000
,  // measure 134
2003
0000
0010
0000
0010
0000
3010
0100
,  // measure 135
0101
0000
1000
0000
0100
0000
1000
0010
1000
0000
0001
0000
0100
0000
0001
0000
,  // measure 136
0010
0000
0002
0000
0010
0000
0000
0000
1003
0000
0000
0000
1000
0100
1000
0100
,  // measure 137
0010
0000
0001
0000
0100
0000
0001
0100
0001
0000
1000
0000
0010
0000
0100
0000
,  // measure 138
0010
0000
2000
0000
0100
0000
0000
0000
3001
0000
0000
0000
0010
0001
0010
0001
,  // measure 139
0100
0000
0000
0000
0000
0000
0001
0000
0000
1000
0000
0000
0002
0000
0000
0000
0000
0000
0000
0000
0000
0003
0000
0000
0010
0000
0000
0100
0000
0000
0020
0000
0000
0000
0000
0000
0000
0000
0000
0030
0000
0000
0100
0000
1000
0000
0100
0000
,  // measure 140
2000
0000
0000
0000
0100
0000
0100
0000
3001
0000
0000
0000
0001
0100
0001
0100
,  // measure 141
0010
1000
0001
1000
0010
1000
0001
0100
,  // measure 142
0001
0000
0010
0000
0100
0010
0001
0100
0010
1000
0100
0010
0002
0000
0000
0000
,  // measure 143
0000
0000
0000
0000
,  // measure 144
0000
0000
0000
0000
,  // measure 145
0000
0000
0000
0000
,  // measure 146
0000
0000
0000
0000
,  // measure 147
0000
0000
0000
0000
,  // measure 148
0000
0003
0000
1001
,  // measure 149
0001
0000
0100
0000
0001
0000
1000
0100
,  // measure 150
1000
0000
0001
0000
0010
0000
0100
1000
,  // measure 151
0100
0000
1000
0000
0010
0000
1000
0001
,  // measure 152
0010
0001
0010
0001
1000
0010
1000
0010
,  // measure 153
0100
0010
1000
0100
0010
0000
0001
0010
,  // measure 154
0001
0000
1000
0000
0100
0000
1000
0001
,  // measure 155
0010
0000
0001
0000
0100
0000
0010
1000
,  // measure 156
0001
1000
0001
1000
0100
0010
0100
0010
,  // measure 157
0002
0003
2000
3000
0202
0000
0303
0000
,  // measure 158
0001
0000
0000
0100
0000
0000
2000
0000
0000
0000
0000
0000
3000
0000
0000
0000
0000
0000
0100
0000
0001
0000
0100
0000
,  // measure 159
0002
0010
0013
1000
,  // measure 160
0101
0000
0001
0000
1000
0001
0100
0010
,  // measure 161
0100
0001
0010
1000
0010
0000
0011
0000
,  // measure 162
0101
2000
3010
0100
,  // measure 163
1100
0000
0100
0000
1000
0000
0100
0010
,  // measure 164
0100
0000
0010
0001
1000
0000
0100
1000
,  // measure 165
0010
0000
0100
0010
1000
0000
0001
0010
,  // measure 166
0001
0000
1000
0000
0100
0000
0010
1000
,  // measure 167
0010
0000
0001
0000
0100
0000
0001
1000
,  // measure 168
0100
1000
0100
1000
0001
0100
0001
0100
,  // measure 169
0010
0100
0001
0010
0100
0000
1000
0100
,  // measure 170
1000
0000
0001
0000
0010
0000
0001
1000
,  // measure 171
0100
0000
1000
0000
0010
0000
0100
0001
,  // measure 172
1000
0001
1000
0001
0010
0100
0010
0100
,  // measure 173
2000
3000
0002
0003
2020
0000
3030
0000
,  // measure 174
1000
0000
0000
0010
0000
0000
0002
0000
0000
0000
0000
0000
0003
0000
0000
0000
0000
0000
0010
0000
1000
0000
0010
0000
,  // measure 175
2000
0100
3100
0001
,  // measure 176
1010
0000
1000
0000
0001
1000
0010
0100
,  // measure 177
0010
1000
0100
0001
0100
0000
1100
0000
,  // measure 178
1010
0002
0103
0010
,  // measure 179
0011
0000
0010
0000
0001
0000
0010
0100
,  // measure 180
0010
0000
0100
1000
0100
0001
0100
1000
,  // measure 181
0010
0001
0020
0000
0030
0000
1000
0001
,  // measure 182
0100
0000
0001
1000
0010
0000
1000
0000
,  // measure 183
0100
0010
0001
0100
,  // measure 184
0001
1000
0010
1000
,  // measure 185
0100
1000
0001
0000
0020
0000
0031
0000
,  // measure 186
0100
0020
1030
0100
,  // measure 187
0020
0031
1000
0200
,  // measure 188
0310
0001
0101
0010
,  // measure 189
1000
0000
0001
1000
0001
1000
0010
1000
,  // measure 190
0001
1000
0010
1000
0001
0100
0010
0100
,  // measure 191
0001
0100
0010
0100
0001
1000
0100
1000
,  // measure 192
0001
1000
0100
1000
0010
0100
0001
0100
,  // measure 193
0010
0100
0001
0100
0020
0000
2030
0000
,  // measure 194
3200
0320
0032
2003
,  // measure 195
3200
2300
3020
2030
,  // measure 196
3002
0000
0203
0000
0320
0000
0130
0001
,  // measure 197
1000
0001
1000
0001
0010
0000
0100
0010
,  // measure 198
0001
0000
1000
0000
0100
1000
0010
0000
,  // measure 199
0100
0000
0001
1000
0001
0000
1000
0000
,  // measure 200
0100
0000
1000
0100
0010
0000
0100
0010
,  // measure 201
0001
0000
0010
0001
1000
0000
0100
0010
,  // measure 202
0100
0000
1000
0000
0010
0100
0010
0000
,  // measure 203
0100
0000
0001
0000
1000
0100
0010
0001
,  // measure 204
0100
0010
1000
0100
0010
0100
1000
0001
,  // measure 205
0010
0100
1000
0100
0010
0001
0100
0001
,  // measure 206
0100
0010
1000
0001
1000
0100
0010
0100
,  // measure 207
0010
0001
1000
0100
0010
0001
0100
0010
,  // measure 208
1000
0100
0010
0001
0100
0001
0100
0010
,  // measure 209
0100
0001
1000
0010
1000
0001
1000
0001
,  // measure 210
0100
0001
1000
0001
0100
0010
0100
0010
,  // measure 211
1000
0001
0100
0001
0010
0100
1000
0100
,  // measure 212
0010
0100
0010
0100
1000
0100
0010
0100
,  // measure 213
1000
0010
1000
0010
0100
0001
1000
0001
,  // measure 214
0100
0001
0010
0001
1000
0001
0010
0100
,  // measure 215
1000
0100
0010
0001
2000
0000
3200
0000
,  // measure 216
0320
0000
0032
0003
0011
0000
1010
0000
,  // measure 217
0110
2002
0000
0000
,  // measure 218
0000
0000
0000
0000
,  // measure 219
0000
3003
0000
0000
;

//---------------dance-single - ----------------
#NOTES:
     dance-single:
     :
     Medium:
     16:
     0.835396,1.592181,0.328698,0.924942,0.053509,765.000000,722.000000,43.000000,121.000000,0.000000,0.000000,0.835396,1.592181,0.328698,0.924942,0.053509,765.000000,722.000000,43.000000,121.000000,0.000000,0.000000:
0000
0000
0000
0000
,
0000
0000
0000
0000
,
0000
0000
0000
0000
,
0000
0000
0000
0000
,
0000
0000
0000
0000
,
0000
0000
0000
0000
,
0000
0000
0000
0000
,
0000
0000
0000
0000
,
0000
0000
0000
0000
,
2020
0000
0000
0000
,
0030
0000
3001
0002
,
0000
0000
0000
0003
,
0000
0100
0010
0100
,
0001
0000
0010
0100
,
0000
0010
0100
2000
,
0000
0000
0010
0000
,
3010
0000
0000
0000
0010
0100
0010
0100
,
0020
0000
0000
0000
0030
0000
1000
0100
,
2000
0000
0000
0000
3000
0000
0001
0010
,
0002
0000
0000
0000
0003
0000
0100
0001
,
0100
0000
0000
1000
0000
0000
0100
0000
,
0001
0010
0001
1000
,
0001
0100
1000
0100
,
0010
1000
0001
1000
,
0100
0001
0100
1000
,
0020
0000
0000
0000
0030
0000
1000
0010
,
0200
0000
0000
0000
0300
0000
0010
0100
,
0002
0000
0000
0000
0003
0000
0010
0100
,
0010
0000
0000
0001
0000
0000
1000
0000
,
0010
1000
0100
0010
,
0100
0010
0001
1000
,
0100
0010
0100
0000
1000
0000
0010
0000
,
1000
0001
1000
0000
0020
0000
0030
0000
,
1000
0010
1000
0001
0100
0001
0010
0000
0010
0000
0010
0000
,
0200
0000
0000
2300
0000
0000
3002
0000
,
0000
2003
0000
0000
3020
0000
0000
2030
,
0000
0000
3002
0000
0000
1003
0000
0000
,
0001
0100
0001
0100
0001
0000
0000
0000
,
0020
0000
0000
0230
0000
0000
2300
0000
,
0000
3200
0000
0000
0320
0000
0000
0032
,
0000
0000
0023
0000
0000
0230
0000
0000
,
2300
0000
0000
3020
0000
0000
0130
0000
,
0001
0000
1100
0000
,
0010
1000
0010
0000
0100
0010
0100
0000
,
0001
0000
0000
0010
0000
0000
0010
0000
,
0100
0000
0000
0010
0000
0000
0100
0000
,
1000
0000
0000
0010
0000
0000
0100
0000
,
0001
0000
0000
0100
0000
0000
0010
0000
,
1000
0000
0001
0000
1000
0001
1000
0000
,
1100
0000
0000
0011
0000
0000
1100
0000
,
0020
0000
0000
2030
0000
0000
3002
0000
,
0000
0203
0000
0000
0320
0000
0000
2030
,
0000
0000
3002
0000
0000
0203
0000
0000
,
0310
1000
0010
0000
1000
0010
1000
0000
,
0200
0000
0000
2300
0000
0000
3002
0000
,
0000
0023
0000
0000
0230
0000
0000
2300
,
0000
0000
3020
0000
0000
0230
0000
0000
,
0302
0000
0000
0023
0000
0000
0130
0000
,
1000
0000
0000
0010
0000
0000
1000
0000
,
0001
0000
1000
0100
1000
0000
0000
0100
,
0000
0000
0010
0000
0001
0000
0100
0001
,
0100
0000
0000
0010
0000
0000
1000
0000
,
0001
0010
0001
0100
,
0010
1000
0001
0010
,
0200
0000
0300
0000
0100
0010
0100
0010
,
0002
0000
1003
0100
,
0000
0000
0100
0010
0001
0000
0000
0000
,
0000
0101
0000
1010
,
0000
0000
0010
1000
0001
0000
0010
0000
,
1000
0010
0001
0100
,
0000
0000
0100
0010
1000
0000
0000
0000
,
0010
1000
1000
0001
,
1000
0100
1001
0000
,
0100
0000
0110
0000
,
0000
0000
0100
0001
0010
0000
0000
0000
,
0000
1100
0000
0011
,
0000
0000
0100
0010
0001
0000
0000
0000
,
2000
0000
3010
1000
,
0100
1100
0000
0010
,
0011
0000
0100
0011
,
1000
0001
1001
0000
,
0110
0000
0010
1000
,
0010
0100
0010
1000
,
0100
0000
0010
0100
,
0010
0001
0010
0100
,
1000
0000
0000
0000
0002
0000
0000
0010
,
0000
0000
0103
0000
0200
0000
0000
0010
,
0000
0000
0301
0000
2000
0000
0000
3100
,
0000
0010
0001
0001
,
0000
1001
0000
1000
,
0010
0100
0001
0010
,
0001
1000
0100
0010
,
0001
0100
0001
0100
0001
0000
0010
0000
,
0000
0110
0000
0100
,
1000
0001
0010
0001
,
1000
0010
0100
0010
,
1000
0001
1000
0001
1000
0000
0100
0000
,
0000
0110
0000
0010
,
0001
1000
0001
0010
,
1000
0010
0001
1000
,
0100
1000
0100
1000
0100
0000
0010
0000
,
0000
0101
0000
0001
,
0100
1000
0100
0001
,
1000
0010
0001
0010
,
1000
0010
1000
0010
1000
0000
0001
0000
,
0000
1100
0000
0100
,
0010
0001
1000
0100
,
0010
0001
1000
0010
,
1000
0001
0100
0001
,
1000
0010
0100
0001
,
1000
0010
0100
0001
,
1000
0010
0100
0001
,
1000
0010
0100
0001
,
1000
0010
1000
0010
,
1000
0010
1000
0010
,
1000
0010
1000
0010
,
1000
0010
1000
0010
,
1000
0010
1000
0100
,
0010
0001
1000
0100
,
0010
0000
0001
0000
1000
0001
1000
0001
,
1000
0001
1000
0001
2000
0000
0000
0000
,
0000
0000
0000
0000
,
0000
0000
0000
0000
,
0000
0000
0000
0000
,
0000
0000
0000
0000
,
0000
0000
0000
0000
,
0000
0000
3000
0010
,
1000
0000
0000
0000
0100
0000
0010
0100
0010
0000
0002
0000
0000
0000
0103
0000
,
0010
2000
0000
0000
0000
0000
3000
0000
,
0001
0000
0100
0000
0010
0000
1000
0001
1000
0000
0200
0000
0000
0000
1300
0000
,
0001
0020
0000
0000
0000
0000
0030
0000
,
0001
0100
0101
0000
0000
1010
0000
0000
,
2200
0000
0000
0000
0000
3300
0000
0000
,
0001
0010
0002
0000
0000
0010
0000
0000
,
2000
0000
0000
0000
3003
0000
0010
1000
,
0001
0000
0010
0000
0010
0000
0100
1000
0100
0000
0020
0000
0000
0000
0031
0000
,
1000
0200
0000
0000
0000
0000
0300
0000
,
0100
0000
1000
0000
0010
0000
1000
0001
1000
0000
0002
0000
0000
0000
1003
0000
,
0100
0020
0000
0000
0000
0000
0030
0000
,
0010
0100
1001
0000
0000
1100
0000
0000
,
0022
0000
0000
0033
,
0010
0001
1000
0001
1000
0010
1000
0001
,
0100
0000
0001
0000
0010
0001
0010
0001
1000
0100
1000
0100
0020
0000
0000
0000
,
0000
0000
0000
0000
,
0000
0000
0000
0000
,
0000
0000
0000
0000
,
0000
0000
0000
0000
,
0000
0000
0000
0000
,
0000
0000
0000
0030
,
0010
0000
0100
0000
1000
0000
0001
0010
,
0001
0200
0000
1300
,
0001
0020
0000
0100
,
0000
0031
0000
0010
,
0001
0000
1000
0000
0010
0000
0100
0010
,
0100
0002
0000
1003
,
0010
0200
0000
0001
,
0000
1300
0000
0010
,
1000
0010
2020
3030
,
0000
0022
0033
0000
,
0110
0000
0010
0001
,
1000
0001
0010
1000
,
0010
0001
0202
0303
,
0000
0220
0330
0000
,
1010
0000
0010
1000
,
0100
0000
1000
0000
0010
1000
0010
1000
,
0010
0000
0000
0000
0100
0000
0001
0010
,
0001
2000
0000
3010
,
0100
0002
0000
0010
,
0000
1003
0000
1000
,
0001
0000
0010
0000
0100
0000
1000
0010
,
1000
0002
0000
0103
,
0010
2000
0000
0001
,
0000
3100
0000
0100
,
0010
0100
2200
3300
,
0000
2020
3030
0000
,
0110
0000
0100
0001
,
0100
0010
0100
0001
,
0010
0100
2200
3300
,
0000
0022
0033
0000
,
0101
0000
0010
1000
,
0100
0000
0010
0000
0001
0100
0010
1000
,
0010
0100
0002
0000
0003
0000
0010
0001
,
0010
0000
0100
1000
0100
0000
0010
0000
,
0001
2000
0000
3001
,
0100
0001
0010
0100
,
1000
0020
0130
0001
,
2000
3001
0100
0020
,
0130
0001
0020
0130
,
1000
0002
1003
0010
,
0100
0000
0001
0000
0010
0000
0001
0100
,
0001
0000
0100
0000
0010
0000
1000
0010
,
1000
0000
0010
0000
1000
0000
0100
1000
,
0100
0000
0010
0000
0001
0000
0010
0001
,
0010
0001
0200
0302
,
0203
0320
2030
3020
,
2030
3200
0320
0032
,
2003
3002
0023
0230
,
2300
0000
0000
0000
3010
0000
0000
1000
,
0000
0000
0110
0000
0000
0101
0000
0000
,
1001
0000
0000
0000
1000
0000
0000
1000
,
0001
0000
0000
0001
0010
0000
0000
0010
,
0100
0000
0000
0100
0010
0000
0100
0000
,
1000
0020
0030
1000
,
0001
0000
0100
0000
0001
1000
0001
0000
,
0010
0100
1000
0100
,
0010
0001
0100
0001
,
1000
0010
0100
0001
,
1000
0010
0100
0001
,
0010
0100
1000
0001
,
0010
0100
1000
0100
,
1000
0100
1000
0100
,
1000
0100
0010
0001
,
0010
0001
0010
0001
,
0010
0000
0001
0000
1000
0001
1000
0001
,
1000
0001
1000
0001
1000
0001
1000
0001
,
1000
0001
1000
0001
0200
0000
0320
0000
,
2030
3002
0013
0010
,
0100
2002
0000
0000
,
0000
0000
0000
0000
,
0000
3003
0000
0000
;

//---------------dance-single - ----------------
#NOTES:
     dance-single:
     :
     Beginner:
     8:
     0.371287,0.586593,0.214036,0.321054,0.000000,340.000000,312.000000,28.000000,42.000000,0.000000,0.000000,0.371287,0.586593,0.214036,0.321054,0.000000,340.000000,312.000000,28.000000,42.000000,0.000000,0.000000:
0000
0000
0000
0000
,
0000
0000
0000
0000
,
0000
0000
0000
0000
,
0000
0000
0000
0000
,
0000
0000
0000
0000
,
0000
0000
0000
0000
,
0000
0000
0000
0000
,
0000
0000
0000
0000
,
0000
0000
0000
0000
,
2000
0000
0000
0000
,
0000
0000
3020
0000
,
0000
0000
0000
0000
,
0030
0000
1000
0000
,
0100
0000
0000
0010
,
0000
0000
0002
0000
,
1000
0000
1000
0000
,
1000
0000
1003
0000
,
0010
0000
0001
0000
,
0100
0000
0001
0000
,
0010
0000
0100
0000
,
1000
0000
0010
0000
,
2000
0000
0000
3002
,
0000
0000
0023
0000
,
0100
0000
0100
0000
,
0130
0000
0000
0000
,
1000
0000
0010
0000
,
1000
0000
0100
0000
,
1000
0000
0001
0000
,
0100
0000
0010
0000
,
2000
0000
0000
3010
,
0000
0000
0002
0000
,
0010
0000
0010
0000
,
0010
0000
0013
0000
,
0000
0000
0000
0000
,
0100
0000
0000
0001
,
0000
0000
1000
0000
,
0000
0001
0000
0000
,
1001
0000
0000
0000
,
0010
0000
0000
0100
,
0000
0000
0010
0000
,
0000
0001
0000
0000
,
1000
0000
0010
0000
,
1000
0000
0000
0000
,
0001
0000
0001
0000
,
1000
0000
0100
0000
,
0010
0000
0001
0000
,
0100
0000
0001
0000
,
1000
0000
0100
0000
,
0010
0000
0001
0000
,
0000
0000
0000
0000
,
1000
0000
0000
0010
,
0000
0000
1000
0000
,
0000
0001
0000
0000
,
0110
0000
0000
0000
,
0001
0000
0000
0010
,
0000
0000
0001
0000
,
0000
0100
0000
0000
,
0010
0000
1000
0000
,
0200
0000
0010
0000
,
0310
0000
0020
0000
,
0001
0000
0031
0000
,
0002
0000
0103
0000
,
0101
0000
0000
0000
,
1010
0000
0000
0000
,
2200
0000
0000
0000
,
3300
0000
0020
0000
,
0030
0000
2000
0000
,
3000
0000
0002
0000
,
0003
0000
1001
0000
,
0000
0000
0020
0000
,
0030
0000
0010
0000
,
0001
0000
0010
0000
,
0100
0000
1000
0000
,
0010
0000
2000
0000
,
3000
0000
1001
0000
,
0000
0000
0010
0000
,
0000
0000
0110
0000
,
0000
0000
1000
0000
,
0000
1000
0000
0000
,
0001
0000
0000
0001
,
0000
0000
1001
0000
,
0000
0000
0010
0000
,
1000
0000
0010
0000
,
0000
0000
0100
0000
,
0001
0000
0100
0000
,
0000
0000
0010
0000
,
0010
0000
1000
0000
,
1000
0000
0001
0000
,
0001
0000
0010
0000
,
0000
1001
0000
0000
,
1000
0000
0100
0000
,
0100
0000
0010
0000
,
0010
0000
0001
0000
,
0000
1001
0000
0000
,
0001
0000
0100
0000
,
0100
0000
0010
0000
,
0010
0000
1000
0000
,
0000
1100
0000
0000
,
0010
0000
0001
0000
,
0001
0000
1000
0000
,
1000
0000
0100
0000
,
0000
0011
0000
0000
,
1000
0000
0100
0000
,
0100
0000
0010
0000
,
0010
0000
0001
0000
,
0000
0101
0000
0000
,
0001
0000
0100
0000
,
0100
0000
0010
0000
,
0010
0000
1000
0000
,
1000
0000
0001
0000
,
0001
0000
1000
0000
,
1000
0000
0001
0000
,
0001
0000
1000
0000
,
1000
0000
0010
0000
,
1000
0000
0010
0000
,
1000
0000
0001
0000
,
0100
0000
0001
0000
,
0100
0000
0010
0000
,
0010
0000
0010
0000
,
0010
0000
0010
0100
,
0010
0100
0020
0000
,
0000
0000
0000
0000
,
0000
0000
0000
0000
,
0000
0000
0000
0000
,
0000
0000
0000
0000
,
0000
0000
0000
0000
,
0000
0000
0030
0000
,
0000
0000
1002
0000
0000
0000
0000
1000
,
0000
0000
0000
0020
0000
0000
0000
0000
,
0033
0000
2001
0000
0000
0010
0000
0000
,
0000
0020
0000
0000
0000
0000
3030
0000
,
1000
0000
1000
0000
0000
0100
0000
0000
,
0020
0000
0000
0030
,
0001
0000
0100
0000
0000
0010
0000
0000
,
2000
0000
0000
3001
,
0000
0001
0100
0001
,
0000
1000
0001
1000
,
0000
0001
1000
0001
,
0000
0010
0100
0010
,
0000
0000
0010
0000
0000
0001
0000
0000
,
2000
0000
0000
3000
,
0010
0000
0010
0000
0000
1000
0000
0000
,
0002
0000
0003
2000
,
0000
0000
0000
0000
,
0000
0000
0000
0000
,
0000
0000
0000
0000
,
0000
0000
0000
0000
,
0000
0000
0000
0000
,
0000
0000
0000
3000
,
0000
0000
1000
0000
,
0000
0100
0000
0000
,
0020
0000
0100
0000
,
0001
0000
0100
0000
,
0031
0000
0001
0000
,
0000
1000
0000
0000
,
0020
0000
1000
0000
,
0100
0000
1000
0000
,
0130
0000
1001
0000
,
0000
1001
0000
0000
,
1001
0000
0000
0000
,
0010
0000
0010
0000
,
1000
0000
1100
0000
,
0000
0011
0000
0000
,
1100
0000
0000
0000
,
0001
0000
1000
0000
,
0001
0000
0010
0000
,
0000
0100
0000
0000
,
2000
0000
0100
0000
,
0001
0000
0100
0000
,
3001
0000
0010
0000
,
0000
1000
0000
0000
,
0002
0000
0010
0000
,
1000
0000
0010
0000
,
1003
0000
0110
0000
,
0000
1010
0000
0000
,
0101
0000
0000
0000
,
0010
0000
0100
0000
,
0010
0000
0110
0000
,
0000
0011
0000
0000
,
1100
0000
0000
0000
,
0000
0000
2000
0000
,
0000
3002
0000
0000
,
0000
0000
0000
0000
,
0000
0000
0203
0000
,
0000
0000
0000
0000
,
0000
0000
0320
0000
,
0000
0000
0000
0000
,
0000
0000
2030
0000
,
0000
0000
0000
0000
,
0000
0000
3200
0000
,
0000
0000
0000
0000
,
0000
0000
0320
0000
,
0000
0000
0000
0000
,
0000
0000
0032
0000
,
0000
0000
0000
0000
,
0000
0000
2003
0000
,
0000
0000
0000
0000
,
0000
0000
3010
0000
,
1000
0000
0010
0000
,
1000
0000
0001
0000
,
1000
0000
0001
0000
,
0000
0000
0010
0000
,
0001
0000
0010
0000
,
0001
0000
0100
0000
,
0001
0000
0100
0000
,
0000
0000
0010
0000
,
0010
0000
1000
0000
,
1000
0000
0001
0000
,
0001
0000
1000
0000
,
1000
0000
0100
0000
,
0100
0000
0100
0000
,
0100
0000
0100
0000
,
0100
0000
0100
0000
,
0100
0000
0100
0000
,
0100
0000
0100
0000
,
0100
0000
0010
0000
,
0010
0000
0001
1000
,
0001
2000
0000
0000
,
0000
0000
0000
0000
,
0000
3000
0000
0000
;

//---------------dance-single - ----------------
#NOTES:
     dance-single:
     :
     Easy:
     13:
     0.625728,0.921789,0.275189,0.343987,0.007644,573.000000,537.000000,36.000000,45.000000,0.000000,0.000000,0.625728,0.921789,0.275189,0.343987,0.007644,573.000000,537.000000,36.000000,45.000000,0.000000,0.000000:
0000
0000
0000
0000
,
0000
0000
0000
0000
,
0000
0000
0000
0000
,
0000
0000
0000
0000
,
0000
0000
0000
0000
,
0000
0000
0000
0000
,
0000
0000
0000
0000
,
0000
0000
0000
0000
,
0000
0000
0000
0000
,
0020
0000
0000
0000
,
0000
0000
1000
2000
,
0000
0000
0000
0000
,
3030
0000
1000
0001
,
1000
0000
0100
0010
,
0000
0010
0001
0200
,
0000
0000
0010
0000
,
0010
0000
0310
0000
,
0010
0000
1010
0000
,
1000
0000
1100
0000
,
0010
0000
0011
0000
,
0001
0000
0000
1000
0000
0000
0001
0000
,
0010
0000
0011
0000
,
0010
0100
0010
0000
,
0001
0000
1100
0000
,
0010
1000
0100
0010
,
0001
0000
1001
0000
,
0010
0000
1100
0000
,
1000
0000
0110
0000
,
0010
0000
0000
0100
0000
0000
0010
0000
,
0001
0000
0101
0000
,
0010
1000
0100
0000
,
1000
0001
1000
0001
,
0010
0100
0010
0000
,
0002
0000
0000
2003
0000
0000
3010
0000
0010
0000
0010
0000
,
0010
0000
1000
0010
,
0100
0000
0001
0000
,
1000
0001
0010
0000
,
0100
1000
0100
0010
,
0001
0000
0100
0001
,
0100
0000
0010
1000
,
0001
0000
1000
0100
,
0010
0000
0001
0100
,
0020
0000
0000
0030
,
1000
0100
1000
0100
,
0010
0000
0001
0000
,
0100
0000
0010
1000
,
0100
0000
0000
0001
0000
0000
0100
0000
,
1000
0000
0000
0010
0000
0000
0001
0000
,
0010
0000
0000
0000
,
1000
0000
0000
0001
0000
0000
1000
0000
,
0100
0000
0010
0001
,
0010
0000
0001
0000
,
0100
0010
0100
0000
,
0001
1000
0001
1000
,
0010
0000
1000
0001
,
0100
0000
0001
1000
,
0010
0000
1000
0001
,
0010
0000
0100
0010
,
0001
0000
1000
0001
,
0100
0000
1001
0000
,
0001
1000
0100
0000
,
1001
0000
0110
0000
,
0001
0020
0000
0031
,
0200
0000
0000
0310
,
2000
0000
0000
0000
,
3002
0000
1003
0010
,
0000
0000
0010
0100
,
0000
0000
0100
0001
,
0000
0000
1001
0000
,
0000
0000
0001
1000
,
0000
0000
1100
0000
,
0110
0000
0011
0000
,
0010
0100
0010
0000
,
0001
0000
0100
0010
,
0000
0000
0010
1000
,
0000
0000
1000
0001
,
0000
0000
1001
0000
,
0100
0000
0010
0001
,
0010
0001
0000
0001
,
0100
0000
0010
1000
,
0010
1000
0000
1000
,
0100
0000
0010
0000
,
0001
0000
1000
0001
,
1000
0000
0010
0000
,
1000
0000
0100
0010
,
0100
0000
0010
0000
,
0001
0000
0100
0010
,
1000
0000
0001
0000
,
1000
0000
0100
0100
,
0000
2002
0000
3003
,
0010
0000
1000
0000
,
0100
0000
0010
0000
,
0001
0000
0100
0010
,
0000
0220
0000
0330
,
0010
0000
1000
0000
,
0001
0000
1000
0000
,
0100
0000
0010
0001
,
0000
0022
0000
0033
,
0001
0000
0010
0000
,
0100
0000
1000
0000
,
0010
0000
0100
0001
,
0000
2002
0000
3003
,
0010
0000
1000
0000
,
0100
0000
1000
0000
,
0010
0000
0100
0010
,
0000
0202
0000
0303
,
0010
0000
1000
0000
,
0001
0000
0010
0100
,
0010
0000
0001
1000
,
0001
0000
0010
0100
,
0010
0000
0001
1000
,
0001
0000
1000
0010
,
1000
0000
0001
0010
,
0001
0000
1000
0100
,
1000
0000
0001
0100
,
0001
0000
0010
0100
,
0010
0000
0001
0100
,
0001
0000
1000
0010
,
1000
0010
1000
0010
,
1000
0010
0100
0001
,
0100
0001
0200
0000
,
0000
0000
0000
0000
,
0000
0000
0000
0000
,
0000
0000
0000
0000
,
0000
0000
0000
0000
,
0000
0000
0000
0000
,
0000
0000
0300
0002
,
0203
0000
0310
1000
0100
0010
0000
0100
,
0010
0002
0000
0000
0000
0000
0003
0000
,
0100
0001
1000
0001
0100
0010
0000
0100
,
0010
2000
0000
0000
0000
0000
0000
3000
,
0001
1000
0010
0000
0000
1100
0000
0000
,
0202
0000
0000
0303
,
0010
0001
0020
0000
0030
2200
0000
3300
,
2020
3030
0000
2000
,
3100
0010
0001
0100
0010
2000
0000
3001
,
0100
0002
0000
0000
0000
0000
0003
0000
,
1000
0100
0010
0001
0100
0010
0000
1000
,
0001
0200
0000
0000
0000
0000
0300
0000
,
0010
0100
0010
0000
0000
0101
0000
0000
,
2002
0000
0000
3003
,
0010
0001
0020
0000
0000
0230
0000
0000
,
2300
0000
0000
0002
,
0000
0000
0000
0000
,
0000
0000
0000
0000
,
0000
0000
0000
0000
,
0000
0000
0000
0000
,
0000
0000
0000
0000
,
0000
0000
0000
3003
,
0000
0000
0001
0100
,
0001
1000
0000
1000
,
0010
1000
0000
0100
,
0000
0100
0000
0010
,
0100
0010
0001
0010
,
0100
1000
0000
0010
,
1000
0001
0000
0100
,
0000
0100
0000
0100
,
0010
0100
1001
0000
,
0000
1100
0000
0000
,
0011
0000
0100
0000
,
0010
0000
0001
0000
,
1000
0000
0010
0010
,
0010
0000
1000
0000
,
1001
0000
0100
0001
,
0100
0010
1000
0100
,
0010
0000
0001
1000
,
0001
0100
0000
0100
,
0010
1000
0000
0001
,
0000
0001
0000
1000
,
0001
1000
0100
1000
,
0010
0100
0000
0010
,
0100
0001
0000
0010
,
0000
0010
0000
0010
,
0001
0010
0110
0000
,
0000
1100
0000
0000
,
1010
0000
0100
0000
,
0001
0000
1000
0000
,
0010
0000
0100
0100
,
0100
0000
0001
0000
,
0010
0000
0001
0100
,
0010
1000
0100
0010
,
0001
1000
0000
0001
,
1000
0000
0010
1000
,
0010
1000
0000
0100
,
0010
0000
0100
0010
,
0001
0010
0000
0001
,
0100
0000
0001
1000
,
0000
0001
0010
0000
,
0001
0100
0010
1000
,
0010
0000
1000
0100
,
1000
0100
0010
0100
,
0010
0000
0001
0100
,
0001
0100
0010
1000
,
0010
0000
1000
0100
,
0010
0000
0001
0010
,
0100
0000
1000
0000
,
0010
0000
1000
0000
,
0001
0000
0000
0000
0001
0000
0000
0100
,
0000
0000
0010
0000
0000
1000
0000
0000
,
0002
0000
2003
0000
,
0100
0000
0010
0000
,
3001
0000
0101
0000
,
0010
0001
0000
0010
,
0100
1000
0100
1000
,
0001
0010
0001
0100
,
0010
0000
1000
0010
,
1000
0000
0001
0100
,
0001
0000
0010
0001
,
0010
0000
0100
1000
,
0100
0000
1000
0001
,
1000
0001
1000
0001
,
1000
0001
1000
0001
,
1000
0001
1000
0001
,
1000
0001
0100
0010
,
0100
0010
0100
0010
,
0100
0010
0100
0010
,
0100
0010
1000
0001
,
0100
0020
0000
0000
,
0000
0000
0000
0000
,
0000
0030
0000
0000
;

//---------------dance-single - ----------------
#NOTES:
     dance-single:
     :
     Hard:
     18:
     1.086561,1.675980,0.351631,0.940230,0.068797,995.000000,949.000000,46.000000,123.000000,0.000000,0.000000,1.086561,1.675980,0.351631,0.940230,0.068797,995.000000,949.000000,46.000000,123.000000,0.000000,0.000000:
0000
0000
0000
0000
,
0000
0000
0000
0000
,
0000
0000
0000
0000
,
0000
0000
0000
0000
,
0000
0000
0000
0000
,
0000
0000
0000
0000
,
0000
0000
0000
0000
,
0000
0000
0000
0000
,
0000
0000
0000
0000
,
2020
0000
0000
0000
3030
0000
0010
1000
,
0010
0100
0000
0202
,
0000
0000
0003
0301
,
0000
0000
0010
0000
0001
0000
0100
0010
,
0100
0000
0000
0000
0000
0000
0001
1000
,
0010
1000
0000
0100
,
0000
0000
0010
0100
0010
0000
0001
0100
,
0001
0010
0001
1000
0001
1000
0010
1000
,
0100
0000
0010
0000
0001
0000
1000
0001
,
1000
0000
0001
0000
0010
0000
0100
0010
,
0100
0000
0010
0000
0001
0000
0100
0010
,
0100
0000
0000
0010
0000
0000
1000
0000
,
0010
0100
0010
1100
,
1000
0001
0011
0000
,
0100
1000
0001
1000
,
0010
1000
0100
0010
,
0001
0000
0100
0000
0010
0000
1000
0001
,
1000
0000
0010
0000
1000
0000
0100
0010
,
0100
0000
0010
0000
0001
0000
0100
0001
,
0100
0000
0000
0010
0000
0000
1000
0000
,
0100
0010
0100
0010
,
0001
1000
0001
1000
,
0010
1000
0010
1000
0100
0010
0100
0010
,
0001
0100
0001
0100
0010
0000
0000
0000
,
1000
0010
1000
0001
0100
0001
0110
0000
1001
0000
1010
0000
,
0020
0000
1030
0200
1000
0300
0002
0000
,
1003
0200
1000
0300
0020
0000
1030
0200
,
1000
0300
0002
0000
1003
0200
1000
0300
,
0001
0010
0001
0010
0100
0010
0100
0000
,
0020
0000
0031
0200
0001
0300
2000
0000
,
3001
0200
0001
0300
0020
0000
0130
2000
,
0100
3000
0002
0000
0103
2000
0100
3000
,
0020
0000
0130
0002
0100
0003
0010
0000
,
0001
0000
1000
0001
1000
0000
0001
1000
,
0001
0100
0001
0100
0010
1000
0010
1000
,
0100
0000
0000
0011
0000
0000
0001
0000
,
0100
0000
0000
0110
0000
0000
1000
0000
,
0010
0000
0000
1001
0000
0000
1000
0000
,
0100
0000
0000
0011
0000
0000
0001
0000
,
0100
0000
0000
0000
0001
0010
0001
1000
,
0100
0000
0000
0011
0000
0000
1100
0000
,
0200
0000
0301
2000
0001
3000
0020
0000
,
0031
2000
0001
3000
0200
0000
0301
2000
,
0001
3000
0020
0000
0031
2000
0001
3000
,
0010
1000
0010
1000
0001
0100
0001
0100
,
0020
0000
1030
0200
0000
1300
0002
0000
,
1003
0020
0000
1030
0200
0000
1300
0002
,
0000
1003
0020
0000
1030
0200
0000
1300
,
0002
0000
1003
0020
0000
1030
0100
0000
,
0010
0000
0000
0011
0000
0000
0101
0000
,
1001
0000
0000
0001
0100
0000
0000
0110
,
0000
0000
1010
0000
1001
0000
0000
1000
,
0100
0000
0000
0010
0000
0000
0001
0000
,
0100
0010
0200
0000
0000
0000
0301
0010
,
0002
0000
0000
0000
0000
0000
1003
0100
,
2000
0000
0000
3000
0010
0100
0010
0100
,
0002
0000
1003
1000
,
0000
0000
0010
0100
0010
0000
0010
0000
,
0000
0110
0000
0101
,
0001
0010
0100
0010
,
0010
0000
1001
0001
,
0000
0000
0100
0010
0100
0000
0100
0000
,
0000
1010
0000
1100
,
0100
0010
0001
0010
,
0010
0000
0101
0100
,
0000
0000
0010
1000
0010
0000
0100
0000
,
0000
0110
0000
1001
,
1000
0100
0010
0001
,
1001
0000
0001
0100
,
1000
0100
0001
0000
1000
0000
0100
0000
,
0010
0000
0001
0000
1000
0100
0001
0000
,
0100
1000
0010
0100
,
0001
0000
0000
0000
1000
0000
0010
1000
,
0010
0000
1000
0100
1000
0000
0100
0000
,
0000
0000
0100
0000
0010
0000
0001
0100
,
0001
0000
0100
0010
0100
0000
0010
0000
,
0000
0000
0010
0000
1000
0000
0001
0010
,
0001
0000
1000
0100
1000
0000
0001
0100
,
0001
0000
1000
0010
0100
0010
0100
0010
,
0100
0001
0100
0010
1000
0000
1000
0000
,
0000
0022
0033
0100
,
1000
0000
0010
0100
0010
0000
1000
0001
,
1000
0000
0100
0010
0100
0000
0010
0001
,
0010
0000
0001
0100
0001
0000
0001
0000
,
0000
2020
3030
0001
,
0100
0000
0010
0100
0010
0000
1000
0010
,
1000
0000
0001
0100
0001
0000
0010
0001
,
0010
0000
0100
1000
0100
0000
0100
0000
,
0000
2002
3003
0010
,
0001
0000
0100
0001
0100
0000
0010
1000
,
0010
0000
1000
0100
1000
0000
0100
0010
,
0100
0000
0010
0001
0010
0000
0010
0000
,
0000
2200
3300
0010
,
0001
0000
0100
0010
0100
0000
0010
1000
,
0010
0000
1000
0001
1000
0000
0001
0100
,
0001
0000
1000
0100
1000
0000
1000
0000
,
0000
0202
0303
0010
,
1000
0001
0010
0100
,
0010
0001
1000
0010
,
0100
0001
0100
0000
0010
0000
1000
0000
,
0001
0100
0001
0000
1000
0000
0010
0000
,
0100
0001
0100
0000
0010
0000
1000
0000
,
0001
0100
0001
0000
0010
0000
0001
0000
,
1000
0100
1000
0000
0001
0000
0010
0000
,
0100
1000
0100
0000
0010
0100
0010
0000
,
0001
1000
0001
0000
0100
0001
0100
0000
,
0010
0100
0010
0000
1000
0001
1000
0000
,
0010
1000
0010
0000
0100
0010
0100
0000
,
0001
0100
0001
0000
1000
0010
1000
0010
,
1000
0010
1000
0010
1000
0010
1000
0010
,
1000
0010
1000
0010
0100
0001
0100
0001
,
0100
0001
0100
0001
0200
0000
0000
0000
,
0000
0000
0000
0000
,
0000
0000
0000
0000
,
0000
0000
0000
0000
,
0000
0000
0000
0000
,
0000
0000
0000
0000
,
0000
0000
0300
0100
,
0010
0000
0000
0000
1000
0000
0010
1000
0100
0000
0002
0000
0003
0000
0100
0000
,
1000
0020
0000
0000
0000
0000
0030
0000
,
0010
0000
1000
0000
0001
0000
0010
0001
0100
0000
2000
0000
3000
0000
0100
0000
,
0001
0020
0000
0000
0000
0000
0000
0000
,
0130
0000
1000
0000
0011
0000
0000
0000
0001
1000
0010
0000
0000
0000
0100
0001
,
2000
0010
0010
3010
,
0100
0010
0100
0000
0010
0001
1000
0000
,
1002
0000
0100
0000
0100
0000
1003
0010
,
0100
0000
0010
0000
0010
0000
1000
0010
1000
0000
0002
0000
0000
0000
0013
0000
,
0100
2000
0000
0000
0010
0000
3010
0000
,
0001
0000
0100
0000
0010
0000
0100
0001
0100
0000
0020
0000
0000
0000
1030
0000
,
0001
0200
0000
0000
0001
0000
0301
0000
,
0001
0000
0010
0000
0011
0000
0000
0000
0010
0100
2000
0000
3000
0000
0010
0100
,
0002
1000
1000
0103
,
0010
0100
0010
0001
1000
0100
1000
0010
,
0100
0000
0001
0000
0010
0001
0010
0001
1000
0100
0010
0001
2000
0000
0000
0000
,
0000
0000
0000
0000
,
0000
0000
0000
0000
,
0000
0000
0000
0000
,
0000
0000
0000
0000
,
0000
0000
0000
0000
,
0000
0000
0000
3001
,
1000
0000
0100
0000
0010
0000
0001
0100
,
0001
2000
0000
3010
,
0100
0002
0010
0000
,
1003
0000
0000
0000
0010
1000
0010
1000
,
0100
0000
0010
0000
0001
0000
1000
0100
,
1000
0020
0000
0130
,
0001
2000
0010
0000
,
3001
0000
0000
0000
0010
0001
0010
0001
,
0100
0010
1010
0000
,
1000
0001
0200
0000
0300
0000
0001
0100
,
0020
0030
1000
0100
,
1000
0000
0001
0000
0100
0010
0100
0010
,
0100
0001
0011
0110
,
1100
0000
2000
3100
,
0010
0100
1000
0001
,
0100
0000
0010
0000
1000
0010
1000
0000
,
0001
0100
0001
0000
0010
0000
0010
0100
,
1000
0020
0000
0130
,
0001
2000
0010
0000
,
3001
0000
0000
0000
0100
1000
0100
1000
,
0100
0000
0010
0000
0001
0000
0100
0001
,
1000
0020
0000
1030
,
0001
0200
0010
0000
,
0301
0000
0000
0000
1000
0010
1000
0010
,
1000
0100
0011
0000
,
0010
0100
2000
0000
3000
0000
0010
0100
,
0002
1003
0010
0100
,
0001
0010
0100
0010
,
0001
1000
1100
0110
,
0011
0000
0100
0010
,
1000
0001
0010
0001
,
0100
0000
0010
0000
1000
0100
0010
0001
,
0100
0010
2000
0000
3000
0000
0001
1000
,
0001
0000
1000
0100
1000
0000
0010
0000
,
0100
0002
0003
0100
,
0001
0000
1000
0000
0010
0100
0010
0000
,
1000
0100
1000
0000
0200
0300
0020
0030
,
0001
0000
0200
0300
0020
0030
1000
0000
,
0200
0300
0020
0030
0001
0000
1000
0000
,
0100
0010
0001
0010
,
0100
0000
1000
0000
0010
0000
1000
0001
,
0100
0000
0001
1000
0010
0000
1000
0001
,
0010
0000
0001
1000
0100
0000
0010
0001
,
0010
0000
0100
1000
0100
0000
1000
0010
,
1000
0000
0001
0100
0002
0000
0023
0000
,
0230
2300
3020
2030
,
3002
0203
0320
2030
,
3002
0000
0023
0000
0130
0000
1000
0010
,
1000
0010
0100
0001
1000
0000
0010
1000
,
0000
0001
0100
0000
0010
0100
0000
0001
,
0010
0000
0100
1000
0100
0000
0000
0100
,
0010
0000
0000
0010
0001
0000
0100
0001
,
0100
0000
0010
1000
0010
0000
1000
0001
,
0100
0000
0010
0000
0100
0001
1000
0000
,
0010
0000
1000
0000
0100
0010
0001
1000
,
0100
0010
0001
1000
0100
1000
0001
0010
,
0100
1000
0010
0100
0002
0000
2003
0000
,
3020
0230
0302
2003
,
3200
0320
0032
2003
,
3020
0230
0302
0023
,
0230
0000
2300
0000
3001
0100
0001
0100
,
0001
0100
0001
0100
0010
0100
0010
0100
,
0010
0100
0010
0100
1000
0100
1000
0100
,
1000
0100
1000
0100
0010
0100
0010
0100
,
0010
1000
0010
1000
0001
0010
0001
0010
,
0001
0010
0001
0010
0100
1000
0100
1000
,
0100
1000
0100
1000
0200
0000
0320
0000
,
0032
2003
3100
0010
,
0011
2002
0000
0000
,
0000
0000
0000
0000
,
0000
3003
0000
0000
;
