#VERSION:0.83;
#TITLE:Sauna Pants;
#SUBTITLE:(The McMash Clan Remix);
#ARTIST:Rico Tubbs;
#TITLETRANSLIT:;
#SUBTITLETRANSLIT:;
#ARTISTTRANSLIT:;
#GENRE:;
#ORIGIN:;
#CREDIT:;
#BANNER:banner.png;
#BACKGROUND:background.png;
#PREVIEWVID:;
#JACKET:jacket.png;
#CDIMAGE:;
#DISCIMAGE:;
#LYRICSPATH:;
#CDTITLE:;
#MUSIC:Sauna Pants (The McMash Clan Remix).ogg;
#OFFSET:-0.254532;
#SAMPLESTART:68.844109;
#SAMPLELENGTH:13.714287;
#SELECTABLE:YES;
#DISPLAYBPM:140.000000;
#BPMS:0.000=140.000;
#STOPS:156.000=1.500,
164.500=0.107,
180.250=0.107,
228.000=0.107,
243.750=0.107,
249.500=0.643;
#DELAYS:;
#WARPS:;
#TIMESIGNATURES:0.000=4=4;
#TICKCOUNTS:0.000=4;
#COMBOS:0.000=1;
#SPEEDS:0.000=1.000=0.000=0;
#SCROLLS:0.000=1.000;
#FAKES:;
#LABELS:0.000=Song Start;
#BGCHANGES:;
#KEYSOUNDS:;
#ATTACKS:
;

//---------------dance-single - ----------------
#NOTEDATA:;
#CHARTNAME:;
#STEPSTYPE:dance-single;
#DESCRIPTION:;
#CHARTSTYLE:;
#DIFFICULTY:Challenge;
#METER:18;
#RADARVALUES:0.851491,1.074474,0.402451,0.471839,1.190005,859.000000,801.000000,58.000000,68.000000,0.000000,0.000000,0.000000,0.000000,0.000000,0.851491,1.074474,0.402451,0.471839,1.190005,859.000000,801.000000,58.000000,68.000000,0.000000,0.000000,0.000000,0.000000,0.000000;
#CREDIT:Daniel Van Eden;
#DISPLAYBPM:140.000000;
#NOTES:
// measure 0
0000
0000
0000
0000
,  // measure 1
0000
0000
0000
0000
,  // measure 2
0000
0000
0000
0000
,  // measure 3
0000
0000
0000
0000
,  // measure 4
0000
0000
0000
0000
,  // measure 5
0000
0000
0000
0000
,  // measure 6
0000
0000
0000
0000
,  // measure 7
0000
0000
0000
0000
,  // measure 8
0010
1000
0001
0000
1000
0000
0100
0000
0010
0001
1000
0000
0100
0000
1000
0000
,  // measure 9
0001
0100
0010
0000
1000
0000
0001
0000
1000
0100
0010
0000
0001
0000
1000
0000
,  // measure 10
0100
1000
0100
0000
0010
0000
0001
0000
0010
0001
0010
0000
0001
0000
0100
0000
,  // measure 11
0001
1000
0010
0000
1000
0000
0100
0000
1000
0100
0010
0000
1001
0000
0000
0000
,  // measure 12
0001
1000
0001
0000
0100
0000
0010
0000
0100
0001
1000
0000
0100
0000
0010
0000
,  // measure 13
0001
1000
0001
0000
1000
0000
0100
0000
1000
0010
1000
0000
0001
0100
0001
0100
,  // measure 14
0010
1000
0100
0000
0010
0000
0100
0000
0011
0000
0000
1100
0000
0000
1001
0000
,  // measure 15
1000
0001
0100
0000
0010
0000
1000
0000
0200
0000
0010
0000
0010
0000
0310
0000
,  // measure 16
0010
0000
0001
0000
1001
0000
1000
0000
0000
0010
1000
0010
0000
0100
0000
0100
,  // measure 17
0001
0000
1000
0000
1100
0000
0100
0000
1000
0010
0000
0010
0000
1000
0000
0000
,  // measure 18
0100
0000
0010
0000
0011
0000
0001
0000
0000
1000
0010
1000
0000
0100
0000
0100
,  // measure 19
0010
0000
0001
0000
0101
0000
0100
0000
0010
0100
0000
0001
0000
1000
0000
0000
,  // measure 20
0010
0000
0100
0000
0101
0000
0001
0000
0000
0010
0001
0010
0000
0100
0000
0100
,  // measure 21
1000
0000
0010
0000
1010
0000
1000
0000
0010
0100
0000
0100
0000
0001
0000
0000
,  // measure 22
0001
0000
0010
0000
1100
0000
1000
0000
0000
0010
1000
0010
0000
0100
0000
0100
,  // measure 23
0001
0000
1000
0000
1100
0000
0010
0000
0001
0010
0000
0010
0100
0010
0100
1000
,  // measure 24
0002
0000
0103
0000
0110
0000
1000
0000
0010
1000
0001
0100
0000
0010
0100
0010
,  // measure 25
0100
0000
0001
0000
0101
0000
0100
0000
0010
1000
0100
1000
0000
0100
0010
0001
,  // measure 26
1000
0000
0010
0000
1010
0000
1000
0000
0001
0010
0001
1000
0000
0100
1000
0100
,  // measure 27
0010
0000
0001
0000
0101
0000
0100
0000
0001
1000
0010
1000
0010
0100
0002
0000
,  // measure 28
1003
0000
0100
0000
1100
0000
1000
0000
0010
0100
0010
1000
0000
0001
1000
0100
,  // measure 29
0010
0000
0001
0000
0101
0000
0100
0000
0001
0010
0001
1000
0000
0100
1000
0100
,  // measure 30
0010
0000
0001
0000
1001
0000
1000
0000
0010
0100
0010
1000
0000
0001
0010
0100
,  // measure 31
1000
0000
0100
0000
0110
0000
0001
0000
1001
0000
2000
0000
3010
0100
0001
0000
,  // measure 32
1000
0000
0010
0000
1000
0010
0000
0010
0100
0010
0000
0010
1000
0100
0010
0000
,  // measure 33
0001
0000
0010
0000
0001
0010
0000
0010
0100
0010
0000
0010
0001
0100
0010
0000
,  // measure 34
1000
0000
0001
0000
1000
0100
0000
0100
1000
0010
0000
0010
1000
0001
0100
0001
,  // measure 35
1000
0000
0001
0000
1000
0001
0010
0001
0100
0010
0000
0010
1000
0001
0100
0000
,  // measure 36
0010
1000
0010
1000
0001
1000
0001
0100
,  // measure 37
0001
0010
0100
0010
0001
1000
0100
1000
,  // measure 38
0010
0000
1000
0000
0010
0000
1000
0000
0001
0000
0010
0000
0001
0000
1000
0000
0010
0100
0010
0100
0010
0100
0010
0000
1000
0000
0100
0000
0010
0000
0001
0000
,  // measure 39
0100
2002
0000
0000
3003
2200
0000
0000
,  // measure 40
3300
0000
0220
0000
0000
0000
0000
0000
0330
0000
0022
0000
0033
0000
1000
0100
,  // measure 41
0010
0000
0001
0100
0000
0000
0001
0000
1000
0000
0010
0000
1000
0000
0001
0000
1000
0000
0001
0000
0100
0000
0001
0000
1000
0000
0010
0000
1000
0000
0100
0000
,  // measure 42
0010
0001
0000
0001
0010
0001
1000
0001
1000
0100
1000
0001
0010
0100
0000
0100
,  // measure 43
1000
0000
0010
0000
1000
0001
0100
0000
0010
0000
1000
0000
0100
0000
0010
0000
0001
0000
0022
0000
0000
0000
0000
0000
0000
0000
0000
0000
0000
0000
0033
0000
,  // measure 44
0000
0001
0100
0001
0100
0001
0100
0001
0100
2020
0000
3030
0000
0001
1000
0010
,  // measure 45
1000
0001
0000
0000
0100
0000
1000
0000
0010
0000
1000
0000
0010
0000
0100
0000
0010
0000
1000
0000
0001
0000
0100
0000
0010
0000
0100
0000
0001
0000
1000
0000
,  // measure 46
0001
0000
0010
0000
0100
0000
1000
0000
0010
0000
0100
0010
0100
0000
0001
0000
1000
0000
0001
0000
1000
0000
0001
0000
1000
0000
0000
0000
0110
0000
0000
0000
,  // measure 47
0202
0000
0000
0000
0303
0000
0101
0000
1010
0000
0000
1100
0000
0000
1100
0000
,  // measure 48
0100
0010
0100
1000
0001
1000
0001
0100
0010
1000
0001
1000
0010
0100
0001
0010
,  // measure 49
0200
0000
0300
1000
0001
1000
0010
0100
0001
0001
0001
0010
0100
0010
0100
1000
,  // measure 50
2020
3030
0000
0220
0330
0000
0001
0100
0020
0000
0000
0000
0000
0000
0030
0000
,  // measure 51
2000
0000
0000
0000
3000
0000
0000
0000
0100
1000
0100
0000
0010
0000
0100
0000
0010
0000
0001
0000
0100
0000
0010
0000
1000
0000
0020
0000
2030
0000
3200
0000
,  // measure 52
0310
0000
0100
0010
0001
1000
0010
1000
0200
0000
0000
0020
0000
0000
0000
0000
,  // measure 53
0330
0000
1000
0000
1000
0000
1010
0000
0010
1000
0001
0000
0100
0100
0001
0000
,  // measure 54
0010
0000
0001
0000
0010
0000
0001
0000
1000
0000
0100
0000
1000
0000
0010
0000
1000
0001
1000
0001
1000
0001
1000
0001
0100
0000
0000
0000
0000
0000
0000
0000
,  // measure 55
0202
0000
0000
0303
0021
0031
0102
0103
,  // measure 56
0210
0000
0000
0000
0310
0000
0000
0000
1020
0000
0000
0000
1030
0000
0000
0000
2010
0000
0000
0000
3001
0000
0100
0010
1000
0000
0010
0000
0100
0000
0001
0000
,  // measure 57
0000
0010
0100
1000
0001
1000
0001
0010
0001
1000
0100
1000
0010
0100
0001
1000
,  // measure 58
0000
0000
0001
0000
1000
0000
0010
0000
1000
0000
0100
0000
1000
0000
0001
0000
0010
0100
0010
0000
0001
0000
1000
0000
0100
0000
0010
0000
0001
0000
0100
0000
,  // measure 59
0100
0010
0010
1000
1000
0001
0100
0220
0000
0000
0000
0000
0000
0330
0000
2020
,  // measure 60
0000
0000
0000
0000
0000
0000
0000
0000
0000
0000
3030
0000
0000
0000
2200
0000
0000
0000
3300
0000
0000
0000
0100
0000
1000
0000
0010
0000
0100
0001
0000
0000
,  // measure 61
0100
0000
0001
0000
1000
0000
0010
0000
1000
0000
0100
0000
1000
0010
1000
0010
1000
0010
1000
0010
0100
0000
0100
0000
0001
0000
0001
0000
1000
0000
1100
0000
,  // measure 62
0000
0000
0100
0010
0001
0000
0010
0000
0100
0000
1000
0000
1100
0000
0000
0000
1001
0000
0000
0000
0001
0000
0100
0000
0010
0000
0100
0000
0010
0000
0100
0000
,  // measure 63
0001
1000
0010
1000
0100
0010
0100
0010
0001
0000
1000
0100
0010
0100
0010
0100
,  // measure 64
1000
0000
0001
0000
0010
0000
0001
0000
0100
0000
0001
1000
0010
0000
0100
0000
0010
0000
1000
0000
0100
0000
0010
0000
0001
0000
1000
0100
1000
0000
0001
0000
,  // measure 65
0200
0320
0230
0301
1000
0001
0100
0010
0110
0000
0000
0101
0000
0000
1001
0000
,  // measure 66
1000
0010
1000
0010
0200
0000
0300
0000
0101
0000
0100
0010
1000
0001
1000
0100
,  // measure 67
0010
0100
1000
0010
0100
0010
0100
0001
1000
0000
0100
0010
0001
1000
0001
0100
,  // measure 68
0010
0000
0100
0000
0001
0000
1000
0000
0020
0000
0000
0000
0000
0000
0000
0000
1030
0000
0100
0000
0010
0000
0001
0000
1000
0000
0010
1000
0010
0000
0100
0000
,  // measure 69
0001
0000
0010
0001
0010
0000
0100
0000
1000
0000
0010
0000
1000
0000
0001
0000
0200
0000
0000
0000
0000
0000
0010
0000
0000
0000
0000
0000
0301
0000
0000
0000
,  // measure 70
0010
0000
0100
0000
1000
0000
0100
0010
0001
0000
1000
0000
0010
0000
0100
0000
0001
0000
0000
0000
1000
0000
0100
0000
1000
0000
0001
0000
1000
0000
0010
0000
,  // measure 71
0100
0001
0010
0001
1000
0001
0100
0010
1000
0000
0001
0100
0001
1000
0001
0010
,  // measure 72
0100
1000
0010
1000
0002
2003
3100
0010
0001
0010
0100
0010
0001
1000
0100
1000
,  // measure 73
0020
0230
0302
1003
0010
1000
0001
0010
2200
3300
0000
0202
0303
0000
0011
0000
,  // measure 74
2020
0000
0000
0000
0000
0000
0000
0000
0000
0000
0000
0000
3030
0000
0000
0000
2002
0000
0000
0000
3003
0000
0000
0000
0010
0100
0001
0000
1000
0000
0010
0000
,  // measure 75
1000
0100
1000
0001
0010
0001
0100
0010
1000
0000
0001
1000
0010
0100
0010
1000
,  // measure 76
0001
0000
0100
0000
0001
0000
0010
0000
0100
0000
0010
0000
0001
0000
1000
0000
0100
0000
0010
0000
0001
0000
0010
0000
0100
0000
1000
0001
0010
0000
0001
0000
,  // measure 77
0100
0000
0001
1000
0010
0000
1000
0000
0100
0000
0010
0000
0100
0000
0010
0000
0002
0000
0000
0000
0000
0000
2003
0000
0000
0000
0000
0000
3020
0000
0000
0000
,  // measure 78
0000
0230
0000
0000
0300
0000
0000
0000
2002
0000
0000
0000
0000
0000
0000
0000
,  // measure 79
0000
0000
0000
0000
,  // measure 80
0000
0000
0000
0000
,  // measure 81
0000
0000
3003
0000
;

//---------------dance-single - ----------------
#NOTEDATA:;
#CHARTNAME:;
#STEPSTYPE:dance-single;
#DESCRIPTION:;
#CHARTSTYLE:;
#DIFFICULTY:Hard;
#METER:16;
#RADARVALUES:0.781111,0.876545,0.374696,0.499594,1.023474,788.000000,734.000000,54.000000,72.000000,0.000000,0.000000,0.000000,0.000000,0.000000,0.781111,0.876545,0.374696,0.499594,1.023474,788.000000,734.000000,54.000000,72.000000,0.000000,0.000000,0.000000,0.000000,0.000000;
#CREDIT:Daniel Van Eden;
#DISPLAYBPM:140.000000;
#NOTES:
0000
0000
0000
0000
,
0000
0000
0000
0000
,
0000
0000
0000
0000
,
0000
0000
0000
0000
,
0000
0000
0000
0000
,
0000
0000
0000
0000
,
0000
0000
0000
0000
,
0000
0000
0000
0000
,
0010
1000
0001
0000
1000
0000
0100
0000
0010
0001
1000
0000
0100
0000
1000
0000
,
0001
0100
0010
0000
1000
0000
0001
0000
1000
0100
0010
0000
0001
0000
1000
0000
,
0100
1000
0100
0000
0010
0000
0001
0000
0010
0001
0010
0000
0001
0000
0100
0000
,
0001
1000
0010
0000
1000
0000
0100
0000
1000
0100
0010
0000
1001
0000
0000
0000
,
0001
1000
0001
0000
0100
0000
0010
0000
0100
0001
1000
0000
0100
0000
0010
0000
,
0001
1000
0001
0000
1000
0000
0100
0000
1000
0010
1000
0000
0001
0100
0001
0100
,
0010
1000
0100
0000
0010
0000
0100
0000
0011
0000
0000
1100
0000
0000
1001
0000
,
1000
0001
0100
0000
0010
0000
1000
0000
0200
0000
0010
0000
0010
0000
0310
0000
,
0010
0000
0001
0000
1001
0000
1000
0000
0000
0010
1000
0010
0000
0100
0000
0100
,
0001
0000
1000
0000
1100
0000
0100
0000
1000
0010
0000
0010
0000
1000
0000
0000
,
0100
0000
0010
0000
0011
0000
0001
0000
0000
1000
0010
1000
0000
0100
0000
0100
,
0010
0000
0001
0000
0101
0000
0100
0000
0010
0100
0000
0001
0000
1000
0000
0000
,
0010
0000
0100
0000
0101
0000
0001
0000
0000
0010
0001
0010
0000
0100
0000
0100
,
1000
0000
0010
0000
1010
0000
1000
0000
0010
0100
0000
0100
0000
0001
0000
0000
,
0001
0000
0010
0000
1100
0000
1000
0000
0000
0010
1000
0010
0000
0100
0000
0100
,
0001
0000
1000
0000
1100
0000
0010
0000
0001
0010
0000
0010
0100
0010
0100
1000
,
0002
0000
0103
0000
0110
0000
1000
0000
0010
1000
0001
0100
0000
0010
0100
0010
,
0100
0000
0001
0000
0101
0000
0100
0000
0010
1000
0100
1000
0000
0100
0010
0001
,
1000
0000
0010
0000
1010
0000
1000
0000
0001
0010
0001
1000
0000
0100
1000
0100
,
0010
0000
0001
0000
0101
0000
0100
0000
0001
1000
0010
1000
0010
0100
0002
0000
,
1003
0000
0100
0000
1100
0000
1000
0000
0010
0100
0010
1000
0000
0001
1000
0100
,
0010
0000
0001
0000
0101
0000
0100
0000
0001
0010
0001
1000
0000
0100
1000
0100
,
0010
0000
0001
0000
1001
0000
1000
0000
0010
0100
0010
1000
0000
0001
0010
0100
,
1000
0000
0100
0000
0110
0000
0001
0000
1001
0000
2000
0000
3010
0100
0001
0000
,
1000
0000
0010
0000
1000
0010
0000
0010
0100
0010
0000
0010
1000
0100
0010
0000
,
0001
0000
0010
0000
0001
0010
0000
0010
0100
0010
0000
0010
0001
0100
0010
0000
,
1000
0000
0001
0000
1000
0100
0000
0100
1000
0010
0000
0010
1000
0001
0100
0001
,
1000
0000
0001
0000
1000
0001
0010
0001
0100
0010
0000
0010
1000
0001
0100
0000
,
0010
1000
0010
1000
0001
1000
0001
0100
,
0001
0010
0100
0010
0001
1000
0100
1000
,
0010
1000
0010
1000
0001
0010
0001
1000
0010
0100
0010
0100
0001
0010
0100
1000
,
0100
2002
0000
0000
3003
2200
0000
0000
,
3300
0000
0220
0000
0000
0000
0000
0000
0330
0000
0022
0000
0033
0000
1000
0100
,
0010
0001
0000
0002
0003
1000
0100
1000
0001
1000
0001
1000
0010
1000
0100
0010
,
0001
0200
0300
0200
0300
0001
1000
0001
0010
0001
0010
0100
1000
0100
0000
0010
,
0001
0100
0010
1000
0100
0010
0001
1000
0100
0020
0000
0000
0000
0000
0000
0030
,
0000
0001
0100
0001
0100
0001
0100
0001
0100
0020
0000
0030
0000
1000
0100
1000
,
0010
0000
0200
0300
0001
1000
0010
1000
0100
1000
0100
0010
0001
1000
0001
1000
,
0010
1000
0100
0010
0001
0100
0010
1000
0001
1000
0001
1000
0001
0000
0110
0000
,
0202
0000
0000
0000
0303
0000
0101
0000
1010
0000
0000
1100
0000
0000
1100
0000
,
0100
0010
0100
1000
0001
1000
0001
0100
0010
1000
0001
1000
0010
0100
0001
0010
,
0200
0000
0000
0300
1000
0010
0100
0001
0020
0000
0030
0100
1000
0100
1000
0010
,
0100
0000
0000
0101
0000
0000
0011
0000
2200
0000
0000
0000
3300
0000
0000
0000
,
2000
0000
3000
0000
0100
1000
0100
0010
0001
1000
0001
1000
0010
0100
0010
0100
,
0020
0030
0020
0030
1000
0001
1000
0001
0200
0000
0000
0020
0000
0000
0000
0000
,
0330
0000
1000
0000
1000
0000
0010
0000
0010
1000
0001
0000
0100
0000
0001
0000
,
0011
0000
0000
1100
0000
0000
1010
0000
0000
0101
0000
0000
1001
0000
0000
0000
,
0202
0000
0000
0303
0022
0033
0202
0303
,
0220
0000
0330
0000
2020
0000
3030
0000
2002
0000
3003
0000
1000
0010
0100
0001
,
0000
0020
0030
0001
1000
0001
0010
0001
1000
0100
1000
0010
0100
0001
1000
0002
,
0003
0002
0003
0010
0100
1000
0010
0100
0010
0100
0001
1000
0100
0010
0001
0010
,
0100
1000
0001
0010
0100
1000
0100
0020
0000
0000
0000
0000
0000
0030
0000
0022
,
0000
0000
0000
0000
0000
0033
0000
2200
0000
3300
0000
0100
1000
0010
0100
0000
,
0002
0003
1000
0010
1000
0100
0010
0100
0010
0100
1000
0001
1000
0001
1000
0100
,
0000
0010
0001
0010
0100
1000
0100
0000
2000
3000
0002
0003
1000
0010
1000
0010
,
0100
0001
0100
0001
1000
0010
1000
0010
2000
3000
0002
0003
0010
0001
0010
0001
,
1000
0100
1000
0100
0010
0001
0010
0001
0100
0010
1000
0000
0001
1000
0001
1000
,
0010
0100
0010
1000
0001
1000
0100
0010
0001
0000
0000
0101
0000
0000
1001
0000
,
1000
0010
1000
0010
0200
0000
0300
0000
0002
0003
0200
0300
0010
1000
0100
0010
,
0100
1000
0010
0100
0010
0100
0001
1000
0200
0300
0020
0030
0001
1000
0001
0100
,
0010
0100
0001
1000
0020
0000
0000
0000
1030
0100
0010
0001
0000
1000
0010
1000
,
0000
0001
0010
0001
0000
1000
0100
1000
0001
0000
0000
0010
0000
0000
0001
0000
,
0000
0100
0000
0001
1000
0001
0010
0100
2000
3000
0200
0300
1000
0001
1000
0010
,
0100
0001
0010
0001
1000
0001
0100
0010
2000
3000
0002
0003
0100
0001
1000
0100
,
0010
0001
0100
0010
1000
0001
0100
0010
1000
0010
0100
0010
1000
0100
0010
0001
,
0100
0010
0100
0001
0010
0100
1000
0010
0100
0000
0000
1001
0000
0000
0011
0000
,
2020
0000
0000
0000
0000
0000
3030
0000
2002
0000
3003
0000
0010
0001
1000
0010
,
1000
0100
1000
0001
0010
0001
0100
0010
2000
3000
0002
0003
0010
0100
0010
0001
,
1000
0100
1000
0010
0100
0010
1000
0001
0100
0010
1000
0001
0010
0100
1000
0100
,
0010
0001
0010
0001
1000
0100
1000
0010
0100
0000
0000
0001
0000
0000
0010
0000
,
0000
0100
0000
0000
0000
0000
0000
0000
2002
0000
0000
0000
0000
0000
0000
0000
,
0000
0000
0000
0000
,
0000
0000
0000
0000
,
0000
0000
3003
0000
;

//---------------dance-single - ----------------
#NOTEDATA:;
#CHARTNAME:;
#STEPSTYPE:dance-single;
#DESCRIPTION:;
#CHARTSTYLE:;
#DIFFICULTY:Medium;
#METER:12;
#RADARVALUES:0.456970,0.537237,0.166531,0.277552,0.305307,461.000000,437.000000,24.000000,40.000000,0.000000,0.000000,0.000000,0.000000,0.000000,0.456970,0.537237,0.166531,0.277552,0.305307,461.000000,437.000000,24.000000,40.000000,0.000000,0.000000,0.000000,0.000000,0.000000;
#CREDIT:Daniel Van Eden;
#DISPLAYBPM:140.000000;
#NOTES:
0000
0000
0000
0000
,
0000
0000
0000
0000
,
0000
0000
0000
0000
,
0000
0000
0000
0000
,
0000
0000
0000
0000
,
0000
0000
0000
0000
,
0000
0000
0000
0000
,
0000
0000
0000
0000
,
0010
0001
0010
0000
0001
1000
0001
0000
,
1000
0010
1000
0000
0100
0010
0100
0000
,
1000
0100
1000
0000
0001
1000
0001
0000
,
0010
0001
0010
0000
0010
0100
1001
0000
,
1000
0010
1000
0001
1000
0100
0010
0000
,
0001
0010
0001
1000
0001
0100
0010
0000
,
1000
0000
0100
0000
0010
0000
0100
0000
0010
0000
0000
0010
0000
0000
0010
0000
,
0001
0100
0010
1000
0002
0000
0003
0000
,
0000
0000
1000
0000
0010
0000
1000
0000
0000
0001
0000
1000
0000
0001
0000
0001
,
0000
0000
0010
0000
0001
0000
0010
0000
0001
0100
0000
0100
0000
0010
0000
0000
,
0000
0000
1000
0000
0001
0000
1000
0000
0000
0001
0000
0010
0000
0100
0000
0100
,
0000
0000
0010
0000
0001
0000
0010
0000
0100
0010
0000
0010
0000
0001
0000
0000
,
0000
0000
1000
0000
0100
0000
1000
0000
0000
0010
0000
1000
0000
0010
0000
0100
,
0000
0000
0001
0000
0100
0000
0001
0000
1000
0100
0000
0100
0000
0010
0000
0000
,
0000
0000
0010
0000
0100
0000
0010
0000
0000
0001
0000
0100
0000
0010
0000
0010
,
0000
1000
0100
1000
0010
0100
0010
0000
,
1000
0010
0100
0010
1000
0100
0010
0000
,
0001
0010
0001
0100
0010
0100
0001
1000
,
0010
1000
0100
0010
0001
1000
0100
0000
,
1000
0010
1000
0100
0010
0100
1000
0000
,
0010
1000
0001
1000
0100
0010
0001
0000
,
0001
0100
0001
0010
0100
1000
0100
0000
,
0100
1000
0010
1000
0001
0100
0010
0000
,
0010
0100
0001
0100
0010
1000
0100
0000
,
0010
0000
0011
0000
0001
1000
0100
0000
,
1000
0000
1010
0000
0100
0001
1000
0000
,
0010
0000
1100
0000
0010
0100
0010
0000
,
0001
0000
0101
0000
0100
0001
1000
0000
,
0001
0100
1000
0000
0100
0001
1000
0000
,
0010
0001
0010
0000
1000
0100
1000
0000
,
1000
0010
0100
0001
0100
0010
1000
0100
,
1001
0020
0000
0000
0030
2002
0000
0000
,
3003
0200
0000
0000
0300
0022
0000
0033
,
0000
0000
0000
1000
0000
0001
0000
0100
0000
0001
0000
0100
0000
0001
0000
0100
,
0000
0010
0000
1000
0000
0001
0000
0100
0000
0001
0000
0100
0000
0001
0000
0010
,
0000
0200
0000
0000
0000
0000
0000
0000
0000
2300
0000
0000
0000
0000
0000
3000
,
0000
0010
1000
0010
1000
0010
1000
0010
1000
0002
0000
0000
0000
0000
0003
0000
,
0000
0001
1000
0010
0100
0010
0100
0010
,
1000
0100
0010
0001
1000
1000
1000
0000
,
0110
0000
0000
0000
0000
0000
0100
0000
0001
0000
0000
0001
0000
0000
0010
0000
,
0100
0000
0000
1000
0000
0000
1000
0000
0010
0000
0000
1000
0000
0000
0001
0000
,
0100
0000
0000
0010
0000
0000
0010
0000
0100
0000
0000
0001
0000
0000
0010
0000
,
0100
0000
0000
1000
0000
0000
1000
0000
2002
0000
0000
0000
0000
0000
3003
0000
,
0020
0000
0030
0000
0100
0010
0100
0010
,
0001
0000
1000
0000
0001
0000
0010
0000
0100
0000
0000
1100
0000
0000
0000
0000
,
0000
0000
1000
0000
0010
0000
1000
0000
0000
0001
0000
0100
0000
0001
0000
0020
,
0100
0000
0000
0100
0000
0000
0130
0000
0000
1010
0000
0000
0101
0000
0000
0000
,
2002
3003
0002
0203
,
0320
2030
3002
0003
,
0000
1000
0000
0100
0000
0010
0000
0100
0000
0010
0000
0100
0000
0010
0000
0001
,
0000
0100
0000
0010
0000
1000
0000
0100
0000
1000
0000
0010
0000
1000
0000
0020
,
0000
0000
0000
0000
0000
0030
0000
2200
0000
0000
0000
0000
0000
3300
0000
0020
,
0000
0000
0000
0000
0000
0030
0000
0202
0000
0000
0000
0303
0000
0000
0000
0000
,
0010
0000
0100
0000
0001
0000
0100
0000
0010
0000
1000
0000
0100
0000
0010
0001
,
0000
0001
0100
0000
0010
0000
1000
0000
0010
0000
1000
0000
0001
0000
1000
0000
,
0100
0010
0001
0010
0001
0001
0100
0010
,
0100
0010
1000
0001
0100
0010
0100
0001
,
0100
0000
0010
0000
1000
0000
0100
0000
0010
0000
0000
0011
0000
0000
1100
0000
,
1001
0000
0001
0100
0010
0100
0001
1000
,
0010
1000
0100
1000
0001
0010
0001
1000
,
0100
0010
0001
0000
2000
0000
3002
0000
,
0203
0000
0000
0000
0320
0000
0000
0000
2030
0000
0000
3001
0000
0000
0002
0000
,
0000
0103
0000
0000
0110
0000
0000
0000
0010
0000
1000
0000
0100
0000
1000
0000
,
0001
1000
0100
0010
0001
0010
0001
1000
,
0001
0100
0020
2030
3001
0100
0001
0010
,
0100
0000
1000
0000
0100
0000
0010
0000
0001
0000
0000
1100
0000
0000
0101
0000
,
2020
3030
0002
0003
,
1000
0001
0010
0001
0100
0100
0010
0100
,
0001
1000
0100
0010
0100
1000
0100
0010
,
0001
0000
0100
0000
0010
0000
1000
0000
0001
0000
0000
1000
0000
0000
0001
0000
,
0000
1000
0000
0000
0000
0000
0000
0000
0220
0000
0000
0000
0000
0000
0000
0000
,
0000
0000
0000
0000
,
0000
0000
0000
0000
,
0000
0000
0330
0000
;

//---------------dance-single - ----------------
#NOTEDATA:;
#CHARTNAME:;
#STEPSTYPE:dance-single;
#DESCRIPTION:;
#CHARTSTYLE:;
#DIFFICULTY:Easy;
#METER:8;
#RADARVALUES:0.305307,0.367583,0.083266,0.270613,0.104082,308.000000,296.000000,12.000000,39.000000,0.000000,0.000000,0.000000,0.000000,0.000000,0.305307,0.367583,0.083266,0.270613,0.104082,308.000000,296.000000,12.000000,39.000000,0.000000,0.000000,0.000000,0.000000,0.000000;
#CREDIT:Daniel Van Eden;
#DISPLAYBPM:140.000000;
#NOTES:
0000
0000
0000
0000
,
0000
0000
0000
0000
,
0000
0000
0000
0000
,
0000
0000
0000
0000
,
0000
0000
0000
0000
,
0000
0000
0000
0000
,
0000
0000
0000
0000
,
0000
0000
0000
0000
,
0010
1000
0001
0100
,
0001
0010
0100
0100
,
0010
0001
1000
0100
,
1000
0010
0100
0100
,
0001
1000
0010
1000
,
0001
0100
0001
0001
,
0010
0100
0220
0330
,
0010
0001
1100
0000
,
0010
1000
0010
0000
1000
0000
0001
0000
,
0100
0001
0100
0000
0001
0000
1000
0000
,
0001
0010
0001
0000
1000
0000
0001
0000
,
1000
0100
1000
0000
0001
0000
1000
0000
,
0010
0100
0010
0000
1000
0000
0001
0000
,
1000
0001
1000
0000
0001
0000
0010
0000
,
0100
0010
0100
0000
0010
0000
0001
0000
,
1000
0100
1000
0000
0010
0000
1000
0000
,
0010
0000
1000
0000
0001
1000
0001
0000
,
0100
0000
0010
0000
1000
0010
1000
0000
,
0001
0000
0100
0000
0010
0100
0010
0000
,
0001
0000
1000
0000
0001
0010
0001
0000
,
0020
0000
0130
0000
0100
1000
0100
0000
,
0020
0000
0031
0000
0100
0001
0100
0000
,
0020
0000
1030
0000
0001
0100
0001
0000
,
0020
0130
1000
0001
,
1001
1000
0001
0001
,
1010
0010
0100
0100
,
0101
0001
1000
1000
,
1010
0010
1000
1000
,
1100
0100
0010
0001
,
1000
0100
0010
0001
,
1000
0001
1000
0001
1000
0001
1000
0001
,
1000
0020
0000
0030
0000
2000
0000
0000
,
0000
3200
0000
0000
0000
0320
0000
0030
,
0000
0000
0000
0001
0000
1000
0000
0000
0000
1000
0000
0001
0000
1000
0000
0000
,
0000
0010
0000
0000
0000
1000
0000
0000
0000
1000
0000
0001
0000
1000
0000
0000
,
0000
0200
0000
0000
0000
0000
0000
0000
0000
0320
0000
0000
0000
0000
0000
0000
,
0000
0032
0000
0000
0000
0000
0000
0000
0000
2003
0000
0000
0000
0000
3000
0000
,
0000
0001
0100
0000
0100
0001
0100
0000
,
0001
0000
1000
0000
0010
0010
0010
0000
,
2002
3003
0200
0000
,
0310
0000
1000
0000
0010
1000
0010
0000
,
1000
0001
1000
0100
,
0010
0000
0000
0010
0000
0000
0010
0000
0002
0000
0000
0000
0000
0000
0000
0000
,
2003
0000
3000
0000
0100
1000
0100
0000
,
0010
0000
0010
0000
0001
0100
0001
0000
,
1000
0010
1000
0001
,
0200
0000
0000
0320
0000
0000
1030
0000
,
0202
0000
0000
0303
2000
0000
3200
0000
,
0320
0032
2003
3000
,
0000
0010
0000
0100
0000
0000
0000
0100
0000
0010
0000
0100
0000
0000
0000
0001
,
0000
0000
0000
1000
0000
0000
0000
0010
0000
1000
0000
0010
0000
0000
0000
2000
,
0000
0000
0000
0000
0000
0000
0000
3002
0000
0000
0000
0000
0000
0000
0000
0023
,
0000
0000
0000
0000
0000
0000
0000
0230
0000
0000
0000
0300
0000
0000
0000
0000
,
0001
0010
0000
0001
0010
0001
0000
1000
,
0000
0010
0000
1001
1000
0000
0010
0000
,
0100
0000
0001
1000
0001
0000
0010
0000
,
0100
0000
0010
0000
0001
0001
1000
0000
,
0100
0100
1000
0000
0010
0000
1000
0000
,
1001
0000
0010
0001
,
1000
0000
0100
0010
0100
0000
1000
0000
,
0010
1000
0001
0100
,
0010
0000
1000
0000
0002
0000
0000
2003
,
0000
3001
0010
0100
,
1000
0000
0001
0010
0001
0000
0100
0000
,
0010
1000
0001
0010
,
0100
0000
0000
0000
0010
0000
0000
0000
0001
0000
0000
0001
0000
0000
0001
0000
,
1000
0000
0020
0000
,
1030
0000
0001
0000
0100
0010
0100
0000
,
0001
1000
0001
0000
0010
0000
0100
0000
,
1000
0000
0010
0000
2000
0000
0000
3002
,
0000
0003
2002
0000
,
0000
0000
0000
0000
,
0000
0000
0000
0000
,
0000
0000
3003
0000
;

//---------------dance-single - ----------------
#NOTEDATA:;
#CHARTNAME:;
#STEPSTYPE:dance-single;
#DESCRIPTION:;
#CHARTSTYLE:;
#DIFFICULTY:Beginner;
#METER:6;
#RADARVALUES:0.243849,0.367583,0.076327,0.138776,0.083266,246.000000,235.000000,11.000000,20.000000,0.000000,0.000000,0.000000,0.000000,0.000000,0.243849,0.367583,0.076327,0.138776,0.083266,246.000000,235.000000,11.000000,20.000000,0.000000,0.000000,0.000000,0.000000,0.000000;
#CREDIT:Daniel Van Eden;
#DISPLAYBPM:140.000000;
#NOTES:
0000
0000
0000
0000
,
0000
0000
0000
0000
,
0000
0000
0000
0000
,
0000
0000
0000
0000
,
0000
0000
0000
0000
,
0000
0000
0000
0000
,
0000
0000
0000
0000
,
0000
0000
0000
0000
,
0010
0010
1000
0000
,
1000
1000
0010
0000
,
1000
1000
0001
0000
,
0001
0001
1000
0000
,
0001
0010
0001
0000
,
1000
0100
1000
0000
,
0010
1000
0010
0000
,
0100
0100
0010
1000
,
0001
0001
1000
0000
,
1000
1000
0010
1000
,
0001
0001
0100
0000
,
0010
0010
0100
0001
,
0010
0010
0100
0000
,
1000
1000
0100
0010
,
0001
0001
1000
0000
,
0010
0010
1000
0001
,
1000
1000
0100
0000
,
0010
0010
0001
0100
,
0010
0010
1000
0000
,
0001
0001
0000
1000
,
0100
0010
0010
0010
,
0000
0100
0100
0100
,
0010
0001
0001
0001
,
0000
1000
1000
0010
,
1000
0001
1000
0000
,
0001
1000
0001
0100
,
0001
1000
0010
0000
,
1000
0001
1000
0100
,
0010
0100
0010
0000
,
0001
0010
0100
1000
,
0010
0010
0010
0010
,
1001
1000
0000
0000
0000
0002
0000
0000
,
0000
2003
0000
0000
0000
3002
0000
0003
,
0000
0000
0000
0000
0000
0100
0000
0000
0000
0100
0000
0000
0000
0100
0000
0000
,
0000
0010
0000
0010
0000
0100
0000
0000
0000
0100
0000
0000
0000
0100
0000
0000
,
0000
2000
0000
0000
0000
0000
0000
0000
0000
3020
0000
0000
0000
0000
0000
0000
,
0000
0230
0000
0000
0000
0000
0000
0000
0000
0302
0000
0000
0000
0003
0000
0000
,
0000
1000
0010
1000
,
0002
0000
0003
0000
1000
1000
1000
0000
,
0020
0030
1000
1000
,
0001
0000
0100
0010
,
0200
0301
0200
0301
,
0010
0010
0010
0000
,
2000
3000
0001
0001
,
0010
0010
0001
0000
0200
0000
0300
0000
,
0010
0000
1000
0000
,
0001
0000
0000
1000
0000
0000
0001
0000
,
1001
0000
1001
1001
,
1001
1001
0110
0000
,
0000
0000
0000
0001
0000
0000
0000
0001
0000
0000
0000
0001
0000
0000
0000
1000
,
0000
1000
0000
0001
0000
0000
0000
0001
0000
0000
0000
0010
0000
0000
0000
0020
,
0000
0000
0000
0000
0000
0000
0000
0230
0000
0000
0000
0000
0000
0000
0000
2300
,
0000
0000
0000
0000
0000
0000
0000
3002
0000
0000
0000
0003
0000
0000
0000
0000
,
0000
0010
0000
0100
0000
1000
0000
1000
,
0000
0000
0000
1001
0001
0000
0100
0000
,
0001
0001
1000
0100
,
1000
1000
0001
0001
,
1000
1000
0001
0010
,
0110
0000
1000
0010
,
1000
1000
0001
0010
,
0001
0001
0010
0001
,
1000
0000
0100
0000
0010
0000
0000
0001
,
0000
0000
1000
0010
,
0010
0000
0010
0000
1000
1000
0010
0000
,
0010
0010
1000
0000
,
0001
0000
0100
0100
,
0110
0000
0002
0003
,
0010
0000
0010
0000
0001
0001
0010
0000
,
0010
0010
0100
1000
,
0001
0000
0010
0000
0100
0000
0000
0010
,
0000
0000
2002
0000
,
0000
0000
0000
0000
,
0000
0000
0000
0000
,
0000
0000
3003
0000
;
