#TITLE:Put Your Faith In Me 96;
#SUBTITLE:;
#ARTIST:UZI-LAY;
#TITLETRANSLIT:;
#SUBTITLETRANSLIT:;
#ARTISTTRANSLIT:;
#GENRE:;
#CREDIT:;
#BANNER:Put Your Faith In Me 96.png;
#BACKGROUND:Put Your Faith In Me 96-bg.png;
#LYRICSPATH:;
#CDTITLE:;
#MUSIC:Put Your Faith In Me 96.ogg;
#OFFSET:-0.001996;
#SAMPLESTART:11.908293;
#SAMPLELENGTH:20.000000;
#SELECTABLE:YES;
#BPMS:0.000000=96.000000
;
#STOPS:
;
#BGCHANGES:;
#KEYSOUNDS:;
#ATTACKS:;

//---------------dance-single - ----------------
#NOTES:
     dance-single:
     :
     Challenge:
     12:
     0.500000,0.532330,0.218182,0.063636,0.545455,385.000000,361.000000,24.000000,7.000000,0.000000,0.000000,0.500000,0.532330,0.218182,0.063636,0.545455,385.000000,361.000000,24.000000,7.000000,0.000000,0.000000:
// measure 0
0000
0000
0000
0000
,  // measure 1
0000
0000
0000
0000
,  // measure 2
0000
0000
0000
0000
,  // measure 3
0000
0000
0000
0000
,  // measure 4
0000
0000
0000
0000
0000
0000
1000
0001
,  // measure 5
1001
0000
0100
0000
1000
0000
0000
0000
0100
0000
0010
0000
0001
1000
0000
0010
,  // measure 6
0000
0010
1000
0010
0001
0010
1000
0001
,  // measure 7
0100
0001
0000
1000
0001
0000
0100
0000
1000
0000
0100
0000
0001
1000
0000
0100
,  // measure 8
0010
0000
0001
0000
1000
0000
0001
0010
0001
0000
1000
0000
0010
0100
0001
0000
,  // measure 9
0110
0000
1001
0000
0010
0000
0000
0000
0100
0000
0001
0000
1000
0010
0000
0010
,  // measure 10
1000
0000
0001
0000
0001
0000
1000
0010
1000
0000
0010
0000
0100
0001
1000
0000
,  // measure 11
0001
0010
0000
0001
1000
0000
0100
0000
0001
0000
0100
0000
1000
0010
0000
0100
,  // measure 12
0001
0000
1000
0000
1010
0000
0010
1000
0001
0000
0011
0000
0010
0100
1000
0000
,  // measure 13
0001
1000
0001
0000
1000
0000
0010
0000
1000
0001
0000
0010
0000
0010
0000
0000
,  // measure 14
0001
0010
0001
1000
0000
1000
0010
1000
0001
0000
1000
0100
0000
0100
0000
0000
,  // measure 15
1000
0001
0000
0001
0000
0010
0000
1000
0010
0001
0000
1000
0000
1000
0000
0010
,  // measure 16
0100
0000
0100
0001
0000
0100
0000
1000
0100
0001
1000
0000
0101
0000
1000
0000
,  // measure 17
0100
0000
0011
0000
0001
1000
0100
1000
0000
0001
0100
0001
0000
1000
0000
0000
,  // measure 18
0010
1000
0001
0100
0000
0010
0000
0010
0000
0100
0001
1000
0000
0100
0000
0000
,  // measure 19
0010
0100
1000
0000
1001
0000
0001
0100
0010
0000
1000
0001
0000
1000
0100
1000
,  // measure 20
0010
0000
0100
0000
1001
0000
0001
0100
0001
1000
0010
0100
0010
0000
1000
0000
,  // measure 21
0011
0000
0020
0032
0103
0000
0110
0010
,  // measure 22
0100
0010
1000
0000
0001
0000
0010
0000
0001
1000
0001
0010
0001
0100
0010
0000
,  // measure 23
1010
0000
0020
2030
3100
0000
0110
0010
,  // measure 24
0100
0010
0001
2000
0000
0000
0000
0000
3000
0000
0010
1000
0010
0100
0001
0000
,  // measure 25
1001
0000
1000
0010
0000
0000
0100
0010
0100
0001
1000
0000
0001
0000
0010
0000
,  // measure 26
0001
0000
0100
0001
1000
0001
1000
0100
0010
0001
1000
0000
0001
1000
0010
0000
,  // measure 27
0100
0000
0001
0100
0001
0000
0010
0100
0010
0001
1000
0000
0100
1000
0010
0000
,  // measure 28
0100
0000
0001
0000
1001
0000
1000
0010
0100
0010
0100
0000
0010
0100
0001
0000
,  // measure 29
0011
0000
1100
0000
0001
0000
1000
0010
1000
0000
1000
0001
0000
0000
0100
0000
,  // measure 30
0010
0000
0000
0100
0000
0000
0010
0000
0000
1000
0000
0000
0001
0000
0000
0000
1000
0000
0000
0000
0100
0000
0000
0000
0010
0000
0000
0000
0000
0000
0001
0000
0000
0000
0000
0000
1000
0000
0000
0001
0000
0000
0000
0000
0000
0001
0000
0000
,  // measure 31
1000
0010
1000
0001
0000
0100
0000
0100
0000
0010
0100
0000
0001
0000
1000
0000
,  // measure 32
1100
0000
0100
0000
0010
0010
0100
0010
0001
1000
0001
0010
0100
0000
1000
0000
,  // measure 33
0102
0000
0000
0000
0000
0000
0000
0000
0103
0100
0010
0100
0001
0000
1000
0000
,  // measure 34
1001
0000
0010
0000
0001
0000
0000
0000
0010
0000
0100
0000
1000
0001
0000
0100
,  // measure 35
0000
0100
0001
0100
1000
0100
0001
1000
,  // measure 36
0010
1000
0000
0001
1000
0000
0010
0000
0001
0000
0010
0000
1000
0001
0000
0010
,  // measure 37
0100
0000
1000
0000
0001
0000
1000
0100
1000
0000
0001
0000
0100
0010
1000
0000
,  // measure 38
0110
0000
1001
0000
0100
0000
0000
0000
0010
0000
1000
0000
0001
0100
0000
0100
,  // measure 39
0001
0000
1000
0000
1000
0000
0001
0100
0001
0000
0100
0000
0010
1000
0001
0000
,  // measure 40
1000
0100
0000
1000
0001
0000
0010
0000
1000
0000
0010
0000
0001
0100
0000
0010
,  // measure 41
1000
0000
0001
0000
0101
0000
0100
0001
1000
0000
1100
0000
0100
0010
0001
0000
,  // measure 42
0200
0000
0000
0000
,  // measure 43
0000
0000
0000
0300
0000
0000
0000
0000
;
