#TITLE:Pharm of Charm;
#SUBTITLE:;
#ARTIST:Sampling Masters MEGA;
#TITLETRANSLIT:;
#SUBTITLETRANSLIT:;
#ARTISTTRANSLIT:;
#GENRE:;
#CREDIT:;
#BANNER:banner.png;
#BACKGROUND:background.png;
#LYRICSPATH:;
#CDTITLE:;
#MUSIC:Pharm of Charm.ogg;
#OFFSET:0.562576;
#SAMPLESTART:9.740624;
#SAMPLELENGTH:19.142857;
#SELECTABLE:YES;
#BPMS:0.000000=210.000000
,132.000000=105.000000
,132.250000=210.000000
,211.750000=105.000000
,212.000000=210.000000
,228.500000=105.000000
,229.000000=210.000000
,232.000000=105.000000
,264.000000=210.000000
;
#STOPS:99.750000=0.857000
;
#BGCHANGES:;
#KEYSOUNDS:;
#ATTACKS:;

//---------------dance-single - ----------------
#NOTES:
     dance-single:
     :
     Challenge:
     16:
     0.911671,1.341632,0.727815,0.213019,1.056219,719.000000,637.000000,82.000000,24.000000,0.000000,0.000000,0.911671,1.341632,0.727815,0.213019,1.056219,719.000000,637.000000,82.000000,24.000000,0.000000,0.000000:
0000
0000
0000
0000
,
0000
0000
0000
0000
,
0000
0000
0000
0000
,
0000
0000
0000
0000
,
0000
0000
0000
0000
,
0000
0000
0000
0000
,
0000
0000
0000
0000
,
0000
0000
0000
0000
,
0000
0000
0000
0000
,
1000
0001
0100
1000
0100
0001
0010
0100
,
1100
0000
0001
1000
0001
1000
0100
0100
,
0011
0200
0300
1010
0200
0300
0010
1000
,
0100
0010
0001
0100
0010
1000
0100
0010
,
0001
1000
0100
0001
0100
1000
0010
0100
,
0101
0000
0001
1000
0010
1000
0001
0001
,
0101
2000
3000
1100
0002
0003
0001
1000
,
0010
0000
1000
0000
0001
0000
0100
0000
0010
0000
1000
0000
0100
0010
0100
0010
,
0001
0000
1000
0100
1000
0000
0010
0000
1000
0000
0001
0000
0100
0000
0010
0000
,
0100
0000
0001
0010
0001
0000
1000
0000
0001
0000
0100
0000
0010
1000
0010
1000
,
0001
0000
1010
1000
0001
1000
0100
0010
,
0001
0000
1000
0000
0001
0000
1000
0000
0100
0010
0100
0010
0100
0010
0100
0010
,
0001
0000
1000
0010
1000
0000
0001
0000
0010
0000
0100
0000
0010
0000
0001
0000
,
1000
0000
0001
0100
0001
0000
1000
0000
0010
0000
0100
0000
0001
1000
0001
1000
,
0010
0000
0101
0100
0010
1000
0100
0010
,
0100
0010
0001
1000
0100
0010
0001
0100
,
0000
0000
0010
1000
0001
0010
0001
1000
,
0100
0010
0011
0000
0010
0100
1000
0100
,
0010
0010
0101
0020
0030
1100
0020
0030
,
0001
0000
0000
0100
0000
0000
0010
0000
1000
0000
0100
0000
0010
0000
0001
0000
0100
0000
0010
0000
0100
0000
0001
0000
,
0010
0000
0100
0000
1000
0000
0010
0000
0000
1000
0000
0000
0001
0000
0000
0010
0000
0000
0001
0000
0000
0100
0000
0000
,
0010
1000
1100
0000
0100
1000
0010
0100
,
0010
1000
1100
0002
0003
0011
2000
3000
,
0100
0100
0010
0001
0100
0010
1000
0100
,
0020
0030
0000
0010
0000
0001
1000
0001
0000
0100
0000
0010
0000
0100
0000
0001
,
0000
1000
0000
0010
0000
1000
0001
1000
0000
0100
0000
0010
0000
0100
0000
1000
,
0010
1000
0010
0100
0000
0001
0000
0100
0000
0010
0000
1000
0000
0100
0000
0010
,
0000
0001
0000
0010
0000
0100
0000
0010
0000
0100
0000
1000
0001
1000
0001
1000
,
0001
1000
0001
0100
0000
0010
1000
0010
0000
0100
0000
0001
0000
0010
0000
0001
,
0000
1000
0000
0100
0000
0010
0001
0010
0000
0001
0000
0100
0000
0010
0000
1000
,
0001
1000
0001
0010
0000
0100
0000
1000
0000
0001
0000
0010
0000
0100
0000
0010
,
0000
0001
0000
0100
0000
0010
0000
1000
0000
0100
0000
0010
0000
0001
0000
0100
,
0000
0010
0000
1000
0000
0010
0000
0100
0000
0010
0000
1000
0000
0010
0000
0100
,
0000
0000
0000
0101
0000
0001
0000
0000
0000
1100
0000
1000
0000
0000
0000
0110
,
0000
0000
0000
1000
0000
0010
1000
0010
0000
0100
0000
0001
0000
0100
0001
0100
,
0000
0001
0000
0010
0001
0010
0001
0010
0000
0100
0000
1000
0000
0001
0000
0100
,
0001
1000
0010
0100
0000
0001
0000
0100
0000
1000
0000
0000
0000
1000
0000
0100
,
0000
0001
0000
0010
0000
0000
0000
0010
0000
0110
0000
0000
0000
0100
0000
1010
,
0000
1000
0000
1001
0000
0001
0000
0010
0000
1000
0000
0000
0000
1000
0000
0010
,
0000
0001
0000
0100
0000
0000
0000
0001
0000
0100
0000
0020
0000
2030
0000
3001
,
0000
0000
0000
0001
0000
0100
0000
0110
0000
0000
0000
1000
0000
0001
0000
0101
,
0000
0000
0000
0010
0000
0001
0000
0011
0000
0010
0000
0100
0000
1000
0000
1010
,
0000
0100
0000
0001
0000
0100
0010
1000
0000
0100
0000
1000
0000
0010
0100
0001
,
0000
1000
0000
0100
0010
0001
0010
0100
0000
1000
0000
0010
0000
1000
0000
0002
,
0003
0001
1000
0010
0100
0000
0100
0010
,
1000
0100
0000
0010
0011
0000
0001
0101
,
0100
0110
0010
1000
0001
0000
0001
0100
,
0010
0110
0000
1000
0100
0020
0032
2003
,
3200
0300
0000
0001
2002
0000
3003
0000
,
0101
0000
1000
0010
0100
0010
0000
0010
1000
0000
0010
0100
0001
0010
0000
0000
,
1100
0000
0100
1000
0010
1000
0000
0101
0000
1001
0000
1000
0010
0100
0000
0000
,
0011
0000
0000
0000
0000
0000
0001
0000
0000
0010
0000
0000
0100
0000
0000
1000
0000
0000
0000
0000
0000
1000
0000
0000
0100
0000
0000
0000
0011
0000
0000
0000
1001
0000
0000
0000
0100
0000
0000
0000
1010
0000
0000
0000
1001
0000
0000
0000
,
0101
0000
0000
0000
0000
0000
0100
0000
0000
0010
0000
0000
0100
0000
0000
0001
0000
0000
0000
0000
0000
0001
0000
0000
1000
0000
0000
0000
0100
0000
0010
0000
0100
0000
0010
0000
0001
0000
0000
0000
0100
0000
0010
0000
0100
0000
0010
0000
,
1000
0000
0001
0010
0001
0100
0000
0100
0010
0000
1000
0010
0100
0001
0000
0000
,
1010
0000
1000
0001
1000
0100
0000
0011
0000
0101
0000
0100
0010
0100
0000
0000
,
1001
0000
0000
0000
0000
0000
0001
0000
0000
0010
0000
0000
0001
0000
0000
1000
0000
0000
0000
0000
0000
1000
0000
0000
0010
0000
0000
0000
0110
0000
0000
0000
0101
0000
0000
0000
0010
0000
0000
0000
0110
0000
0000
0000
1100
0000
0000
0000
,
1001
0000
0000
0000
0000
0000
1000
0000
0000
0100
0000
0000
0010
0000
0000
0100
0000
0000
0000
0000
0000
0100
0000
0000
1000
0000
0000
0000
1000
0000
0100
0000
0010
0000
0001
0000
0100
0000
0000
0000
0000
0000
0020
0000
0000
2030
0000
0000
,
3001
0000
0101
0100
0110
0000
1010
0000
,
1001
0000
1001
0000
0110
0000
0110
0010
,
1010
0000
1100
1000
1001
0000
0011
0000
,
0001
0100
0001
0100
0010
0000
0010
0000
,
1010
0000
1100
0100
0110
0000
0011
0000
,
1001
0000
1001
0000
0110
0000
0110
0100
,
0101
0000
0011
0001
1001
0000
1100
0000
,
0010
0001
0010
0100
2000
3001
2000
3001
,
0100
0000
0001
0000
0010
0000
0100
0000
1000
0000
0010
0000
0000
0000
0000
0100
0000
0000
1001
0000
0000
1000
0000
0000
,
0010
0000
1000
0100
0010
0000
0001
0000
1000
0000
0001
0000
0010
0000
0100
0000
,
1000
0000
0001
0100
0010
0000
1000
0000
0001
0000
1000
0000
0010
0100
0001
1000
,
0010
1000
0001
0010
0001
1000
0100
1000
,
0010
0000
0100
0000
0010
0000
0100
0000
0010
1000
0010
1000
0001
0100
0001
0100
,
0010
0000
1000
0001
0100
0000
0001
0000
0010
0000
0001
0000
1000
0000
0001
0000
,
0010
0000
0001
1000
0100
0000
1000
0000
0010
0000
0100
0000
0001
0100
0010
1000
,
0100
0010
0001
1000
0001
0010
0100
1000
,
0100
0001
0100
1000
0010
0001
0010
1000
,
1100
0100
0010
0011
0000
0010
0101
0101
,
0001
1010
0000
1000
0110
1000
1100
0100
,
0220
0000
0000
0000
0000
0000
0000
0000
0330
0000
0000
0000
0000
0000
0010
0100
,
1001
0000
0000
1001
0000
0000
0000
0000
;

//---------------dance-single - ----------------
#NOTES:
     dance-single:
     :
     Hard:
     13:
     0.623841,0.843311,0.248522,0.071006,0.678998,492.000000,464.000000,28.000000,8.000000,0.000000,0.000000,0.623841,0.843311,0.248522,0.071006,0.678998,492.000000,464.000000,28.000000,8.000000,0.000000,0.000000:
// measure 0
0000
0000
0000
0000
,  // measure 1
0000
0000
0000
0000
,  // measure 2
0000
0000
0000
0000
,  // measure 3
0000
0000
0000
0000
,  // measure 4
0000
0000
0000
0000
,  // measure 5
0000
0000
0000
0000
,  // measure 6
0000
0000
0000
0000
,  // measure 7
0000
0000
0000
0000
,  // measure 8
0000
0000
0000
0000
,  // measure 9
0010
0000
1000
0010
0000
0010
1000
0100
,  // measure 10
0010
0000
0010
0001
0000
0001
0100
0010
,  // measure 11
1000
0001
0000
1000
0001
0000
1000
0100
,  // measure 12
0010
0001
0100
0001
1000
0010
1000
0100
,  // measure 13
0010
0000
0001
0010
0000
0010
0001
0100
,  // measure 14
0010
0000
0010
1000
0000
1000
0100
0010
,  // measure 15
0001
1000
0000
0001
1000
0000
0010
1000
,  // measure 16
0100
0010
0001
0100
0001
1000
0010
0000
,  // measure 17
1000
0000
0001
0100
0000
0010
0000
0010
,  // measure 18
0100
0000
0001
0010
0000
0100
0000
0100
,  // measure 19
0010
0000
0001
1000
0000
1000
0000
1000
,  // measure 20
0010
1000
0010
1000
0002
0000
0000
0000
,  // measure 21
0013
0100
0010
0100
0000
0010
0000
0010
,  // measure 22
0001
1000
0001
1000
0000
0010
0000
0010
,  // measure 23
1000
0001
1000
0001
0000
0100
0000
0100
,  // measure 24
0010
1000
0001
0100
0010
1000
0100
0010
,  // measure 25
0000
0000
1001
0000
1000
0001
0000
0001
,  // measure 26
1000
0010
1000
0000
1000
0100
0000
0100
,  // measure 27
0010
0000
0010
0001
0000
0010
0001
0000
,  // measure 28
0100
0000
0000
0010
0000
0000
1000
0000
0000
0000
0010
0000
1000
0000
0000
0000
0001
0000
0100
0000
0000
0000
0010
0000
,  // measure 29
0100
0000
0000
0000
0001
0000
0010
0000
0000
0000
0000
0000
0100
0000
0000
0010
0000
0000
0000
0000
0000
0010
0000
0000
,  // measure 30
0100
0010
0001
0000
0001
1000
0000
1000
,  // measure 31
0010
0100
0001
0100
0000
0001
0100
0000
,  // measure 32
0100
0010
1000
0100
0010
0001
1000
0100
,  // measure 33
0020
0030
0000
0010
0000
0000
0000
0001
0000
1000
0000
0000
0000
1000
0000
0010
,  // measure 34
0000
1000
0000
0001
0000
0000
0000
0100
0000
0010
0000
0000
0000
0010
0000
1000
,  // measure 35
0000
0100
0000
0010
0000
0000
0000
0010
0000
0100
0000
0000
0000
0100
0000
0010
,  // measure 36
0000
0001
0000
1000
0000
0010
0000
1000
0000
0010
0000
0200
0000
0000
0000
0000
,  // measure 37
0000
0000
0000
0310
0000
0000
0000
0010
0000
1000
0000
0000
0000
1000
0000
0001
,  // measure 38
0000
0100
0000
0001
0000
0000
0000
0001
0000
0010
0000
0000
0000
0010
0000
0100
,  // measure 39
0000
0010
0000
0001
0000
0000
0000
0001
0000
1000
0000
0000
0000
1000
0000
0010
,  // measure 40
0000
1000
0000
0001
0000
1000
0000
0001
0000
1000
0000
0010
0000
0100
0000
0010
,  // measure 41
0000
0100
0000
0002
0000
0000
0000
0013
0000
0100
0000
0010
0000
0000
0000
1001
,  // measure 42
0000
0000
0000
1000
0000
0010
0000
0000
0000
1000
0000
0010
0000
0000
0000
1010
,  // measure 43
0000
0000
0000
1000
0000
0001
0000
1000
0000
0000
0000
0001
0000
0100
0000
0001
,  // measure 44
0000
0000
0000
1000
0000
0010
0000
1000
0000
0010
0000
0100
0000
0001
0000
0010
,  // measure 45
0000
0000
0000
0100
0000
0000
0000
0010
0000
0001
0000
0000
0000
0001
0000
0010
,  // measure 46
0000
0100
0000
1000
0000
0000
0000
0010
0000
0100
0000
0000
0000
0100
0000
0010
,  // measure 47
0000
0000
0000
1000
0000
0100
0000
0010
0000
0001
0000
0000
0000
0001
0000
0010
,  // measure 48
0000
0100
0000
1000
0000
0000
0000
0010
0000
1000
0000
0001
0000
0000
0000
1001
,  // measure 49
0000
0000
0000
0001
0000
0100
0000
0010
0000
0100
0000
0001
0000
0100
0000
0010
,  // measure 50
0000
0000
0000
1000
0000
0100
0000
0000
0000
1000
0000
0100
0000
0000
0000
0110
,  // measure 51
0000
0000
0000
0010
0000
0001
0000
0100
0000
0000
0000
0010
0000
1000
0000
0100
,  // measure 52
0000
0000
0000
1000
0000
0001
0000
1000
0000
0001
0000
1000
0000
0010
0000
0200
,  // measure 53
0300
0010
0000
1000
0001
0000
0001
1000
,  // measure 54
0010
0100
0000
0001
0010
0000
0010
0100
,  // measure 55
0000
0100
0000
0010
0001
0000
0001
0010
,  // measure 56
0100
1000
0000
0010
1000
0002
0000
0000
,  // measure 57
0000
1003
0000
1000
1001
0000
0000
0000
,  // measure 58
0010
0000
0000
1000
0010
0000
0100
0000
0000
0000
0101
0000
0000
1100
0000
0000
,  // measure 59
0010
0000
0000
0001
0010
0000
0100
0000
0000
0000
1100
0000
0000
0011
0000
0000
,  // measure 60
0010
0000
0000
0000
0000
0000
0000
0000
0000
0100
0000
0000
0010
0000
0000
0000
0000
0000
0001
0000
0000
0000
0000
0000
0100
0000
0000
0000
0010
0000
0000
0000
0010
0000
0000
0000
1000
0000
0000
0000
0001
0000
0000
0000
0001
0000
0000
0000
,  // measure 61
1000
0000
0000
0000
0000
0000
0000
0000
0000
0100
0000
0000
0010
0000
0000
0000
0000
0000
0001
0000
0000
0000
0000
0000
0001
0000
0000
0000
0100
0000
0010
0000
0000
0000
0000
0000
0001
0000
0000
0000
0100
0000
0010
0000
0000
0000
0000
0000
,  // measure 62
1010
0000
0000
1000
0001
0000
0100
0000
0000
0000
0110
0000
0000
1001
0000
0000
,  // measure 63
0001
0000
0000
0100
0010
0000
1000
0000
0000
0000
1100
0000
0000
0101
0000
0000
,  // measure 64
1000
0000
0000
0000
0000
0000
0000
0000
0000
0001
0000
0000
1000
0000
0000
0000
0000
0000
0010
0000
0000
0000
0000
0000
0100
0000
0000
0000
0001
0000
0000
0000
0001
0000
0000
0000
0010
0000
0000
0000
0001
0000
0000
0000
0001
0000
0000
0000
,  // measure 65
1000
0000
0000
0000
0000
0000
0000
0000
0000
0100
0000
0000
1000
0000
0000
0000
0000
0000
0010
0000
0000
0000
0000
0000
0100
0000
0000
0000
0000
0000
0001
0000
1000
0000
0001
0000
1000
0000
0000
0000
0000
0000
0020
0000
0000
0000
0000
0000
,  // measure 66
1030
0000
1000
0100
0010
0000
0100
0000
,  // measure 67
0110
0010
0011
0001
,  // measure 68
0100
0000
0001
0100
0010
0000
1000
0000
,  // measure 69
0001
1000
0001
1000
0001
0000
0100
0000
,  // measure 70
0010
0000
0010
1000
0100
0000
1000
0000
,  // measure 71
1010
0010
0110
0100
,  // measure 72
0001
0000
1000
0001
1000
0000
0010
0000
,  // measure 73
0100
0001
0100
0010
1000
0000
0001
0000
,  // measure 74
1000
0001
1000
0001
1000
0001
0010
0000
0000
0010
0000
0000
,  // measure 75
0001
0000
0001
0100
0000
0100
0010
0100
,  // measure 76
0001
0000
0001
1000
0000
1000
0010
1000
,  // measure 77
0100
0000
0100
0010
0000
0010
0001
0100
,  // measure 78
0010
1000
0010
1000
0002
0000
0000
0000
,  // measure 79
0013
0000
0100
1000
0000
1000
0100
0010
,  // measure 80
0001
0000
0100
0010
0000
0010
0100
0001
,  // measure 81
0010
0000
0001
1000
0000
1000
0010
1000
,  // measure 82
0100
0010
0001
0100
0010
1000
0100
0010
,  // measure 83
0011
0000
0000
1100
0000
0000
1010
1010
,  // measure 84
0000
0101
0000
0000
1001
0000
0110
0000
,  // measure 85
1001
0000
0000
0000
0000
0000
0000
0000
0000
0000
0000
0000
0000
0000
0001
1000
,  // measure 86
0001
0000
0000
1001
0000
0000
0000
0000
;

//---------------dance-single - ----------------
#NOTES:
     dance-single:
     :
     Medium:
     11:
     0.441254,0.574985,0.097634,0.071006,0.399411,348.000000,337.000000,11.000000,8.000000,0.000000,0.000000,0.441254,0.574985,0.097634,0.071006,0.399411,348.000000,337.000000,11.000000,8.000000,0.000000,0.000000:
0000
0000
0000
0000
,
0000
0000
0000
0000
,
0000
0000
0000
0000
,
0000
0000
0000
0000
,
0000
0000
0000
0000
,
0000
0000
0000
0000
,
0000
0000
0000
0000
,
0000
0000
0000
0000
,
0000
0000
0000
0000
,
0010
0000
0000
0010
0000
0000
1000
0000
,
0001
0000
0100
0000
0001
0000
0010
0001
,
0010
0000
0000
0010
0000
0000
0010
0001
,
1000
0000
0100
0000
0010
0000
0001
0100
,
0001
0000
0000
1000
0000
0000
0001
0000
,
0100
0000
0010
0000
1000
0000
0001
1000
,
0001
0000
0000
1001
0000
0000
1001
0000
,
0001
0010
0100
1000
,
0010
0000
0010
1000
0000
1000
0000
0000
,
1000
0000
1000
0001
0000
0001
0000
0000
,
0010
0000
0010
0001
0000
0001
0000
0100
,
0001
1000
0001
1000
0010
0000
0010
0000
,
1000
0000
1000
0001
0000
0001
0000
0000
,
0010
0000
0010
0001
0000
0001
0000
0000
,
0001
0000
0001
0100
0000
0100
0000
0000
,
0010
0000
1000
0000
0001
1000
0001
0000
,
0000
0000
1001
0000
0000
0001
0000
0000
,
1000
0000
0010
0000
0000
1000
0000
0000
,
1000
0001
1000
0000
0000
0001
0000
0000
,
0001
0010
0100
1000
,
0100
0000
0010
0000
0000
0010
0000
0000
,
0001
0000
0100
0000
0000
0100
0000
0000
,
0010
0100
0010
0000
0000
1000
0000
0000
,
0001
0100
0010
1000
,
0000
0000
0000
1000
0000
0000
0000
0000
0000
0010
0000
0000
0000
0010
0000
0000
,
0000
0000
0000
0010
0000
0000
0000
0000
0000
0100
0000
0000
0000
0100
0000
0000
,
0000
0000
0000
0001
0000
0000
0000
0000
0000
0010
0000
0000
0000
0010
0000
0000
,
0000
0000
0000
0001
0000
1000
0000
0001
0000
1000
0000
0100
0000
0000
0000
0100
,
0000
0000
0000
0010
0000
0000
0000
0010
0000
0100
0000
0000
0000
0100
0000
0000
,
0000
0000
0000
1000
0000
0000
0000
1000
0000
0010
0000
0000
0000
0010
0000
0000
,
0000
0000
0000
0100
0000
0000
0000
0100
0000
0001
0000
0000
0000
0001
0000
0000
,
0000
0000
0000
1000
0000
0000
0000
0100
0000
0000
0000
0010
0000
0000
0000
0001
,
0000
0000
0000
0100
0000
0000
0000
0100
0000
0000
0000
0001
0000
0000
0000
0001
,
0000
0000
0000
1000
0000
0010
0000
0000
0000
1000
0000
0010
0000
0000
0000
0010
,
0000
0000
0000
1000
0000
0100
0000
1000
0000
0000
0000
0001
0000
0100
0000
0001
,
0000
0000
0000
0010
0000
0001
0000
0010
0000
0000
0000
0001
0000
1000
0000
0001
,
0000
0000
0000
1000
0000
0000
0000
0000
0000
0010
0000
0000
0000
0010
0000
0000
,
0000
0000
0000
1000
0000
0000
0000
0000
0000
0001
0000
0000
0000
0001
0000
0020
,
0000
0030
0000
0100
0000
0000
0000
0000
0000
0010
0000
0000
0000
0010
0000
0000
,
0000
0000
0000
0001
0000
0000
0000
0000
0000
0001
0000
2000
0000
0000
0000
3010
,
0000
0000
0000
0010
0000
0000
0000
1000
0000
0000
0000
0001
0000
0000
0000
0100
,
0000
0000
0000
0010
0000
0100
0000
0000
0000
0010
0000
1000
0000
0000
0000
1000
,
0000
0000
0000
0001
0000
0010
0000
0001
0000
0000
0000
1000
0000
0100
0000
1000
,
0000
0000
0000
0010
0000
1000
0000
0010
0000
0000
0000
0100
0000
0001
0000
0000
,
0000
0001
0000
0000
1000
0000
1000
0000
,
0000
0010
0000
1000
0010
0000
0010
0200
,
0300
0010
0000
0000
0100
0000
0100
0000
,
0000
0001
0000
1000
0000
0020
0000
0000
,
0000
1030
0000
0000
1001
0000
0000
0000
,
1000
0000
0010
0000
1000
0000
0001
0000
0000
0000
0010
0000
0000
0010
0000
0000
,
0001
0000
0100
0000
0001
0000
1000
0000
0000
0000
0010
0000
0000
1000
0000
0000
,
0010
1000
0001
0100
0110
0000
1001
0000
,
1000
0100
0010
0001
0200
0000
0320
0000
,
1030
0000
0100
0000
1000
0000
0001
0000
0000
0000
0100
0000
0000
0100
0000
0000
,
0010
0000
0100
0000
0001
0000
1000
0000
0000
0000
0001
0000
0000
0010
0000
0000
,
0001
0100
0010
0100
0110
0000
1001
0000
,
0001
0010
0100
1000
0200
0000
0310
0000
,
1000
0000
0001
1000
0001
0000
1000
0000
,
0100
0100
0010
0010
,
0001
0000
1000
0001
1000
0000
0001
0000
,
0100
0010
0100
0010
0100
0000
0100
0000
,
0010
0000
1000
0010
1000
0000
0010
0000
,
0100
0100
0001
0001
,
0010
0000
0001
0010
0001
0000
0010
0000
,
0100
1000
0100
1000
0100
0000
0010
0000
,
0002
0000
0000
0000
0000
1003
0000
1000
,
0010
0000
0010
1000
0000
1000
0000
0000
,
1000
0000
1000
0001
0000
0001
0000
0000
,
0010
0000
0010
0001
0000
0001
0000
0000
,
0100
0010
0100
0010
1000
0000
1000
0000
,
0001
0000
0001
0100
0000
0100
0000
0000
,
0010
0000
0010
0100
0000
0100
0000
0000
,
0001
0000
0001
1000
0000
1000
0000
0000
,
0100
0010
0001
1000
,
0100
1000
0100
1000
0100
0000
0100
0010
,
0100
0010
0100
0000
0010
0000
0010
0000
,
1001
0000
0000
0000
,
0110
0000
0000
1001
0000
0000
0000
0000
;

//---------------dance-single - ----------------
#NOTES:
     dance-single:
     :
     Easy:
     8:
     0.371515,0.574985,0.142013,0.000000,0.323966,293.000000,277.000000,16.000000,0.000000,0.000000,0.000000,0.371515,0.574985,0.142013,0.000000,0.323966,293.000000,277.000000,16.000000,0.000000,0.000000,0.000000:
0000
0000
0000
0000
,
0000
0000
0000
0000
,
0000
0000
0000
0000
,
0000
0000
0000
0000
,
0000
0000
0000
0000
,
0000
0000
0000
0000
,
0000
0000
0000
0000
,
0000
0000
0000
0000
,
0000
0000
0000
0000
,
0010
0000
0000
0010
0000
0000
0010
0000
,
1000
0000
0000
0001
0000
0000
1000
0000
,
0001
0000
0000
0001
0000
0000
0001
0000
,
0100
0010
0100
0010
,
1000
0000
0000
0010
0000
0000
1000
0000
,
0001
0000
0000
1000
0000
0000
0001
0000
,
0010
0000
0000
0010
0000
0000
0001
0000
,
0100
0010
1000
0010
,
0100
0001
0100
0000
,
0010
1000
0010
0000
,
1000
0100
1000
0000
,
0001
0001
0001
0001
,
0010
0001
0010
0010
,
0001
1000
0001
0001
,
1000
0100
1000
1000
,
0001
0010
0100
1000
,
0000
0000
1000
0000
0000
1000
0000
0000
,
1000
0000
0010
0000
0000
1000
0000
0000
,
0010
0000
0100
0000
0000
0100
0000
0000
,
0100
0001
1000
0001
,
1000
0000
0001
0000
0000
0001
0000
0000
,
0001
0000
0010
0000
0000
0100
0000
0000
,
0010
0000
0001
0000
0000
1000
0000
0000
,
1000
0001
0100
0010
,
0000
0000
0000
1000
0000
0000
0000
0010
0000
0000
0000
1000
0000
0000
0000
0000
,
0000
0000
0000
0001
0000
0000
0000
0100
0000
0000
0000
0001
0000
0000
0000
0000
,
0000
0000
0000
1000
0000
0000
0000
0001
0000
0000
0000
1000
0000
0000
0000
0000
,
0000
0000
0000
0100
0000
0000
0000
0100
0000
0000
0000
0100
0000
0000
0000
0100
,
0000
0000
0000
0010
0000
0000
0000
0001
0000
0000
0000
0010
0000
0000
0000
0010
,
0000
0000
0000
0001
0000
0000
0000
1000
0000
0000
0000
0001
0000
0000
0000
0001
,
0000
0000
0000
0100
0000
0000
0000
0010
0000
0000
0000
0100
0000
0000
0000
0100
,
0000
0000
0000
0010
0000
0000
0000
1000
0000
0000
0000
0001
0000
0000
0000
0100
,
0000
0000
0000
0010
0000
0000
0000
1000
0000
0000
0000
0001
0000
0000
0000
1000
,
0000
0000
0000
0001
0000
0000
0000
0000
0000
0001
0000
0000
0000
0000
0000
0001
,
0000
0000
0000
1000
0000
0000
0000
0010
0000
0000
0000
1000
0000
0000
0000
0001
,
0000
0000
0000
0100
0000
0000
0000
0100
0000
0000
0000
0100
0000
0000
0000
0000
,
0000
0000
0000
0001
0000
0000
0000
0000
0000
0010
0000
0000
0000
0000
0000
0001
,
0000
0000
0000
1000
0000
0000
0000
0000
0000
0100
0000
0000
0000
0000
0000
1000
,
0000
0000
0000
0010
0000
0000
0000
0000
0000
1000
0000
0000
0000
0000
0000
0001
,
0000
0000
0000
0100
0000
0000
0000
0000
0000
0100
0000
0000
0000
0000
0000
1001
,
0000
0000
0000
1000
0000
0000
0000
0001
0000
0000
0000
1000
0000
0000
0000
0001
,
0000
0000
0000
0100
0000
0000
0000
0000
0000
0100
0000
0000
0000
0000
0000
0100
,
0000
0000
0000
0010
0000
0000
0000
0100
0000
0000
0000
0010
0000
0000
0000
0100
,
0000
0000
0000
0001
0000
0000
0000
0001
0000
0000
0000
1000
0000
0000
0000
0000
,
0000
0001
0000
0000
1000
0000
0000
0001
,
0000
0010
0000
0000
0100
0000
0000
0010
,
0000
0001
0000
0000
0100
0000
0000
0010
,
0000
1000
0000
0001
0000
1000
0000
0100
,
0000
0010
0000
0000
1001
0000
0000
0000
,
0010
0000
0000
0000
0010
0000
1000
0000
0000
0000
0001
0000
0000
0001
0000
0000
,
1000
0000
0000
0000
0001
0000
1000
0000
0000
0000
0001
0000
0000
1000
0000
0000
,
0010
0000
0100
0010
1010
0000
0101
0000
,
0001
0000
0010
0100
0110
0000
1100
0000
,
1000
0000
0000
0000
0010
0000
0100
0000
0000
0000
0010
0000
0000
0100
0000
0000
,
0001
0000
0000
0000
0010
0000
0001
0000
0000
0000
1000
0000
0000
0001
0000
0000
,
0100
0000
0010
1000
1001
0000
1001
0000
,
0010
0000
0001
0100
0110
0000
1001
0000
,
1000
0001
0010
0001
,
1000
1000
0001
0001
,
1000
0010
1000
0001
,
0100
0100
0100
0100
,
0001
1000
0001
0010
,
0001
0001
1000
1000
,
0001
0010
0001
1000
,
0100
0100
0100
0000
,
1001
1001
1001
0000
,
0010
0001
1000
0000
,
0010
1000
0001
0000
,
1000
0001
1000
0000
,
0100
0100
0100
0100
,
0010
0001
0010
0010
,
0001
1000
0001
0001
,
1000
0100
1000
1000
,
0100
0010
0001
0100
,
0010
0000
0000
0010
0000
0000
1000
1000
,
0000
1000
0000
0000
0001
0000
0001
0000
,
1001
0000
0000
0000
,
0110
0000
0000
1001
0000
0000
0000
0000
;

//---------------dance-single - ----------------
#NOTES:
     dance-single:
     :
     Beginner:
     5:
     0.262470,0.421656,0.115385,0.000000,0.204143,207.000000,194.000000,13.000000,0.000000,0.000000,0.000000,0.262470,0.421656,0.115385,0.000000,0.204143,207.000000,194.000000,13.000000,0.000000,0.000000,0.000000:
0000
0000
0000
0000
,
0000
0000
0000
0000
,
0000
0000
0000
0000
,
0000
0000
0000
0000
,
0000
0000
0000
0000
,
0000
0000
0000
0000
,
0000
0000
0000
0000
,
0000
0000
0000
0000
,
0000
0000
0000
0000
,
0010
0000
0010
0000
,
1000
1000
1000
0000
,
0001
0000
1000
0000
,
0001
0001
0001
0000
,
0010
0000
0001
0000
,
0100
0100
0100
0000
,
0010
0000
1000
0000
,
0001
0000
1000
1000
,
1000
0000
0100
0000
,
0010
0000
0001
0000
,
1000
0000
0010
0000
,
1000
1000
1000
0000
,
0010
0000
1000
0000
,
0001
0000
1000
0000
,
0100
0000
0010
0000
,
0001
0001
0001
0000
,
0000
1000
0000
1000
,
0000
0010
0010
0010
,
0000
1000
0000
0001
,
0000
1001
0000
0110
,
0000
0010
0000
1000
,
0000
0100
0100
0100
,
0000
0010
0000
0001
,
0000
1000
0000
0010
,
0000
0000
0000
0010
0000
0000
0000
0000
0000
0000
0000
1000
0000
0000
0000
0000
,
0000
0000
0000
0001
0000
0000
0000
0000
0000
0000
0000
1000
0000
0000
0000
0000
,
0000
0000
0000
0100
0000
0000
0000
0000
0000
0000
0000
0010
0000
0000
0000
0000
,
0000
0000
0000
0001
0000
0000
0000
0001
0000
0000
0000
0001
0000
0000
0000
0000
,
0000
0000
0000
1000
0000
0000
0000
0000
0000
0000
0000
0010
0000
0000
0000
0000
,
0000
0000
0000
1000
0000
0000
0000
0000
0000
0000
0000
0001
0000
0000
0000
0000
,
0000
0000
0000
0100
0000
0000
0000
0000
0000
0000
0000
0010
0000
0000
0000
0000
,
0000
0000
0000
0100
0000
0000
0000
0100
0000
0000
0000
0100
0000
0000
0000
0000
,
0000
0000
0000
0001
0000
0000
0000
0000
0000
0000
0000
1000
0000
0000
0000
0000
,
0000
0000
0000
0001
0000
0000
0000
0001
0000
0000
0000
0001
0000
0000
0000
0000
,
0000
0000
0000
1000
0000
0000
0000
1000
0000
0000
0000
1000
0000
0000
0000
0000
,
0000
0000
0000
0010
0000
0000
0000
0010
0000
0000
0000
0010
0000
0000
0000
0000
,
0000
0000
0000
1000
0000
0000
0000
0000
0000
0000
0000
0001
0000
0000
0000
0000
,
0000
0000
0000
1000
0000
0000
0000
1000
0000
0000
0000
0000
0000
0000
0000
0110
,
0000
0000
0000
0000
0000
0000
0000
0100
0000
0000
0000
0100
0000
0000
0000
0000
,
0000
0000
0000
0001
0000
0000
0000
0001
0000
0000
0000
0000
0000
0000
0000
1001
,
0000
0000
0000
0000
0000
0000
0000
1000
0000
0000
0000
0000
0000
0000
0000
0001
,
0000
0000
0000
0000
0000
0000
0000
1000
0000
0000
0000
0000
0000
0000
0000
0010
,
0000
0000
0000
0000
0000
0000
0000
1000
0000
0000
0000
0000
0000
0000
0000
0001
,
0000
0000
0000
0000
0000
0000
0000
0010
0000
0000
0000
0000
0000
0000
0000
0000
,
0000
0001
0000
0000
0000
1000
0000
0000
,
0000
0010
0000
0010
0000
0000
0000
1001
,
0000
0000
0000
1000
0000
1000
0000
0000
,
0000
0100
0000
0100
0000
0100
0000
0000
,
0000
0000
0000
0000
,
0010
0001
1000
0001
,
0010
0001
0100
0010
,
1000
0010
1000
0001
,
1000
1000
1001
1001
,
0001
0010
0001
0100
,
0010
1000
0100
0100
,
1000
0010
0100
0001
,
1000
0001
1001
1001
,
1000
0000
0001
0000
,
0010
0010
0010
0000
,
0001
0000
1000
0000
,
0100
0100
0100
0000
,
1000
0000
0010
0000
,
0100
0100
0100
0000
,
0001
0000
1000
0000
,
0010
0010
0010
0000
,
1001
1001
1001
0000
,
1000
0000
0010
0000
,
1000
0000
0001
0000
,
1000
0000
0100
0000
,
0010
0010
0010
0000
,
0001
0000
0100
0000
,
0001
0000
1000
0000
,
0010
0000
1000
0000
,
0100
0100
0100
0000
,
0010
0000
0000
0010
0000
0000
0100
0000
,
0000
0100
0000
0000
1000
0000
1000
0000
,
1001
0000
0000
0000
,
0010
0000
0000
0010
0000
0000
0000
0000
;
