#TITLE:PYONTA;
#SUBTITLE:(Lanota Edit);
#ARTIST:DJ'TEKINA\/\/SOMETHING;
#TITLETRANSLIT:;
#SUBTITLETRANSLIT:;
#ARTISTTRANSLIT:;
#GENRE:;
#CREDIT:;
#BANNER:PYONTA.png;
#BACKGROUND:PYONTA-BG.png;
#LYRICSPATH:;
#CDTITLE:;
#MUSIC:PYONTA.ogg;
#OFFSET:-0.163802;
#SAMPLESTART:61.294762;
#SAMPLELENGTH:12.000004;
#SELECTABLE:YES;
#BPMS:0.000000=160.000000
,193.000000=80.000000
,194.000000=160.000000
,254.500000=80.000000
,255.500000=160.000000
;
#STOPS:162.750000=0.375000,
208.750000=0.188000,
224.375000=0.375000,
270.250000=0.188000,
285.875000=0.375000
;
#BGCHANGES:;
#KEYSOUNDS:;
#ATTACKS:;

//---------------dance-single - ----------------
#NOTES:
     dance-single:
     :
     Challenge:
     18:
     0.901597,1.041344,0.518833,1.068641,1.111232,815.000000,748.000000,67.000000,138.000000,0.000000,0.000000,0.901597,1.041344,0.518833,1.068641,1.111232,815.000000,748.000000,67.000000,138.000000,0.000000,0.000000:
// measure 0
0000
0000
0000
0000
,  // measure 1
0000
0000
0000
0000
,  // measure 2
0000
0000
0000
0000
,  // measure 3
0000
0000
0000
0000
,  // measure 4
0000
0000
0000
0000
,  // measure 5
0000
0000
0000
0000
,  // measure 6
0000
0000
0000
0000
,  // measure 7
0000
0000
0000
0000
,  // measure 8
0000
0000
0000
0000
,  // measure 9
0010
0000
0000
1000
0000
0000
0100
0000
0000
0000
1000
0000
0100
0000
0010
0000
,  // measure 10
0010
0000
0000
0001
0000
0000
1000
0000
0000
0000
0001
0000
0010
0000
0001
0000
,  // measure 11
0100
0000
0000
0010
0000
0000
1000
0000
0000
0000
0001
0000
1000
0000
0100
0000
,  // measure 12
0010
0000
0000
0001
0000
0000
0010
0000
0001
0000
1000
0000
0100
0000
0010
0000
,  // measure 13
0001
0000
0000
1000
0000
0000
0100
0000
0000
0000
0010
0000
0100
0000
1000
0000
,  // measure 14
1000
0000
0000
0001
0000
0000
0100
0000
0000
0000
0010
0000
0100
0000
0001
0000
,  // measure 15
0010
0000
0000
0001
0000
0000
1000
0000
0000
0000
0100
0000
1000
0000
0010
0000
,  // measure 16
1000
0000
0100
0000
0010
0000
0100
0000
0010
0000
0001
0000
1000
0000
0001
0000
0010
0000
0100
0010
0100
0010
0100
0010
,  // measure 17
0001
0000
1000
0100
1000
0000
0010
1000
0010
1000
0100
0010
0001
0000
0100
0000
,  // measure 18
0001
0000
0010
0001
0010
0000
0001
0100
0001
0100
0010
1000
0001
0000
1000
0000
,  // measure 19
0100
0000
0010
0100
0010
0000
0100
1000
0100
0010
0001
0100
0010
0000
2000
0000
,  // measure 20
0100
0001
0100
3002
0100
1000
0100
1003
,  // measure 21
1010
0000
1000
0001
1000
0000
0001
0100
0001
0010
0100
1000
0100
0000
0010
0000
,  // measure 22
0100
0000
0010
0100
0010
0000
0001
0100
0001
1000
0010
0100
0001
0000
1000
0000
,  // measure 23
0010
0000
0100
0001
0100
0000
0010
1000
0001
1000
0100
0010
0001
0000
1000
0000
,  // measure 24
0001
0000
0010
0000
0100
0000
1000
0000
0000
0100
0000
0000
0010
0000
0100
0000
1000
0000
0001
0000
0000
1000
0000
0000
0010
0000
0000
0100
0000
0000
0001
0000
0000
0100
0000
0000
0010
0000
0000
0000
0000
0000
0100
0000
0000
0000
0000
0000
,  // measure 25
0001
0000
0001
0100
0001
0000
0001
0100
0001
0000
0100
0001
0000
0001
0010
0100
,  // measure 26
1000
0000
1000
0100
1000
0000
1000
0100
1000
0000
0100
1000
0000
1000
0100
0010
,  // measure 27
0001
0000
0100
0010
0100
0000
0010
0100
0010
0000
0010
1000
0000
1000
0001
0010
,  // measure 28
0100
0000
0000
0000
0000
0000
0010
0000
0000
0001
0000
0000
0010
0000
0000
0000
0000
0000
0100
0000
0000
1000
0000
0000
0100
0000
0000
0000
0000
0000
0010
0000
0000
0001
0000
0000
1000
0000
0000
0000
0000
0000
0001
0000
0100
0000
0010
0000
,  // measure 29
1000
0000
1000
0010
1000
0000
1000
0010
1000
0000
0010
1000
0000
1000
0100
0010
,  // measure 30
0001
0000
0001
0010
0001
0000
0001
0010
0001
0000
0001
0010
0000
0010
0001
0100
,  // measure 31
0010
0000
1000
0001
1000
0000
0001
1000
0001
0000
1000
0001
0000
0001
0100
0010
,  // measure 32
1000
0000
0000
0000
0000
0000
0001
0000
0000
1000
0000
0000
0001
0000
0000
0000
0000
0000
1000
0000
0000
0001
0000
0000
1000
0000
0100
0000
0010
0000
0001
0000
0000
0100
0000
0000
0010
0000
0000
0000
0000
0000
1000
0000
0000
0001
0000
0000
,  // measure 33
0100
0001
0100
0001
0000
0000
0100
0000
0000
0001
0100
0001
0100
0000
0000
0010
0000
0000
1000
0000
0000
0001
0000
0000
,  // measure 34
1000
0010
1000
0010
0000
0000
1000
0000
0000
0010
1000
0010
1000
0000
0000
0010
0000
0000
1000
0100
1000
0100
0000
0000
,  // measure 35
0010
0001
0010
0001
0000
0000
0100
0000
0000
0001
0010
0001
0010
0000
0000
0001
0000
0000
1000
0000
0000
0010
0000
0000
,  // measure 36
0100
0000
0010
0000
0100
0000
0010
0000
0000
0000
0000
0000
1000
0000
0000
0000
0000
0000
0100
0000
0010
0000
0100
0000
0010
0000
0000
0000
0000
0000
0001
0000
0000
0010
0000
0000
0001
0000
0000
0100
0000
0000
0010
0000
0000
1000
0000
0000
,  // measure 37
0001
0010
0001
0100
0010
1000
0010
1000
0100
1000
0010
0100
0001
0010
0001
1000
,  // measure 38
0100
1000
0100
0010
0001
0100
0010
1000
0001
0100
0010
0100
0001
1000
0100
0010
,  // measure 39
0001
1000
0001
1000
0010
1000
0010
0100
0001
0100
0010
0100
0001
0100
0010
1000
,  // measure 40
0001
0000
1000
0000
1000
0000
0100
0000
0010
0000
0010
0000
0001
0000
0010
0000
0100
0000
2020
0000
0000
3030
0000
0000
,  // measure 41
0202
0000
0000
0000
0000
0000
0303
0000
0000
0000
0000
0000
0010
0000
1000
0000
0001
0000
0100
0000
0000
0010
0000
0000
0100
0000
0000
0010
0000
0000
2000
0000
0000
0000
0000
0000
3000
0000
0000
0000
0000
0000
0011
0000
0000
0000
0000
0000
,  // measure 42
0202
0000
0303
0000
0010
0000
0001
0010
0100
1000
0001
0010
0200
0000
0300
0000
,  // measure 43
1000
0000
0010
0000
1000
0000
0100
0000
0000
0010
0000
0000
0001
0000
0000
0000
0000
0000
2200
0000
0000
0000
0000
0000
3300
0000
0000
0000
0000
0000
0022
0000
0000
0000
0000
0000
0033
0000
0000
0000
0000
0000
0010
0000
0000
0000
0000
0000
,  // measure 44
1001
0000
0000
0000
0000
0000
0100
0000
0000
1000
0000
0000
0001
0000
0100
0000
0010
0000
1000
0000
0000
0001
0000
0000
1000
0000
0000
0100
0000
0000
0010
0000
0000
0001
0000
0000
2000
0000
0000
0000
0000
0000
3000
0000
0000
0000
0000
0000
,  // measure 45
0220
0000
0000
0000
0000
0000
0330
0000
0000
0000
0000
0000
0100
0000
1000
0000
0001
0000
0010
0000
0000
0100
0000
0000
0010
0000
0000
0001
0000
0000
2000
0000
0000
0000
0000
0000
3000
0000
0000
0000
0000
0000
0110
0000
0000
0000
0000
0000
,  // measure 46
2002
3003
0011
1000
1100
0010
0022
0033
,  // measure 47
0100
0000
0001
0000
0100
0000
0010
0000
0000
1000
0000
0000
0001
0000
0000
0000
0000
0000
2200
0000
0000
0000
0000
0000
3300
0000
0000
0000
0000
0000
2020
0000
0000
0000
0000
0000
3030
0000
0000
0000
0000
0000
0010
0000
0000
0100
0000
0000
,  // measure 48
0002
0000
0000
0000
0003
0000
0000
0000
0100
0001
0100
0010
1000
0000
0001
0000
2000
0000
0000
0000
3100
0000
0010
0000
0200
0000
0000
0000
0310
0000
0001
0000
,  // measure 49
0020
0000
0000
0030
0000
0000
0000
0000
0000
0022
0000
0000
0033
0000
0000
0000
0000
0000
0101
0000
0000
0000
0000
0000
0220
0000
0000
0000
0000
0000
0330
0000
0000
0000
0000
0000
0010
0000
1000
0000
0001
0000
0100
0000
0000
0001
0000
0000
,  // measure 50
0020
0030
0000
2200
3300
0000
2020
3030
0100
0000
0001
0010
1000
0000
1000
0010
,  // measure 51
0002
0003
0000
2020
3030
0000
0110
0000
2002
0000
3003
0000
2020
0000
3030
0000
,  // measure 52
0202
0000
0000
0000
0000
0000
0303
0000
0000
0000
0000
0000
1000
0000
0100
0000
0010
0000
0001
0000
0000
0000
0000
0000
0010
0000
0000
0100
0000
0000
0020
0000
0000
0000
0000
0000
0130
0000
0000
1000
0000
0000
0200
0000
0000
0300
0000
0000
,  // measure 53
0000
0000
0000
2200
0000
0000
3300
0000
0000
0000
0000
0000
1010
0000
0000
0000
0000
0000
0202
0000
0000
0000
0000
0000
0303
0000
0000
0000
0000
0000
0001
0000
0010
0000
0100
0000
1000
0000
0000
0001
0000
0000
0200
0000
0000
0300
0000
0000
,  // measure 54
0000
2002
3003
0000
1010
0000
0202
0000
0303
0000
0010
1000
0010
1000
0200
0000
,  // measure 55
0000
0000
0000
0000
0000
0000
0320
0000
0000
0000
0000
0000
0000
0000
0000
0000
0000
0000
0031
0000
0100
0000
0001
0000
0100
0000
0000
0010
0000
0000
1000
0000
0010
0000
1000
0000
0010
0000
0000
1000
0000
0000
0100
0000
0010
0000
0001
0000
,  // measure 56
0010
0000
0100
0000
1000
0000
2002
0000
0000
0000
0000
0000
3003
0000
0000
0000
0000
0000
2002
0000
0000
0000
0000
0000
3003
0000
0000
0000
0000
0000
0001
0000
0100
0000
0010
0000
1000
0000
0000
0010
0000
0000
1000
0000
0000
0010
0000
0000
,  // measure 57
0200
0000
0300
0000
0011
0000
2200
0000
3300
0000
0010
0000
0001
0100
0010
1000
,  // measure 58
0100
0000
0000
0010
0000
0000
0002
0000
0000
0000
0000
0000
0003
0000
0000
0000
0000
0000
1000
0000
0001
0000
1000
0000
0001
0000
0000
0010
0000
0000
0100
0000
0000
0000
0000
0000
2200
0000
0000
0000
0000
0000
3300
0000
0000
0000
0000
0000
,  // measure 59
2020
0000
0000
0000
0000
0000
3030
0000
0000
0000
0000
0000
0200
0000
0000
0000
0000
0000
0302
0000
0000
0000
0000
0000
0013
0000
0000
0100
0000
0000
0010
0000
0001
0000
1000
0000
0100
0000
0000
0010
0000
0000
0002
0000
0000
0000
0000
0000
,  // measure 60
0003
0000
0000
0000
0000
0000
2020
0000
0000
0000
0000
0000
3030
0000
0000
0000
0000
0000
0202
0000
0000
0000
0000
0000
0303
0000
0000
0000
0000
0000
0001
0000
0010
0000
0100
0000
1000
0000
0000
0010
0000
0000
0100
0000
0000
0001
0000
0000
,  // measure 61
0020
0000
0030
0000
0101
0000
2020
0000
3030
0000
0100
1000
0100
1000
0001
0010
,  // measure 62
0002
0000
0000
0003
0000
0000
0220
0000
0000
0000
0000
0000
0330
0000
0000
0000
0000
0000
0001
0000
1000
0000
0010
0000
0100
0000
0000
0001
0000
0000
0010
0000
0000
0000
0000
0000
2200
0000
0000
0000
0000
0000
3300
0000
0000
0000
0000
0000
,  // measure 63
0022
0000
0000
0000
0033
0000
0000
0000
2000
0000
3001
0000
0100
0000
0000
0000
0010
0000
1000
0000
0002
0000
0103
0000
0002
0000
0103
0010
1000
0000
0000
0000
,  // measure 64
0001
0100
1000
0000
1000
0100
0002
0003
0000
2020
3030
0000
1100
0000
2002
0000
,  // measure 65
3003
0000
0000
0000
0000
0000
0010
0000
0100
0000
0010
0000
0001
0000
0000
1000
0000
0000
0010
0000
0000
0000
0000
0000
1000
0000
0000
0001
0000
0000
1000
0000
0000
0000
0000
0000
0110
0000
0000
0000
0000
0000
0011
0000
0000
0000
0000
0000
,  // measure 66
0010
1000
0002
0003
1000
0001
0200
0300
0000
2020
3030
0000
0101
0000
2002
0000
,  // measure 67
3003
0000
0000
0000
0000
0000
2200
0000
0000
0000
0000
0000
3300
0000
0000
0000
0000
0000
0220
0000
0000
0000
0000
0000
0330
0000
0000
0000
0000
0000
0001
0000
0010
0000
0100
0000
1000
0000
0000
0000
0000
0000
0001
0000
0000
1000
0000
0000
,  // measure 68
0200
0300
1000
0001
0020
0030
0000
0202
0303
0000
1100
0000
2020
0000
3030
0000
,  // measure 69
0001
0000
0100
0000
0001
0000
1000
0000
0000
0100
0000
0000
2000
0000
0000
3000
0000
0000
0000
0000
0000
0022
0000
0000
0033
0000
0000
0000
0000
0000
1010
0000
0000
0000
0000
0000
2002
0000
0000
0000
0000
0000
3003
0000
0000
0000
0000
0000
,  // measure 70
0001
0000
0000
0100
0000
0000
0001
0000
0000
0100
0000
0000
0020
0000
0000
0000
0000
0000
0000
0000
0000
0000
0000
0000
2030
0000
0000
0000
0000
0000
0000
0000
0000
0000
0000
0000
3100
0000
0010
0000
0001
0000
1000
0000
0000
0100
0000
0000
,  // measure 71
1000
0000
0100
0000
0010
0000
0001
0000
0000
0010
0000
0000
0001
0000
0100
0000
0010
0000
1000
0000
0100
0000
0010
0000
0101
0000
0000
0000
0000
0000
0100
0000
0000
0010
0000
0000
0100
0000
0000
0001
0000
0000
2000
0000
0000
0000
0000
0000
,  // measure 72
0000
0000
0000
3010
0000
0000
0100
0010
1000
0001
0100
0010
1000
0000
0000
0002
0000
0000
0103
0000
0000
0220
0000
0000
,  // measure 73
0330
0000
1010
0000
2000
0000
3001
0000
0010
0000
0100
1000
0001
0010
0002
0000
,  // measure 74
0000
0000
1003
0000
0010
1000
0001
0100
0010
0000
1000
0001
0100
0000
0220
0330
,  // measure 75
2000
0000
0000
0000
3200
0000
0000
0000
0310
0000
0001
1000
0100
0010
0002
0000
,  // measure 76
0000
0000
0000
1003
0000
0000
0100
0010
0001
1000
0100
0010
0001
0000
0000
0200
0000
0000
0310
0000
0000
2020
0000
0000
,  // measure 77
3030
0000
1001
0000
0002
0000
0013
0000
0100
0000
1000
0010
1000
0001
0020
0000
,  // measure 78
0000
0000
0130
0000
1000
0001
0010
0100
1000
0000
0010
1000
0001
0000
0100
0001
,  // measure 79
0010
0000
0000
0100
0000
0000
0010
0000
0000
0001
0000
0000
1000
0000
0000
0000
0000
0000
0001
0000
1000
0000
0001
0000
2000
0000
0000
0000
0000
0000
0000
0000
0000
0000
0000
0000
0000
0000
0000
0000
0000
0000
0000
0000
0000
0000
0000
0000
,  // measure 80
0000
0000
0000
0000
,  // measure 81
0000
0000
3000
0000
;

//---------------dance-single - ----------------
#NOTES:
     dance-single:
     :
     Hard:
     16:
     0.784334,0.915120,0.487858,0.604014,0.673708,709.000000,646.000000,63.000000,78.000000,0.000000,0.000000,0.784334,0.915120,0.487858,0.604014,0.673708,709.000000,646.000000,63.000000,78.000000,0.000000,0.000000:
0000
0000
0000
0000
,
0000
0000
0000
0000
,
0000
0000
0000
0000
,
0000
0000
0000
0000
,
0000
0000
0000
0000
,
0000
0000
0000
0000
,
0000
0000
0000
0000
,
0000
0000
0000
0000
,
0000
0000
0000
0000
,
0010
0000
0000
0001
0000
0000
1000
0000
0000
0000
0001
0000
1000
0000
0010
0000
,
0100
0000
0000
0010
0000
0000
1000
0000
0000
0000
0100
0000
0010
0000
0001
0000
,
1000
0000
0000
0001
0000
0000
0100
0000
0000
0000
0001
0000
0100
0000
0010
0000
,
1000
0100
1000
0100
0010
0001
0010
0001
,
0100
0000
0000
0010
0000
0000
1000
0000
0000
0000
0001
0000
0010
0000
0001
0000
,
0100
0000
0000
0001
0000
0000
0010
0000
0000
0000
0001
0000
1000
0000
0100
0000
,
0010
0000
0000
0100
0000
0000
1000
0000
0000
0000
0010
0000
0100
0000
0001
0000
,
1000
0010
1000
0001
0100
0001
1000
0001
1000
0020
0000
0000
,
1030
0000
0000
0000
0101
0000
0000
0000
1000
0000
0010
0100
0010
0000
1000
0000
,
0100
0000
0000
0000
0011
0000
0000
0000
1000
0100
1000
0001
0010
0000
0001
0000
,
0010
0000
0000
0000
1010
0000
0000
0000
0001
0000
0100
0010
0100
0000
0001
0000
,
0020
0030
0002
0003
0020
0030
0002
0003
2000
3000
0200
0300
2000
3000
0200
0300
,
0010
0000
0001
0000
1000
0000
0001
0000
0100
0000
0010
1000
0010
0000
1000
0000
,
0001
0000
1000
0000
0100
0000
0010
0000
0001
0100
0001
1000
0010
0000
1000
0000
,
0100
0000
0010
0000
0100
0000
0010
0000
0001
0000
0100
0001
1000
0000
0010
0000
,
1000
0010
1000
0010
0100
0001
0100
0001
0010
0100
1000
0100
0010
0000
0001
0000
,
1000
0000
0001
1000
0001
0000
1000
0001
1000
0000
0001
1000
0001
0100
0001
0100
,
0010
0000
1000
0010
1000
0000
0010
1000
0010
0000
1000
0010
1000
0100
1000
0100
,
0010
0000
0100
0010
0100
0000
0010
0100
0010
0000
0100
0010
0001
0010
0001
0010
,
0001
0000
1000
0001
1000
0000
0010
1000
0010
0000
0100
0001
0100
0000
0020
0000
,
1030
0000
0100
1000
0100
0000
1000
0100
1000
0000
0100
1000
0100
0010
0100
0010
,
0001
0000
0010
0001
0010
0000
0001
0010
0001
0000
0010
0001
0010
0100
0010
0100
,
1000
0000
0010
1000
0001
0000
0100
0001
0010
0000
0100
1000
0001
0000
0100
0010
,
1000
0000
0001
0010
0100
0000
0010
0001
1000
0000
0100
0000
1100
0000
1001
0000
,
0110
0010
1000
1001
0100
0010
0001
0010
,
0110
0100
1000
0011
0100
1000
0011
1000
,
0101
0001
1000
1010
0100
1000
0100
0010
,
0110
0100
0010
0011
0001
1000
1010
0100
,
1001
0010
1000
0010
0001
1000
0001
0100
,
1000
0100
0001
1000
0010
1000
0100
0010
,
0001
0100
0001
0100
0010
0100
1000
0100
0001
0010
0001
1000
0010
0001
0010
0100
,
1000
0100
0010
0001
0010
0100
1000
0010
0100
0101
0000
0000
,
1100
0000
0000
0000
0100
1000
0100
0010
0001
0010
0001
0000
0000
0000
0110
0000
,
2002
0000
3003
0000
0100
0000
0010
1000
0001
1000
0100
0010
0002
0000
0003
0000
,
0100
1000
0100
1000
0001
0000
0101
0000
0000
0000
2020
0000
3030
0000
0001
0100
,
0010
0000
0000
0000
2000
0000
3000
0000
0001
1000
0010
0100
0001
0000
0000
0000
,
1001
0000
0000
0000
0010
1000
0100
0010
0001
0100
0020
0000
0030
0000
1010
0000
,
2002
3003
0010
0001
0210
1300
0010
1000
,
0001
0010
0001
0010
0100
0000
1100
0000
0000
0000
2020
0000
3030
0000
0001
1000
,
0020
0000
0000
0000
0000
0000
0030
0000
1000
0001
0100
0010
1000
0000
0001
0000
1001
0000
0000
0000
0100
0000
0001
0000
0100
0000
0000
0000
0010
0000
0000
0000
,
1010
0000
1000
0001
1000
0000
0100
0000
0011
0000
0001
0000
0100
0010
0100
0010
,
1000
0000
0001
1000
0001
0000
0100
0000
1010
0000
0010
0100
0001
0000
1000
0001
,
0100
0000
0010
1000
0010
0000
0100
0000
0202
0000
0303
0000
2020
0000
3030
0000
,
2200
0000
0000
0000
0000
0000
3300
0000
0000
0000
0000
0000
0010
0000
0001
0000
0010
0000
0001
0000
0000
0000
0000
0000
0100
0000
0000
0001
0000
0000
0100
0000
0000
0000
0000
0000
0001
0000
0000
0000
0000
0000
1001
0000
0000
0000
0000
0000
,
1000
0010
1000
0000
0100
0000
0110
0000
0000
0000
0010
0001
0010
0001
0100
0000
,
0001
1000
0010
0000
1000
0000
0200
0000
0300
0000
0100
1000
0100
0010
0002
0000
,
0000
0000
2003
0000
0000
0000
3001
0010
0001
0010
0100
1000
0100
1000
0001
0100
,
1000
0100
2002
0000
3003
0000
2002
0000
3003
0000
0001
0100
0010
1000
0100
0010
,
0002
0000
0003
0000
1100
0000
0202
0000
0303
0000
0010
0000
1000
0010
1000
0001
,
0100
0001
0010
0000
0000
0000
0100
1000
0100
1000
0001
0000
0022
0000
0033
0000
,
2020
0000
3030
0000
0100
0000
1010
0000
0010
1000
0001
1000
0100
0010
0002
0000
,
0003
0000
2200
0000
3300
0000
2200
0000
3300
0000
0010
0001
0100
0010
1000
0001
,
0200
0000
0300
0000
0011
0000
2020
0000
3030
0000
0001
0000
0010
0100
0010
0001
,
1000
0000
1001
0000
0000
0000
0100
0001
0100
1000
0100
0000
0220
0000
0330
0000
,
0022
0000
0033
0000
1000
0000
0202
0000
0303
0000
2000
3000
2000
3000
0010
0000
,
1000
0001
0100
0000
0001
0010
0100
0000
0010
0001
0010
0000
0110
0000
1100
0000
,
1000
0000
0001
0100
0001
0010
0100
0000
0010
0001
1000
0000
0100
0000
1000
0000
,
0010
1000
0001
0000
0100
0001
1000
0000
0100
0010
0001
0000
0010
0000
0022
0000
,
0033
0000
0000
0000
0000
0000
0220
0000
0000
0000
0000
0000
0330
0000
0000
0000
0000
0000
2200
0000
0000
0000
0000
0000
3300
0000
0000
0000
0000
0000
0010
0000
1000
0000
0010
0000
1000
0000
0000
0000
0000
0000
0001
0000
0000
0100
0000
0000
,
0010
0000
0100
0001
1000
0000
0100
1000
0100
0000
0010
0000
0011
0000
0000
0000
,
1000
0001
1000
0001
0100
0000
0001
1000
0100
0000
1000
0000
2020
0000
3030
0000
,
0001
0100
0001
0100
0020
0000
0000
0000
2030
0000
0000
0000
3001
0100
0001
0100
,
0010
1000
0010
1000
0100
0001
0100
1000
0001
0000
0100
0010
0100
0010
2000
0000
,
0000
3001
0000
0000
0100
0020
0031
0002
,
0000
0000
1003
0000
0010
0000
1000
0000
0001
0000
0010
0100
0010
0100
2000
0000
,
0000
3010
0000
0000
0110
0000
1010
0000
,
1001
0000
0000
0000
0101
0000
0000
0000
0010
0000
0001
1000
0001
1000
0200
0000
,
0000
0310
0000
0000
0001
2000
3010
0020
,
0000
0000
0130
0000
0001
0000
1000
0000
0100
0000
1000
0001
1000
0001
0020
0000
,
0000
0000
0031
0000
1000
0000
0010
0000
1000
0000
0001
1000
0001
0000
0100
0001
,
0100
0010
1000
0001
1000
0000
0100
0010
0002
0000
0000
0000
0000
0000
0000
0000
,
0000
0000
0000
0000
,
0000
0000
0003
0000
;

//---------------dance-single - ----------------
#NOTES:
     dance-single:
     :
     Medium:
     12:
     0.545383,0.662673,0.549808,0.983459,0.116157,493.000000,422.000000,71.000000,127.000000,0.000000,0.000000,0.545383,0.662673,0.549808,0.983459,0.116157,493.000000,422.000000,71.000000,127.000000,0.000000,0.000000:
0000
0000
0000
0000
,
0000
0000
0000
0000
,
0000
0000
0000
0000
,
0000
0000
0000
0000
,
0000
0000
0000
0000
,
0000
0000
0000
0000
,
0000
0000
0000
0000
,
0000
0000
0000
0000
,
0000
0000
0000
0000
,
0001
0000
0000
0010
0000
0000
0100
0000
0000
0000
0100
0000
1000
0000
0100
0000
,
0010
0000
0000
0001
0000
0000
0100
0000
0000
0000
0001
0000
0100
0000
0010
0000
,
1000
0000
0000
0100
0000
0000
0010
0000
0000
0000
0010
0000
0100
0000
1000
0000
,
0010
0000
0000
1000
0000
0000
0001
0000
1000
0000
0000
0100
0000
0000
1000
0000
,
0010
0000
0000
0100
0000
0000
0001
0000
0000
0000
0001
0000
0100
0000
0010
0000
,
1000
0000
0000
0100
0000
0000
0010
0000
0000
0000
0001
0000
0010
0000
0100
0000
,
1000
0000
0000
0001
0000
0000
1000
0000
0000
0000
0010
0000
1000
0000
0001
0000
,
2000
3200
0320
0032
,
1003
0000
0000
0000
0101
0000
0000
0000
0001
0000
0000
0001
1000
0000
0100
0000
,
0010
0000
0000
0000
0011
0000
0000
0000
1000
0000
0000
1000
0010
0000
0100
0000
,
0001
0000
0000
0000
1010
0000
0000
0000
0100
0000
0000
0100
0010
0000
1000
0000
,
0001
0100
0001
0100
0010
1000
0010
1000
,
0100
0000
0000
0000
1001
0000
0000
0000
0010
0000
0000
0010
0001
0000
1000
0000
,
0100
0000
0000
0000
1001
0000
0000
0000
0010
0000
0000
0010
1000
0000
0001
0000
,
1000
0000
0000
0000
0011
0000
0000
0000
1000
0000
0000
1000
0100
0000
0010
0000
,
0002
0000
0203
0000
0320
0000
1030
0001
,
1000
0000
0001
1000
0000
0001
1000
0010
,
0000
1000
0010
0010
0100
0001
0100
0010
,
0000
1000
0100
0100
0010
0001
1000
0020
,
0000
1030
0000
0001
0100
0010
0100
0001
,
1000
0000
0001
0010
0000
0001
1000
0100
,
0000
1000
0010
0010
1000
0001
0100
0010
,
0000
0100
0001
0010
0010
0100
1000
0002
,
0000
1003
0000
0001
1000
0010
0100
0010
,
1000
0100
0100
1000
0100
0100
1000
0100
,
0010
0100
0100
0010
0100
0100
0010
0001
,
0010
0001
0001
0010
0001
0001
0010
0001
,
0100
0001
0001
0100
0001
0001
0100
0010
,
1000
0001
1000
0001
1000
0010
1000
0001
,
1000
0001
0100
0001
1000
0010
1000
0100
,
0010
0001
0010
0100
1000
0001
0010
0100
,
1000
0000
0001
0000
1000
0000
0001
0000
1000
0000
0001
0000
1000
0000
0100
0000
0010
0000
0022
0000
0000
0033
0000
0000
,
2200
3300
0100
1000
0010
0202
0303
1000
,
0202
0303
0010
1000
0100
0010
0011
0001
,
0010
0100
1000
2020
3030
0202
0303
0001
,
2000
0000
3000
0000
0022
0033
2002
3003
,
2020
3030
0100
0001
1000
2020
3030
0001
,
0220
0330
0100
0001
1000
0020
0030
1000
,
0100
0002
0003
0100
1000
0002
0003
1000
,
0001
0000
0000
0000
0220
0330
0202
0303
,
0110
0000
0000
0100
0001
0000
1000
0000
2002
0000
3003
0000
0022
0000
0033
0000
,
1001
0000
0000
0001
1000
0000
0100
0000
2200
0000
3300
0000
2002
0000
3003
0000
,
1100
0000
0000
0100
0010
0000
0001
0000
0202
0000
0303
0000
0220
0000
0330
0000
,
2020
3030
0000
2020
3030
2002
3003
1010
,
0000
0010
1000
0000
0100
0000
0220
0000
0330
0000
0022
0000
0033
0000
0110
0000
,
0000
0010
0001
0000
0010
0000
0002
0000
0000
0000
1003
0000
0100
0000
2000
0000
,
0000
3020
0000
1030
0100
0010
0001
1000
,
0100
2200
3300
0022
0033
0010
0001
0100
,
2020
3030
0001
2020
3030
0100
0001
0010
,
0100
1100
1000
0100
0010
0001
0202
0303
,
2020
3030
1000
0002
0000
0003
0000
2200
,
3300
2002
3003
0202
0303
0010
1000
0001
,
0202
0303
1000
0220
0330
0010
1000
0001
,
0200
0300
0001
0010
2000
3000
0010
0001
,
2000
3000
0001
1000
0000
0000
0000
0220
,
0330
0000
2020
0000
3030
0000
0110
0000
0000
0010
1000
0000
0001
0000
2002
0000
,
3003
0000
2200
0000
3300
0000
1001
0000
0000
1000
0001
0000
0010
0000
0022
0000
,
0033
0000
2002
0000
3003
0000
0011
0000
0000
0010
0100
0000
1000
0000
2020
0000
,
3030
0220
0330
0202
0303
0000
0202
0303
,
2002
0000
3003
0000
0101
0000
0000
0100
0001
0000
0010
0000
0220
0000
0330
0000
,
2200
0000
3300
0000
0110
0000
0000
0100
1000
0000
0100
0000
2000
0000
0000
0000
,
3001
0010
0002
0000
0203
0000
0301
0010
,
0100
1000
0001
1000
0010
0000
0010
2000
,
0000
3001
0000
0000
0001
0010
0100
0200
,
0000
1300
0000
0000
1000
0000
1000
0020
,
0000
0130
0000
0000
0011
0000
1001
0000
,
1010
0000
0110
0000
0100
0000
0100
0002
,
0000
0013
0000
0000
0100
1000
0010
0020
,
0000
1030
0000
0000
1000
0000
1000
0002
,
0000
0103
0000
0000
0010
0100
0010
0100
,
0010
1000
0001
0000
2002
0000
0000
0000
,
0000
0000
0000
0000
,
0000
0000
3003
0000
;

//---------------dance-single - ----------------
#NOTES:
     dance-single:
     :
     Easy:
     8:
     0.332982,0.441782,0.271032,0.209082,0.000000,301.000000,266.000000,35.000000,27.000000,0.000000,0.000000,0.332982,0.441782,0.271032,0.209082,0.000000,301.000000,266.000000,35.000000,27.000000,0.000000,0.000000:
0000
0000
0000
0000
,
0000
0000
0000
0000
,
0000
0000
0000
0000
,
0000
0000
0000
0000
,
0000
0000
0000
0000
,
0000
0000
0000
0000
,
0000
0000
0000
0000
,
0000
0000
0000
0000
,
0000
0000
0000
0000
,
1000
0100
0010
0000
,
0001
1000
0100
0000
,
0010
0001
0100
0000
,
0010
1000
0001
1000
,
0010
0100
0001
0000
,
0010
0001
1000
0000
,
0001
0010
0100
0000
,
0010
0010
0001
1000
,
0001
0001
0001
0010
,
0001
0001
0100
0010
,
0010
1000
0100
1000
,
2000
0000
3002
0000
,
1003
0000
0100
0000
1000
0000
0010
1000
,
0010
0000
1000
0000
0001
0000
0100
0001
,
0100
0010
0100
0010
,
1000
0000
0000
0000
,
0001
0000
0001
1000
0001
0000
1000
0000
,
0010
0000
0010
1000
0010
0000
0100
0000
,
0010
0000
0010
0100
0010
0000
1000
0000
,
0001
1000
0100
0100
,
0010
0001
1000
0100
,
1000
0000
0010
1000
0010
0000
0100
0000
,
0001
0000
0001
1000
0001
0000
1000
0000
,
0010
1000
0100
0010
,
1001
0000
0000
1001
0000
0000
0000
0000
,
0011
0000
0000
1100
0000
0000
1010
0000
,
0110
0000
0000
1010
0000
0000
0000
0000
,
1001
0000
0000
0101
0000
0000
1100
0000
,
0110
0010
0001
0001
,
0100
0100
0010
0010
,
1000
0001
1000
0001
1000
0001
1000
0001
,
1000
0100
0010
0001
,
1000
0000
0000
0010
0000
2000
0000
0000
,
3100
0000
0000
0010
0000
0001
0000
0001
,
0000
0100
0000
0010
0000
2000
0000
0000
,
3001
0000
0110
0011
,
0011
0000
0000
0100
0000
0020
0000
0000
,
0130
0000
0000
0001
0000
0010
0000
0100
,
0000
1000
0000
0100
0000
0020
0000
0000
,
0031
0000
1000
0101
,
0001
1100
1000
0010
,
1000
0001
0010
0110
,
0100
1001
2000
3020
,
0230
0300
0000
0001
0000
0011
0000
0100
,
0000
1100
0000
0010
0000
1000
0000
0001
,
0000
0100
0000
0010
0000
2000
0000
3001
,
0000
0002
0000
1003
0001
1000
0001
1000
,
0001
0110
0000
0101
0000
0000
0100
0000
,
0002
0000
0000
0013
0000
0000
0100
0000
,
1000
1000
0010
0100
,
0002
0000
0000
1003
0000
0000
0000
0110
,
0000
1100
0000
1100
0000
0000
0010
0000
,
0200
0000
0000
0310
0000
0000
1000
0000
,
0100
0010
0001
0010
,
0200
0000
0000
1300
0000
0000
0000
0001
,
0000
1010
0000
1000
0000
0011
0000
0001
,
0000
0100
0000
0001
0000
1000
0000
0100
,
0000
0110
0000
0010
0000
1001
0000
0002
,
0000
0203
0000
0320
0030
0000
1000
0000
,
1100
0010
0011
0100
,
0001
1000
0010
0100
,
0002
0000
1003
0000
2000
0000
3010
0100
,
0010
0100
0010
0100
0001
0000
0000
0020
,
0000
0130
0000
0000
1000
0000
0000
0020
,
0000
0130
0000
0000
0001
0000
0000
0020
,
0000
0130
0000
0000
1100
0000
0110
0000
,
1001
0000
0101
0000
1000
0000
0000
0020
,
0000
1030
0000
0000
0001
0000
0000
0200
,
0000
0310
0000
0000
1000
0000
0000
0200
,
0000
0310
0000
0000
0001
0000
1000
0000
,
0010
0100
0010
1000
0002
0000
0000
0000
,
0000
0000
0000
0000
,
0000
0000
0003
0000
;

//---------------dance-single - ----------------
#NOTES:
     dance-single:
     :
     Beginner:
     5:
     0.231207,0.338597,0.046463,0.000000,0.000000,209.000000,203.000000,6.000000,0.000000,0.000000,0.000000,0.231207,0.338597,0.046463,0.000000,0.000000,209.000000,203.000000,6.000000,0.000000,0.000000,0.000000:
0000
0000
0000
0000
,
0000
0000
0000
0000
,
0000
0000
0000
0000
,
0000
0000
0000
0000
,
0000
0000
0000
0000
,
0000
0000
0000
0000
,
0000
0000
0000
0000
,
0000
0000
0000
0000
,
0000
0000
0000
0000
,
0010
0000
0000
0000
,
1000
0000
0000
0000
,
0001
0000
0010
0000
,
0001
0000
0100
0000
,
0010
0000
0000
0000
,
1000
0000
0000
0000
,
0100
0000
0010
0000
,
0001
1000
0001
1000
,
0010
1000
0010
0000
,
0001
0010
0001
0000
,
1000
0100
1000
0000
,
0010
0010
0100
0100
,
0001
1000
0001
0000
,
1000
0100
1000
0000
,
0010
0100
0010
0000
,
0100
0001
0100
0001
,
1000
1000
0001
0001
,
1000
0000
0001
1000
,
0001
0000
1000
0001
,
1000
0001
0010
0010
,
0100
0100
0010
0010
,
0100
0010
0100
0000
,
0010
0100
0010
0000
,
0001
0000
1000
1001
,
0001
0000
0100
0000
,
0010
0000
1000
0000
,
1000
1000
0100
0000
,
0010
0010
0001
0000
,
1000
0001
0100
0001
,
1000
0010
1000
0001
,
0100
0100
0010
0010
,
1000
0000
0000
1001
,
1001
0000
0000
0000
0000
1000
0000
0000
,
0001
0000
0000
0000
0000
0010
0000
0000
,
0000
0100
0000
0000
0000
1000
0000
0000
,
0001
0000
0010
0010
,
0010
0000
0000
0000
0000
0001
0000
0000
,
0100
0000
0000
0000
0000
0010
0000
0000
,
0000
1000
0000
0000
0000
0001
0000
0000
,
1000
0000
1000
1000
,
1000
0000
0001
0001
,
0001
0000
0010
0010
,
0010
0000
0001
0100
,
0010
0000
0000
1000
0000
1000
0000
1000
,
0000
0000
0000
0010
0000
0010
0000
0010
,
0000
0000
0000
0100
0000
0100
0000
0010
,
0000
0010
0000
1000
0000
0100
0000
0010
,
0000
0110
0000
0110
0000
0000
0010
0000
,
0100
0000
0100
0100
,
0010
0000
0010
0001
,
0000
0000
0000
1000
0000
1000
0000
0010
,
0000
0010
0000
0010
0000
0000
1000
0000
,
0001
0000
0001
0001
,
0100
0000
0100
0100
,
0010
0000
1000
0000
0000
0000
0000
0001
,
0000
0001
0000
0001
0000
0000
0000
0100
,
0000
0100
0000
0100
0000
0000
0000
0010
,
0000
0010
0000
0010
0000
0000
0000
1000
,
0000
0010
0000
0100
0000
0000
0001
0000
,
0001
0001
0000
0010
,
0010
0010
0000
0100
,
0100
0100
0000
1000
,
0001
1000
0010
0000
,
0100
0000
0010
0001
,
0010
0001
0010
0000
,
0001
0000
1000
1000
,
0100
0010
0001
0000
,
0100
0000
0010
1000
,
0010
0000
1000
0000
,
0100
0000
1000
1000
,
0100
0010
1001
0000
;
