#TITLE:Overwhelmed;
#SUBTITLE:;
#ARTIST:ARYAY feat. Elkka;
#TITLETRANSLIT:;
#SUBTITLETRANSLIT:;
#ARTISTTRANSLIT:;
#GENRE:;
#CREDIT:;
#BANNER:Overwhelmed.png;
#BACKGROUND:Overwhelmed-bg.png;
#LYRICSPATH:;
#CDTITLE:;
#MUSIC:Overwhelmed.ogg;
#OFFSET:2.555559;
#SAMPLESTART:72.988197;
#SAMPLELENGTH:21.573036;
#LASTBEATHINT:2.260988;
#SELECTABLE:YES;
#BPMS:0.000000=89.000000
;
#STOPS:
;
#BGCHANGES:;
#KEYSOUNDS:;
#ATTACKS:;

//---------------dance-single - ----------------
#NOTES:
     dance-single:
     :
     Hard:
     10:
     0.383613,0.478931,0.106429,0.130990,0.425717,328.000000,315.000000,13.000000,16.000000,0.000000,0.000000,0.383613,0.478931,0.106429,0.130990,0.425717,328.000000,315.000000,13.000000,16.000000,0.000000,0.000000:
// measure 0
0000
0000
0000
0000
,  // measure 1
0000
0000
0000
0000
,  // measure 2
0000
0000
0000
0000
,  // measure 3
0000
0000
0000
0000
,  // measure 4
0000
0000
0000
0000
,  // measure 5
0000
0000
0000
0000
,  // measure 6
0000
0000
0000
0000
,  // measure 7
0000
0000
0000
0000
,  // measure 8
0000
0000
0000
0000
,  // measure 9
1000
0000
1000
0000
0010
0000
0000
0000
0000
0000
1000
0000
0001
1000
0000
0000
,  // measure 10
0010
0000
0010
0000
0100
0000
0000
0000
0000
0100
0001
0000
0100
0000
0010
0000
,  // measure 11
1000
0000
1000
0000
0001
0000
0000
0000
0000
0000
0010
0000
0100
0010
0000
0000
,  // measure 12
0001
1000
0100
0010
0001
0010
0100
1000
,  // measure 13
0100
0000
0100
0000
0010
0000
0001
0000
0001
0000
1000
0000
0001
1000
0000
0000
,  // measure 14
0010
0000
0010
0000
1000
0000
0001
0000
0000
0001
0100
0000
0010
0000
1000
0000
,  // measure 15
0002
0000
2003
0000
3200
0000
0310
0001
,  // measure 16
0020
0030
0100
1000
0001
0000
1000
0000
,  // measure 17
1001
0001
0010
0001
0100
0100
0010
1000
,  // measure 18
0000
0010
1000
1000
0100
0010
0002
0000
,  // measure 19
0003
1000
0010
1000
0001
0001
0100
0010
,  // measure 20
0000
0100
0010
1000
0100
0010
0001
0000
,  // measure 21
1100
0100
0010
0100
0010
0011
0001
0100
,  // measure 22
1010
0010
1000
1000
0001
0101
0100
0000
,  // measure 23
1010
1000
0010
0100
0010
1001
0100
0010
,  // measure 24
0011
0100
0010
0001
0100
0001
2000
0000
,  // measure 25
3010
0000
0100
0000
0010
0000
1000
0001
,  // measure 26
1000
0000
0100
0000
0010
0000
0001
0100
,  // measure 27
0001
0000
0010
0000
0100
0000
1000
0000
0010
1000
0010
1000
0100
0010
0001
1000
,  // measure 28
0200
0310
0000
0010
0000
0002
0103
0010
,  // measure 29
1001
0000
0000
0000
0000
0000
1000
0000
0000
0100
0000
0000
0010
0000
0000
0000
0001
0000
0000
0000
0010
0000
0000
0000
0100
0000
0000
0000
1000
0000
0000
0000
0010
0000
0000
0000
1000
0000
0000
0000
0001
0000
0000
0000
0100
0000
0000
0000
,  // measure 30
0010
1000
0100
0010
0001
0100
0010
0100
0001
1000
0100
0010
,  // measure 31
0001
0000
0000
0000
0000
0000
0010
0000
0000
0100
0000
0000
1000
0000
0000
0000
0010
0000
0000
0000
1000
0000
0000
0000
0001
0000
0000
0000
0100
0000
0000
0000
0010
0000
0000
0000
1000
0000
0000
0000
0001
0000
0000
0000
0010
0000
0000
0000
,  // measure 32
0100
0000
0000
0000
0020
0000
0000
0000
0100
0000
0000
0000
0130
0000
1000
0000
0001
0000
0000
0010
0000
0000
0001
0000
0100
0000
0000
0010
0000
0000
1000
0000
,  // measure 33
0002
0000
0000
0000
0000
0000
1003
0000
0000
0010
0000
0000
0100
0000
0000
0000
0010
0000
0000
0000
1000
0000
0000
0000
0010
0000
0000
0000
1000
0000
0000
0000
0100
0000
0000
0000
1000
0000
0000
0000
0100
0000
0000
0000
0010
0000
0000
0000
,  // measure 34
0100
0010
0001
0010
0001
0100
0001
0100
0010
0100
0010
1000
,  // measure 35
0001
0000
0000
0000
0000
0000
0100
0000
0000
0001
0000
0000
0010
0000
0000
0000
0001
0000
0000
0000
0010
0000
0000
0000
0100
0000
0000
0000
0010
0000
0000
0000
0100
0000
0000
0000
1000
0000
0000
0000
0100
0000
0000
0000
1000
0000
0000
0000
,  // measure 36
0020
1030
0000
1000
0000
0200
0310
0001
,  // measure 37
1001
0000
0000
0000
0000
0000
0100
0000
0000
0001
0000
0000
1000
0000
0000
0000
0010
0000
0000
0000
0100
0000
0000
0000
0001
0000
0000
0000
0010
0000
0000
0000
0100
0000
0000
0000
0010
0000
0000
0000
0001
0000
0000
0000
1000
0000
0000
0000
,  // measure 38
0100
0010
0100
1000
0010
0100
0001
1000
0010
1000
0001
0100
,  // measure 39
0001
0000
0000
0000
0000
0000
0100
0000
0000
0010
0000
0000
1000
0000
0000
0000
0001
0000
0000
0000
1000
0000
0000
0000
0010
0000
0000
0000
1000
0000
0000
0000
0001
0000
0000
0000
0100
0000
0000
0000
0001
0000
0000
0000
0010
0000
0000
0000
,  // measure 40
0100
0000
2000
0000
3010
0000
0010
1000
1001
0000
0010
0000
0011
0001
0001
0000
,  // measure 41
2000
0000
0000
0000
0000
0000
3010
0000
0000
0100
0000
0000
0001
0000
0000
0000
0010
0000
0000
0000
0100
0000
0000
0000
0010
0000
0000
0000
0100
0000
0000
0000
1000
0000
0000
0000
0010
0000
0000
0000
1000
0000
0000
0000
0010
0000
0000
0000
,  // measure 42
0100
0010
0100
0001
0010
0100
1000
0100
0010
0001
1000
0010
,  // measure 43
0100
0000
0000
0000
0000
0000
0001
0000
0000
0100
0000
0000
0010
0000
0000
0000
1000
0000
0000
0000
0100
0000
0000
0000
0010
0000
0000
0000
0100
0000
0000
0000
0010
0000
0000
0000
0001
0000
0000
0000
1000
0000
0000
0000
0100
0000
0000
0000
,  // measure 44
0020
0130
0000
1000
0000
0020
0130
0000
,  // measure 45
1001
0000
0000
0000
;

//---------------dance-single - ----------------
#NOTES:
     dance-single:
     :
     Medium:
     7:
     0.281862,0.442090,0.024561,0.016374,0.327474,241.000000,238.000000,3.000000,2.000000,0.000000,0.000000,0.281862,0.442090,0.024561,0.016374,0.327474,241.000000,238.000000,3.000000,2.000000,0.000000,0.000000:
0000
0000
0000
0000
,
0000
0000
0000
0000
,
0000
0000
0000
0000
,
0000
0000
0000
0000
,
0000
0000
0000
0000
,
0000
0000
0000
0000
,
0000
0000
0000
0000
,
0000
0000
0000
0000
,
0000
0000
0000
0000
,
1000
0000
0010
0000
1000
0100
0010
0000
,
0001
0000
0100
0000
0001
0010
0100
0000
,
0010
0000
0001
0000
0010
0001
1000
0000
,
0010
0000
1000
0000
0100
1000
0100
1000
,
0100
0000
0010
0000
0100
1000
0010
0000
,
0100
0000
0010
0000
0100
0001
0010
0000
,
0001
0000
1000
0000
0010
0000
1000
0001
,
1000
0000
0010
1000
0010
0000
1000
0000
,
0000
0100
0010
0000
0010
0001
0010
0000
,
0000
0001
0100
0000
0100
0010
0100
0000
,
0000
0010
1000
0000
1000
0001
1000
0000
,
0000
0100
0010
0100
0001
0100
1000
0000
,
0010
0000
1000
0000
0001
1000
0001
0000
,
1000
0000
0100
0000
0010
0100
0010
0000
,
0001
0000
0100
0000
0010
1000
0010
0000
,
1000
0000
0001
0000
1000
0100
1000
0000
,
0100
0000
0010
0000
0100
0000
0010
0010
,
0010
0000
0100
0000
0010
0000
0100
0100
,
0100
1000
0100
1000
0001
0010
0001
0010
,
0001
0000
0000
0000
,
2000
0000
0000
3001
0010
0001
0010
0001
0010
0001
0010
0001
,
0010
0100
0010
0100
0010
0100
1000
0100
1000
0100
1000
0100
,
1000
0000
0000
0010
1000
0010
1000
0010
1000
0010
1000
0010
,
0100
0000
1000
0001
,
0020
0000
0000
0130
1000
0100
1000
0100
1000
0100
1000
0100
,
0010
0100
0010
0100
0010
0100
0010
0001
0010
0001
0010
0001
,
1000
0000
0000
0001
1000
0001
1000
0001
1000
0001
1000
0001
,
1000
0000
0000
0000
,
1001
0000
0000
0001
0100
0001
0100
0001
0100
0001
0100
0001
,
0100
0010
0100
0010
0100
0010
1000
0010
1000
0010
1000
0010
,
1000
0000
0000
0010
0001
0010
0001
0010
0001
0010
0001
0010
,
0001
0000
0010
0100
,
1001
0000
0000
0010
1000
0010
1000
0010
1000
0010
1000
0010
,
0100
0010
0100
0010
0100
0010
0100
0001
0100
0001
0100
0001
,
0100
0000
0000
0010
0100
0010
0100
0010
0100
0010
0100
0010
,
0100
0000
0000
0000
,
1001
0000
0000
0000
;

//---------------dance-single - ----------------
#NOTES:
     dance-single:
     :
     Easy:
     4:
     0.162568,0.221045,0.106429,0.000000,0.000000,139.000000,126.000000,13.000000,0.000000,0.000000,0.000000,0.162568,0.221045,0.106429,0.000000,0.000000,139.000000,126.000000,13.000000,0.000000,0.000000,0.000000:
0000
0000
0000
0000
,
0000
0000
0000
0000
,
0000
0000
0000
0000
,
0000
0000
0000
0000
,
0000
0000
0000
0000
,
0000
0000
0000
0000
,
0000
0000
0000
0000
,
0000
0000
0000
0000
,
0000
0000
0000
0000
,
0010
0110
0000
0010
,
0001
1001
0000
1000
,
0010
1010
0000
1000
,
0100
0010
0100
0010
,
0001
1001
0000
1000
,
0100
1100
0000
1000
,
0010
1010
0000
0010
,
0100
0001
1000
0001
,
0010
0000
0100
0000
0000
0100
0100
0000
,
0000
0000
0010
0000
0001
0001
0001
0000
,
1000
0000
0000
0010
0010
0000
1000
0000
,
0000
0000
0001
0000
0100
0100
0100
0000
,
0010
1000
0001
0001
,
1000
0000
0100
0000
0010
0010
0010
0000
,
0001
1000
0100
1000
,
0010
0000
1000
0000
0001
0001
0001
0000
,
1000
0001
1000
1000
,
0001
1000
0001
0001
,
0100
0010
1000
0100
,
0010
0000
0000
0000
,
0010
0000
0001
0000
0000
0001
0100
0000
,
0010
0000
1000
0000
0000
0001
1000
0000
,
0100
0000
0010
0000
0000
0100
0010
0000
,
0001
0000
0000
0000
,
1000
0000
0010
0000
0000
1000
0001
0000
,
1000
0010
1000
0100
,
0010
0000
0001
0000
0000
0010
0100
0000
,
0100
0000
0000
0000
,
1001
0000
0001
0000
0000
1000
0001
0000
,
1010
0000
0010
0000
0000
1000
0010
0000
,
1100
0000
1000
0000
0000
0100
1000
0000
,
0100
0000
0000
0000
,
0110
0000
0010
0000
0000
0001
0100
0000
,
0010
0000
1001
0000
0000
1000
0100
0000
,
0010
0000
0011
0000
0000
1000
0100
0000
,
0010
0000
0000
0000
,
1001
0000
0000
0000
;

//---------------dance-single - ----------------
#NOTES:
     dance-single:
     :
     Beginner:
     1:
     0.085377,0.147363,0.081869,0.032747,0.000000,73.000000,63.000000,10.000000,4.000000,0.000000,0.000000,0.085377,0.147363,0.081869,0.032747,0.000000,73.000000,63.000000,10.000000,4.000000,0.000000,0.000000:
0000
0000
0000
0000
,
0000
0000
0000
0000
,
0000
0000
0000
0000
,
0000
0000
0000
0000
,
0000
0000
0000
0000
,
0000
0000
0000
0000
,
0000
0000
0000
0000
,
0000
0000
0000
0000
,
0000
0000
0000
0000
,
0010
0000
1000
0000
,
0001
0000
0010
0000
,
0100
0000
0010
0000
,
0001
0000
0001
0000
,
1001
0000
1000
0000
,
0010
0000
1000
0000
,
0100
0000
0010
0000
,
0001
0000
0010
0000
,
0200
0000
0000
0000
,
0320
0000
0000
0000
,
2030
0000
0000
0000
,
3002
0000
0000
0000
,
0013
0000
0000
0100
,
0100
0000
0000
1000
,
1000
0000
0000
0001
,
0001
0000
1000
1000
,
1000
0000
0010
0000
,
1000
0000
0001
0000
,
1000
1000
1000
0000
,
0001
0000
0000
0000
,
0000
1001
0000
1000
,
0000
0010
0000
1000
,
0000
0110
0000
0010
,
0000
0000
0000
0000
,
0000
1001
0000
0100
,
0000
0010
0010
0010
,
0000
0110
0000
1000
,
0000
0000
0000
0000
,
0000
1001
0000
0010
,
0000
0001
0000
0100
,
0000
0110
0000
1000
,
0000
0000
0000
0000
,
0000
0110
0000
0100
,
0000
0010
0000
0001
,
0000
1001
0000
0010
,
0000
0000
0000
0000
,
1001
0000
0000
0000
;
