#VERSION:0.83;
#TITLE:Now I Do;
#SUBTITLE:;
#ARTIST:tv room;
#TITLETRANSLIT:;
#SUBTITLETRANSLIT:;
#ARTISTTRANSLIT:;
#GENRE:;
#ORIGIN:;
#CREDIT:;
#BANNER:Now I Do.png;
#BACKGROUND:Now I Do-bg.png;
#PREVIEWVID:;
#JACKET:Now I Do-jacket.png;
#CDIMAGE:;
#DISCIMAGE:;
#LYRICSPATH:;
#CDTITLE:;
#MUSIC:Now I Do.ogg;
#OFFSET:-0.044548;
#SAMPLESTART:54.932987;
#SAMPLELENGTH:13.714291;
#SELECTABLE:YES;
#BPMS:0.000=140.000,
189.500=135.000,
190.000=131.000,
190.500=127.000,
191.000=122.000,
191.500=118.000,
192.000=114.000;
#STOPS:;
#DELAYS:;
#WARPS:;
#TIMESIGNATURES:0.000=4=4;
#TICKCOUNTS:0.000=4;
#COMBOS:0.000=1;
#SPEEDS:0.000=1.000=0.000=0;
#SCROLLS:0.000=1.000;
#FAKES:;
#LABELS:0.000=Song Start;
#BGCHANGES:;
#KEYSOUNDS:;
#ATTACKS:
;

//---------------dance-single - ----------------
#NOTEDATA:;
#CHARTNAME:;
#STEPSTYPE:dance-single;
#DESCRIPTION:;
#CHARTSTYLE:;
#DIFFICULTY:Beginner;
#METER:5;
#RADARVALUES:0.201812,0.253650,0.000000,0.000000,0.008166,173.000000,173.000000,0.000000,0.000000,0.000000,0.000000,0.000000,0.000000,0.000000,0.201812,0.253650,0.000000,0.000000,0.008166,173.000000,173.000000,0.000000,0.000000,0.000000,0.000000,0.000000,0.000000,0.000000;
#CREDIT:Daniel Van Eden;
#NOTES:
0000
0000
0000
0000
,
0000
0000
0000
0000
,
0000
0000
0000
0000
,
0000
0000
0000
0000
,
0000
0000
0000
0000
,
0000
0000
0000
0000
,
0000
0000
0000
0000
,
0000
0000
0000
0000
,
0010
0000
0000
0000
0001
0000
0000
1000
,
0000
0000
0000
0001
0000
0000
0000
0000
,
0100
0000
0000
0000
0010
0000
0000
0010
,
0000
0000
0000
1000
0000
1000
0000
0000
,
0001
0000
0000
0000
1000
0000
0000
0010
,
0000
0000
0100
0001
,
0100
0000
0000
0000
0001
0000
0000
1000
,
0000
0000
0010
0100
,
1000
0001
0010
0001
,
0100
0010
1000
0001
,
1000
0000
0100
0000
,
0010
0000
0100
0000
,
1000
0010
0100
0010
,
1000
0001
0100
0010
,
0100
0000
0001
0000
,
1000
0000
0001
0000
,
0010
0001
0100
0010
,
1000
0001
1000
0100
,
0010
0010
0010
0000
,
0001
0001
0001
0000
,
0100
0001
0010
0100
,
1000
0001
0010
0001
,
0100
0100
0100
0000
,
0010
0000
0000
0000
,
1000
0000
0000
0000
0010
0000
0000
0100
,
0000
0000
0100
0001
,
0000
0000
0001
0000
1000
0000
0000
0010
,
0000
0010
0100
0010
,
0100
0000
0000
0000
0001
0000
0000
1000
,
0000
0000
0100
0100
,
0010
0000
0000
0000
0001
0000
0000
1000
,
0000
0001
0100
0010
,
1000
0000
1000
0000
0001
0000
0000
0010
,
0000
0000
0000
0010
0000
0000
0001
0000
,
0100
0000
0000
0000
0010
0000
0000
0100
,
0000
0000
0000
0100
0000
0001
0000
0000
,
0010
0001
0100
0001
,
1000
0100
1000
0010
,
1000
0000
0001
0000
0100
0000
0000
0001
,
0000
0010
0100
1000
,
0001
0100
0010
0100
,
0001
0010
0100
0010
,
0001
1000
0010
0100
,
0010
1000
0100
0010
,
0100
0010
0001
1000
,
0001
0100
0010
1000
,
0001
0010
0100
1000
,
0001
1000
0010
0100
,
0001
0001
0001
0000
,
1000
1000
1000
0000
,
0010
0010
0010
0010
,
0100
0000
0001
1000
,
0100
0010
0000
0001
,
1000
0000
0000
0000
0010
0000
0000
0000
1000
0000
0000
0000
0001
0000
0000
1000
0000
0000
0001
0000
0000
0000
0000
0000
,
1000
0100
0000
0000
0000
0000
0000
0000
;

//---------------dance-single - ----------------
#NOTEDATA:;
#CHARTNAME:;
#STEPSTYPE:dance-single;
#DESCRIPTION:;
#CHARTSTYLE:;
#DIFFICULTY:Challenge;
#METER:19;
#RADARVALUES:0.891239,1.035015,0.195979,0.057161,1.453512,764.000000,740.000000,24.000000,7.000000,0.000000,0.000000,0.000000,0.000000,0.000000,0.891239,1.035015,0.195979,0.057161,1.453512,764.000000,740.000000,24.000000,7.000000,0.000000,0.000000,0.000000,0.000000,0.000000;
#CREDIT:Daniel Van Eden;
#NOTES:
0000
0000
0000
0000
,
0000
0000
0000
0000
,
0000
0000
0000
0000
,
0000
0000
0000
0000
,
0000
0000
0000
0000
,
0000
0000
0000
0000
,
0000
0000
0000
0000
,
0000
0000
0000
0000
,
1010
0000
0000
0000
0000
0000
0010
1000
0001
0000
0000
0000
1000
0000
0101
0000
,
0000
0000
0000
0000
0000
0000
0010
0000
0000
0000
0000
0000
0001
0000
0000
0010
0000
0000
0100
0000
0000
0010
0000
0000
0100
0000
0000
0000
0000
0000
0000
0000
1000
0000
0000
0000
0000
0000
0000
0000
1000
0000
0000
0000
0000
0000
0000
0000
,
1100
0000
0100
1000
0001
0000
0100
0001
0010
0000
0001
1000
0100
0000
0010
0001
,
1000
0000
0000
0000
0000
0000
0000
0000
0000
0000
0000
0000
0000
0000
0000
0000
0000
0000
0000
0000
0000
0000
0000
0000
0001
0000
0000
0000
0000
0000
0000
0000
0000
0000
0000
0000
0100
0000
0000
0000
0000
0000
0000
0000
0000
0000
0000
0000
0001
0000
0000
0000
0000
0000
0000
0000
0000
0000
0000
0000
0000
0000
0000
0000
0000
0000
0000
0000
0000
0000
0000
0000
1000
0000
0000
0000
0000
0000
0000
0000
0000
0000
0000
0000
0010
0000
0000
0000
0000
0000
1000
0000
0000
0000
0000
0000
0010
0000
0000
0000
0000
0000
0000
0000
0000
0000
0000
0000
0000
0000
0000
0000
0100
0000
0000
0000
0000
0000
0000
0000
0000
0000
0000
0000
0000
0000
0000
0000
0001
0000
0000
0000
0000
0000
0000
0000
0000
0000
0000
0000
0000
0000
0000
0000
0010
0000
0000
0000
0000
0000
0000
0000
0000
0000
0000
0000
0000
0000
0000
0000
0100
0000
0000
0000
0000
0000
0000
0000
0000
0000
0000
0000
0000
0000
0000
0000
1000
0000
0000
0000
0000
0000
0000
0000
0000
0000
0000
0000
0000
0000
0000
0000
,
0001
0000
1000
0001
0101
0100
0010
0110
,
0100
0001
1001
1100
1000
0110
0101
0010
,
0011
0000
0010
0100
1001
1000
0100
0011
,
0000
0000
0001
0000
0100
0000
0010
0000
1000
0001
0000
0000
0001
0010
0000
0000
,
0001
0000
1000
0000
0010
1000
0010
1000
0001
0000
0100
0000
0010
0000
1000
0000
0001
0000
0100
0000
0010
0000
1000
0000
0001
0000
1000
0000
0100
0000
0010
0000
,
0001
0000
1000
0000
0001
0100
0001
0100
0010
0000
1000
0000
0001
0000
0010
0000
0100
0000
0010
0000
0001
0000
1000
0000
0100
0000
0010
0000
0100
0000
1000
0000
,
0010
0000
0100
0000
0001
1000
0001
1000
0001
0000
0010
0000
0001
0000
1000
0000
0100
0000
1000
0000
0010
0000
0100
0000
0010
0000
0100
0000
0001
0000
0010
0000
,
0100
0000
0010
0000
0001
1000
0001
1000
0001
0000
0100
0000
0010
0000
1000
0000
0001
0000
1000
0000
0100
0000
0010
0000
0001
0000
0100
0000
0010
0000
1000
0000
,
0100
0000
1000
0000
0001
0010
0001
0010
0001
0000
0100
0000
0010
0000
0100
0000
0001
0000
0100
0000
0010
0000
1000
0000
0001
0000
1000
0000
0010
0000
1000
0000
,
0001
0000
0010
0000
0100
1000
0100
1000
0100
0000
0010
0000
0001
0000
0010
0000
0100
0000
1000
0000
0001
0000
1000
0000
0010
0000
0100
0000
0001
0000
1000
0000
,
0010
0000
1000
0000
0100
0010
0100
0010
0001
0000
0010
0000
1000
0000
0010
0000
0001
0000
0100
0000
0010
0000
1000
0000
0001
0000
1000
0000
0010
0000
0100
0000
,
0001
0000
1000
0000
0010
0100
0010
0100
0001
0000
0100
0000
1000
0000
0100
0000
0001
0000
1000
0000
0001
0000
0010
0000
1000
0000
0010
0000
0001
0000
0100
0000
,
0010
0000
1000
0000
0010
1000
0001
0100
0010
0000
0100
0000
0001
0000
0100
0000
0010
0000
1000
0000
0001
0000
1000
0000
0100
0000
0010
0000
0001
0000
0100
0000
,
0010
0000
0000
0000
0010
0000
1000
0000
0001
0000
0100
0000
0000
0000
0100
0000
0010
0000
0000
0000
0100
0001
1000
0000
0000
0000
1000
0000
0100
0000
0010
0000
,
0001
0000
0000
0000
0001
0000
0010
0000
0001
0000
0000
0000
1000
0000
0010
1000
0010
0000
0000
0000
0100
0000
0010
0000
0000
0000
0100
0000
0010
0000
0000
0000
,
1000
0000
0000
0000
1000
0000
0010
0000
1000
0000
0000
0000
0001
0000
0010
0001
0010
0000
0000
0000
0100
0000
0010
0000
0000
0000
0010
0000
0100
0000
0000
0000
,
1000
0000
0000
0000
0010
0000
0010
0000
1000
0000
0000
0000
0001
0000
0100
0001
0100
0000
0000
0000
0010
0000
1000
0000
0000
0000
0001
0000
0100
0000
0000
0000
,
0001
0000
0010
0100
1000
0000
0001
0000
1000
0000
0000
0000
0000
0000
0010
1000
0010
0000
0000
0000
0100
0001
1000
0000
0000
0000
0001
0000
0100
0000
0001
0000
,
0010
0000
0000
0000
0100
0000
1000
0000
0001
0000
0000
0000
0000
0000
0100
0001
0100
0000
0000
0000
0010
0000
0100
0000
0000
0000
0001
0000
1000
0000
0001
0000
,
0010
0100
1000
0001
1000
0100
0010
0001
0100
0010
1000
0001
0100
0001
0010
0100
1000
0100
0010
0001
0100
0010
1000
0001
,
0100
0000
0000
0000
0001
0000
1000
0000
0100
0000
0000
0000
0000
0000
1000
0100
0010
0000
0000
0000
0010
0000
0001
0000
0100
0000
0010
0000
0100
0000
0010
0000
,
1000
0000
0000
0000
0000
0000
1001
0000
0000
0000
0000
0000
1000
0000
0010
0000
1000
0000
0001
0000
0100
0000
0010
0000
1000
0000
0000
0000
0000
0000
0000
0000
0000
1000
0000
0000
0001
0000
0000
0000
0000
0000
0100
0000
0000
0000
0000
0000
,
0000
0000
0000
0000
0001
0000
0010
0000
0001
0000
0000
0000
1000
0000
0001
1000
0001
0000
0000
0000
0100
0000
0010
0000
1000
0000
0001
0000
1000
0000
0100
0000
,
0010
0000
0001
0000
0010
0000
0001
0000
1000
0010
1000
0010
1000
0010
1000
0010
0100
0000
0010
0000
1000
0000
0001
0000
0000
0000
0001
0000
0100
0000
0010
0000
,
0100
0000
0010
0000
1000
0000
0001
0000
0011
0000
0010
0000
0100
0010
0100
0010
,
0001
0000
0010
0000
0100
0000
1000
0000
0100
0000
0010
0000
0001
0000
0100
0000
0010
0000
0000
0000
1000
0001
0100
0000
0000
0000
0001
0000
0100
0000
0010
0000
,
1000
0000
0000
0000
0100
0000
1000
0000
0001
0000
0000
0000
0100
0000
0001
1000
0010
0000
1000
0000
0100
0000
0010
0000
0001
0000
0100
0000
0010
0000
0000
0000
,
1000
0000
0000
0000
0010
0000
0100
0000
0001
0000
0000
0000
0010
0000
0001
0010
0100
0000
0000
0000
1000
0000
0010
0000
0200
0000
0000
0000
0302
0000
0000
0000
,
2003
0000
3010
0000
0000
0000
0100
0000
0100
0001
0100
0001
0010
0000
0110
0000
,
0100
0000
0000
1000
0000
0000
0001
0000
0000
0010
0001
1000
0100
0000
0000
1000
0000
0000
0010
1000
0001
1000
0001
1000
,
0100
0000
1000
0001
0010
0000
0001
0000
0101
0000
0001
1000
0010
0000
0100
0010
,
1000
0000
0000
0010
0000
0000
1000
0000
0000
0001
0000
0000
1000
0000
0000
0100
0000
0000
0010
0000
0001
0000
1000
0000
0001
0000
0000
0000
0100
0000
0000
0000
0010
0000
0000
0000
0100
0000
0000
0000
0010
0000
0000
0000
1000
0000
0001
0000
,
1000
0000
0010
1000
0001
0000
0100
1000
0100
0000
0001
0010
1000
0000
0010
0001
,
0010
0000
0000
0000
0000
0000
0100
0000
0000
1000
0000
0000
0001
0000
0000
0000
0000
0000
1000
0000
0000
0000
0000
0000
0010
0000
0000
0000
0000
0000
1000
0000
0000
0000
0000
0000
0100
0000
0000
0000
0000
0000
0010
0000
0100
0000
0010
0000
,
0100
0000
1000
0000
0001
0000
0010
0000
0001
0100
0010
0000
1000
0010
0100
0000
,
0001
0000
1000
0000
0100
0000
0010
0000
0001
0010
0000
0000
0100
1000
0000
0000
,
1000
0000
0010
0000
1000
0001
1000
0001
0100
0000
0010
0000
0100
0000
0001
0000
0010
0000
0100
0000
1000
0000
0100
0000
0010
0000
0001
0000
1000
0000
0100
0000
,
0010
0000
0001
0000
1000
0001
1000
0001
0100
0000
0010
0000
1000
0000
0001
0000
0100
0000
0010
0000
0100
0000
0001
0000
1000
0000
0010
0000
0100
0000
0001
0000
,
1000
0000
0001
0000
0010
0100
0010
0100
1000
0000
0010
0000
0100
0000
0001
0000
1000
0000
0001
0000
0010
0000
0100
0000
1000
0000
0100
0000
0010
0000
0001
0000
,
1000
0000
0001
0000
0100
0010
0100
0010
1000
0000
0100
0000
0010
0000
0001
0000
1000
0000
0100
0000
1000
0000
0010
0000
0100
0000
0001
0000
0100
0000
0010
0000
,
1000
0000
0001
0000
0010
0100
0010
0001
1000
0000
0010
0000
0100
0000
0010
0000
0100
0000
0001
0000
1000
0000
0010
0000
0100
0000
0001
0000
0010
0000
0100
0000
,
1000
0000
0100
0000
0010
0100
1000
0001
0010
0000
0001
0000
1000
0000
0001
0100
0001
0000
0100
0000
0010
0000
1000
0000
0001
0000
1000
0000
0100
0000
0010
0000
,
0001
0000
1000
0000
0010
1000
0010
0100
0001
0000
1000
0000
0001
0000
0010
0000
0100
0000
1000
0000
0100
0000
0010
0000
0001
1000
0001
0000
0100
0000
0010
0000
,
1000
0000
0010
0000
0100
0000
0001
0000
0010
0001
1000
0000
0001
0000
0100
0000
0001
0000
0010
0000
0100
0000
1000
0000
0010
1000
0001
0000
0100
0001
1000
0000
,
0010
0000
0000
0000
0000
0000
0000
0000
0010
0100
0000
0000
0000
0000
0000
0000
0101
0000
0000
0000
0000
0000
0000
0000
2000
0000
0000
0000
0000
0000
0000
0000
,
3100
0000
0000
0000
0000
0000
0000
0000
0100
0010
0000
0000
0010
0000
0000
0000
0011
0000
0000
0000
0010
0000
0001
0000
0000
0000
0100
0000
0010
0000
1000
0000
,
0001
0100
0001
0000
0000
0001
1000
0000
0010
0100
0010
1000
0000
0010
0100
0001
,
0010
0001
1000
0010
0100
0001
0010
0100
1002
0000
0000
0000
0013
0000
0000
0100
,
0000
0000
0000
0100
0000
0000
0000
0000
0000
0100
0000
0000
1000
0000
0100
0000
1000
0000
0100
0000
0010
0000
0001
0000
0100
0000
0010
0000
1000
0000
0100
0000
0010
0000
0001
0000
0100
0000
0000
0000
0010
0000
0000
0000
1000
0000
0000
0000
,
1010
0000
0000
0000
0110
0000
0000
0000
0101
0000
0000
0001
1000
0000
0000
0010
0000
0000
0100
0000
0000
0000
0000
0000
,
0110
2002
0000
0000
0000
0000
0000
0000
,
0000
0000
0000
0000
,
0000
0000
0000
0000
,
3003
0000
0000
0000
;

//---------------dance-single - ----------------
#NOTEDATA:;
#CHARTNAME:;
#STEPSTYPE:dance-single;
#DESCRIPTION:;
#CHARTSTYLE:;
#DIFFICULTY:Hard;
#METER:17;
#RADARVALUES:0.769918,0.966831,0.244974,0.097990,1.037056,660.000000,630.000000,30.000000,12.000000,0.000000,0.000000,0.000000,0.000000,0.000000,0.769918,0.966831,0.244974,0.097990,1.037056,660.000000,630.000000,30.000000,12.000000,0.000000,0.000000,0.000000,0.000000,0.000000;
#CREDIT:Daniel Van Eden;
#NOTES:
// measure 0
0000
0000
0000
0000
,  // measure 1
0000
0000
0000
0000
,  // measure 2
0000
0000
0000
0000
,  // measure 3
0000
0000
0000
0000
,  // measure 4
0000
0000
0000
0000
,  // measure 5
0000
0000
0000
0000
,  // measure 6
0000
0000
0000
0000
,  // measure 7
0000
0000
0000
0000
,  // measure 8
1100
0000
0000
0000
0000
0000
0100
0010
0100
0000
0000
0000
0010
0000
0011
0000
,  // measure 9
0000
0000
0000
0000
0001
1000
0100
0000
0000
0000
1000
0001
0010
0000
0001
1000
,  // measure 10
0001
0000
1000
0010
1000
0000
0001
1000
0001
0000
0100
0001
0010
0000
0001
0010
,  // measure 11
0001
0000
0000
0000
0000
0000
1000
0000
0000
0100
0000
0000
1000
0000
0000
0000
0000
0000
0100
0000
0000
1000
0000
0000
0010
0000
0000
0000
1000
0000
0000
0000
0100
0000
0000
0000
0010
0000
0000
0000
0001
0000
0000
0000
0100
0000
0000
0000
,  // measure 12
0010
1000
0001
1000
0101
1000
0001
1010
,  // measure 13
1000
0000
0100
0000
0110
0000
0011
0000
0001
0000
0110
0000
1100
0000
1000
0001
,  // measure 14
1000
0001
1000
0100
1100
1000
0001
0011
,  // measure 15
0000
0000
1000
0000
0100
0000
0010
0000
0001
1000
0000
0000
1000
0100
0000
0000
,  // measure 16
0010
0001
1000
0001
0100
0010
1000
0001
0100
0001
0010
0100
1000
0010
1000
0100
,  // measure 17
0010
0100
1000
0001
0010
0001
0100
0010
1000
0001
0100
0010
0100
0001
0010
0100
,  // measure 18
1000
0010
0100
0001
1000
0010
1000
0100
0010
0001
0010
0100
1000
0010
0100
0001
,  // measure 19
1000
0010
1000
0100
0010
0001
0100
0010
0100
0001
0010
0100
1000
0001
0010
0001
,  // measure 20
0100
0010
1000
0001
1000
0010
0100
0001
0010
0100
1000
0001
1000
0100
0010
0001
,  // measure 21
0100
0010
1000
0001
0010
0001
0100
0010
1000
0001
1000
0010
0100
0001
0010
0100
,  // measure 22
1000
0100
0010
0001
0100
0001
0010
0100
1000
0010
1000
0001
0100
0010
1000
0001
,  // measure 23
1000
0010
0100
0001
1000
0010
1000
0001
0010
0100
1000
0010
1000
0100
0010
0001
,  // measure 24
0100
0010
1000
0010
1000
0001
0100
0001
0010
0100
1000
0001
0010
0001
0100
0010
,  // measure 25
1000
0000
0010
1000
0001
0100
0000
0100
0010
0000
0100
0001
0000
0001
0010
0100
,  // measure 26
1000
0000
0001
1000
0001
0000
0010
0100
0010
0000
0001
0100
0000
0010
0100
0000
,  // measure 27
0001
0000
1000
0001
1000
0000
0010
0100
0010
0000
1000
0100
0000
0010
0100
0000
,  // measure 28
0010
0000
0001
1000
0100
0000
1000
0001
0010
0000
0001
1000
0000
0100
1000
0000
,  // measure 29
0010
1000
0001
0100
0010
0000
1000
0001
0100
0000
0010
1000
0000
0010
0100
0000
,  // measure 30
0010
0000
0100
0001
1000
0000
0010
1000
0100
0000
0010
0001
0000
0010
0100
0000
,  // measure 31
0020
0000
0000
0000
,  // measure 32
0031
0000
0100
0001
0100
0000
0000
0100
0010
0000
1000
0000
0001
1000
0001
1000
,  // measure 33
0001
0000
0011
0000
0020
0000
0000
0000
0130
0000
0100
1000
0002
0000
0000
0000
,  // measure 34
1003
0000
0010
1000
0010
0000
0100
0001
1000
0000
0010
0000
1000
0001
0010
0001
,  // measure 35
0010
0100
1000
0100
0001
0100
1000
0010
,  // measure 36
0100
0000
0010
0000
0100
0000
0001
0000
1000
0000
0001
0000
0010
0001
0010
0001
,  // measure 37
0100
0001
0100
0010
1000
0001
1000
0100
0010
0000
0100
0010
0000
0010
0001
1000
,  // measure 38
0100
0000
0010
0001
0100
0000
0010
1000
0100
0000
1000
0010
1000
0010
0100
0000
,  // measure 39
0010
0000
1000
0001
0100
0000
0001
1000
0001
0000
0010
0000
1000
0000
0001
0000
,  // measure 40
0100
0000
1000
0000
0000
0000
1000
0000
1010
0000
0010
0100
0010
0000
0110
0000
,  // measure 41
0000
0100
0001
1001
0000
1000
0020
1000
,  // measure 42
0130
0000
0001
0100
0010
0000
1000
0000
0001
0000
1000
0010
0100
0000
0001
1000
,  // measure 43
0001
0000
0000
1000
0000
0000
0010
0000
0000
1000
0000
0000
0100
0000
0000
0010
0000
0000
0001
0000
0000
1000
0000
0000
0100
0000
0000
0000
0010
0000
0000
0000
0001
0000
0000
0000
0010
0000
0000
0000
0100
0000
0000
0000
1000
0000
0000
0000
,  // measure 44
0001
0010
0001
1000
1010
0010
0100
0101
,  // measure 45
0001
0010
1100
0101
1000
0011
1010
0100
,  // measure 46
1001
0010
0100
1000
0011
0100
0001
1010
,  // measure 47
1000
0000
0010
0000
0100
0000
0001
0000
1000
0001
0000
0000
0001
0100
0000
0000
,  // measure 48
0010
0000
1000
0000
0010
1000
0010
1000
0010
0000
1000
0000
0100
0000
0010
0000
0001
0000
0010
0000
0100
0000
1000
0000
0010
0000
0100
0000
0001
0000
0010
0000
,  // measure 49
0001
0000
0100
0000
0001
0100
0001
0100
0001
0000
0010
0000
0100
0000
1000
0000
0001
0000
1000
0000
0100
0000
0010
0000
0001
0000
0100
0000
0010
0000
1000
0000
,  // measure 50
0001
0000
1000
0000
0001
1000
0001
1000
0001
0000
0100
0000
0010
0000
1000
0000
0001
0000
0100
0000
0001
0000
0010
0000
0100
0000
1000
0000
0010
0000
1000
0000
,  // measure 51
0100
0000
0010
0000
0100
0010
0100
0010
0100
0000
1000
0000
0001
0000
0010
0000
0100
0000
0010
0000
0001
0000
0100
0000
0010
0000
1000
0000
0001
0000
0010
0000
,  // measure 52
0100
0000
1000
0000
0100
1000
0100
1000
0100
0000
0010
0000
0001
0000
1000
0000
0100
0000
1000
0000
0001
0000
0100
0000
0010
0000
1000
0000
0010
0000
0100
0000
,  // measure 53
0001
0000
0010
0000
0001
0010
0001
0010
0001
0000
1000
0000
0100
0000
0010
0000
0001
0000
1000
0000
0001
0000
0010
0000
0100
0000
1000
0000
0010
0000
0100
0000
,  // measure 54
0001
0000
0100
0000
0001
0100
0001
0100
0001
0000
1000
0000
0010
0000
0100
0000
0001
0000
0010
0000
0100
0000
0010
0000
0001
0000
1000
0000
0001
0000
0100
0000
,  // measure 55
0010
0000
1000
0000
0010
1000
0010
1000
0010
0000
0100
0000
0001
0000
1000
0000
0010
0000
1000
0000
0100
0000
0010
0000
0001
0000
0100
0000
0010
0000
1000
0000
,  // measure 56
0001
0000
0010
0100
0000
1000
0000
1000
0000
0100
0010
0001
0000
0000
0000
0000
,  // measure 57
1000
0000
0001
0100
0000
0010
0000
0010
0000
1000
0010
0100
0000
0010
0100
0001
,  // measure 58
1000
0001
1000
0000
0010
0100
0010
0000
0100
0001
0100
0000
0001
1000
0001
0000
,  // measure 59
0020
0000
0000
0000
0130
0000
0200
0300
,  // measure 60
0020
0000
0000
0030
0000
0000
2002
0000
0000
0003
0000
0000
0200
0000
0000
0300
0000
0000
3010
0000
0100
0000
0001
0000
,  // measure 61
0010
0000
0000
0000
0110
0000
0000
0000
1100
0000
0000
0000
1010
0000
0000
0110
0000
0000
0101
0000
0000
0000
0000
0000
,  // measure 62
0010
2002
0000
0000
0000
0000
0000
0000
,  // measure 63
0000
0000
0000
0000
,  // measure 64
3003
0000
0000
0000
;

//---------------dance-single - ----------------
#NOTEDATA:;
#CHARTNAME:;
#STEPSTYPE:dance-single;
#DESCRIPTION:;
#CHARTSTYLE:;
#DIFFICULTY:Medium;
#METER:14;
#RADARVALUES:0.569273,0.862308,0.138819,0.048995,0.489948,488.000000,471.000000,17.000000,6.000000,0.000000,0.000000,0.000000,0.000000,0.000000,0.569273,0.862308,0.138819,0.048995,0.489948,488.000000,471.000000,17.000000,6.000000,0.000000,0.000000,0.000000,0.000000,0.000000;
#CREDIT:Daniel Van Eden;
#NOTES:
0000
0000
0000
0000
,
0000
0000
0000
0000
,
0000
0000
0000
0000
,
0000
0000
0000
0000
,
0000
0000
0000
0000
,
0000
0000
0000
0000
,
0000
0000
0000
0000
,
0000
0000
0000
0000
,
0110
0000
0010
0001
0000
1000
0000
0101
,
0000
0000
0001
1010
0000
1000
0001
0000
,
1001
0000
0010
1000
0000
0100
0000
0011
,
0000
0000
0000
0010
0000
0000
0001
0000
0000
0100
0000
0000
0010
0000
1000
0000
0010
0000
0100
0000
0001
0000
0100
0000
,
0001
0010
0001
1000
0001
1000
0100
0010
,
0100
1000
0010
0100
0001
0010
0100
0010
,
0001
1000
0100
1000
0010
0100
0010
1000
,
0001
0000
0100
0000
0010
0000
1000
0000
0001
0010
0000
0000
0100
1000
0000
0000
,
1000
0000
0010
1000
0010
0000
0100
0000
0001
0000
1000
0000
0001
0000
0010
0000
,
0100
0010
0001
1000
0100
1000
0010
0100
,
0001
0000
1000
0010
1000
0000
0001
0000
0010
0000
0100
0000
1000
0000
0100
0000
,
0010
0000
0001
0100
0001
0000
0010
0000
0100
0000
1000
0000
0100
0000
0010
0000
,
0001
0000
0100
0010
0100
0000
0010
0000
1000
0000
0001
0000
0010
0000
0001
0000
,
1000
0100
0010
0001
0100
0010
1000
0001
,
0100
0000
0010
1000
0010
0000
0100
0000
0001
0000
0100
0000
0010
0000
1000
0000
,
0010
0000
0100
0001
0100
0000
0010
0000
1000
0000
0100
0000
0010
0000
0001
0000
,
1000
0000
0001
1000
0001
0000
0010
0000
0100
0000
1000
0000
0010
0000
1000
0000
,
1100
0110
0011
1001
,
0010
0000
0000
0010
0001
0000
0000
0001
1000
0000
0001
1000
0000
0001
1000
0000
,
0100
0000
0000
0100
1000
0000
0000
1000
0010
0000
0100
0010
0000
0100
0010
0000
,
0100
0000
0000
0100
0001
0000
0000
0001
1000
0000
0001
1000
0000
0001
1000
0000
,
0100
0010
0000
0010
0100
0000
0000
0100
0010
0000
0001
0010
0000
0001
0010
0000
,
0001
0000
0000
0001
1000
0000
0000
1000
0100
0000
0010
0100
0000
0010
0100
0000
,
2000
0000
0000
0000
,
3001
0000
0010
0100
0000
1000
0000
1001
,
0000
0000
0001
0000
0100
0000
0010
1000
0001
0000
0010
0001
1000
0000
0000
0000
,
0000
0000
0001
0100
0001
0000
1000
0000
0100
0000
0010
0000
0001
0000
1000
0000
,
0000
1000
0100
1000
0010
1000
0001
1000
,
0100
0010
0100
0010
0001
1000
0001
0100
,
0010
0000
1000
0000
0100
0000
0010
0000
0001
0000
1000
0001
0000
1000
0001
0000
,
0100
0010
0100
0001
1000
0010
1000
0100
,
0000
0100
1000
0010
0001
0010
1000
0100
,
0010
0001
0000
0000
0101
0000
0000
1010
,
0000
1000
0100
0110
0000
0020
0000
0001
,
0031
0000
0001
1000
0000
0010
0000
1010
,
0000
0000
0000
1000
0000
0000
0001
0000
0000
0100
0000
0000
0010
0000
1000
0000
0010
0000
0100
0000
0001
0000
0100
0000
,
0010
1000
0001
1000
0100
0010
0001
1000
,
0001
0010
0100
1000
0010
0100
0001
1000
,
0010
1000
0100
0010
0001
0100
0001
1000
,
0010
0000
1000
0000
0100
0000
0010
0000
0001
0010
0000
0000
0100
1000
0000
0000
,
1000
0100
0010
0001
0100
0010
1000
0001
1000
0100
0010
0001
0100
0010
1000
0010
,
0100
0001
0010
0100
0010
0001
1000
0100
0010
0001
0100
0010
1000
0100
1000
0001
,
0100
0010
1000
0100
0010
0001
0010
0001
0100
0010
0100
0001
1000
0010
1000
0100
,
0010
0001
0010
0100
1000
0010
0100
0010
1000
0100
0010
0001
0100
0010
1000
0001
,
0010
0001
0100
0010
1000
0001
0100
0010
0100
0001
1000
0100
0010
0001
1000
0100
,
0010
0100
1000
0001
0010
0001
0100
0010
0100
0001
1000
0100
0010
0100
1000
0010
,
0100
0001
1000
0010
1000
0001
0010
0100
1000
0001
1000
0100
0010
0001
0100
0010
,
0100
0001
1000
0010
1000
0001
0100
0010
1000
0100
0010
0001
0010
0100
1000
0010
,
0100
0010
1000
0000
,
0101
0000
0000
0000
0001
0000
0010
0000
0010
0000
0001
1000
0000
0001
1000
0000
,
0010
1000
0010
0000
0000
1000
0100
0000
0010
0000
0001
0010
0000
0010
0100
1000
,
0002
0100
1000
0100
0010
0013
0100
0000
,
1000
0000
0000
2010
0000
0000
0100
0000
0000
3001
0010
0100
,
1000
0000
0000
0000
0100
0000
0000
0000
0100
0000
0000
0000
0010
0000
0000
0001
0000
0000
0100
0000
0000
0000
0000
0000
,
0010
2002
0000
0000
0000
0000
0000
0000
,
0000
0000
0000
0000
,
3003
0000
0000
0000
;

//---------------dance-single - ----------------
#NOTEDATA:;
#CHARTNAME:;
#STEPSTYPE:dance-single;
#DESCRIPTION:;
#CHARTSTYLE:;
#DIFFICULTY:Easy;
#METER:9;
#RADARVALUES:0.324299,0.418089,0.171482,0.048995,0.020414,278.000000,257.000000,21.000000,6.000000,0.000000,0.000000,0.000000,0.000000,0.000000,0.324299,0.418089,0.171482,0.048995,0.020414,278.000000,257.000000,21.000000,6.000000,0.000000,0.000000,0.000000,0.000000,0.000000;
#CREDIT:Daniel Van Eden;
#NOTES:
0000
0000
0000
0000
,
0000
0000
0000
0000
,
0000
0000
0000
0000
,
0000
0000
0000
0000
,
0000
0000
0000
0000
,
0000
0000
0000
0000
,
0000
0000
0000
0000
,
0000
0000
0000
0000
,
0010
0000
0000
1000
0000
0100
0000
0020
,
0000
0000
0130
2000
0000
0000
3100
0000
,
0010
0000
0001
0010
0000
0100
0000
0010
,
0001
0000
0100
0000
0010
1000
0010
0000
,
1000
0000
0001
1000
0000
0100
0000
0100
,
0000
0000
0010
0100
0010
0001
1000
0000
,
0001
0000
0100
0010
0000
0000
0010
1000
,
0000
1000
0100
0010
0001
0000
0100
0000
,
1010
0010
1000
0100
,
0010
0100
0010
0001
,
1000
0000
0001
0100
0001
0000
1000
0000
,
0001
0000
1000
0100
1000
0000
0100
0000
,
0011
0001
0100
0010
,
1000
0001
0010
0100
,
1000
0000
0010
1000
0010
0000
1000
0000
,
0001
0000
0010
0001
0010
0000
0001
0000
,
0100
0010
1000
0100
,
0010
0001
1000
0001
,
0100
0000
0000
0000
0100
0000
0000
0000
0010
0000
0000
0010
0000
0000
0010
0000
,
1000
0000
0000
0000
1000
0000
0000
0000
0001
0000
0000
0001
0000
0000
0001
0000
,
0010
0100
1000
0010
,
1000
0001
1000
0000
0100
0000
0010
0000
,
0001
0000
0000
0000
0001
0000
0000
0000
0010
0000
0000
0010
0000
0000
0010
0000
,
0200
0000
0000
0000
,
1300
0000
0010
1000
0000
0001
0000
0101
,
0000
0000
0100
0001
0000
0001
1000
0000
,
0010
0000
0001
0010
0000
0100
0000
1100
,
0000
1000
0100
0010
,
0001
0000
0100
0010
0000
1000
0000
0001
,
0000
0000
0010
0100
0010
0001
1000
0000
,
0100
0000
1000
0010
0000
0000
0010
0100
,
0000
0100
0010
0001
0100
0010
1000
0001
,
0010
0100
0000
0010
0000
0001
0000
0010
,
0000
0000
0001
1000
0000
1000
0010
0000
,
1001
0000
0001
0100
0000
0010
0000
1000
,
0000
0000
1000
0010
1000
0001
1000
0000
,
0100
0000
0010
0001
0000
0010
0000
0100
,
0000
0000
0100
1000
0100
0010
0001
0000
,
0100
0000
0010
1000
0000
0000
1000
0001
,
0000
1000
0001
0010
0100
0000
1000
0000
,
1010
0000
0010
1000
0100
0010
0001
0000
,
0011
0000
0010
0001
0100
0010
1000
0000
,
0101
0000
0100
0001
1000
0010
1000
0000
,
1100
0000
1000
0100
0010
0001
0010
0000
,
1001
0000
0010
0001
0100
0010
1000
0000
,
0110
0000
1000
0010
0100
0001
0010
0000
,
1100
0000
1000
0010
0001
0010
1000
0000
,
0101
0000
0001
0010
1000
0010
0001
0000
,
1001
0100
0110
0000
,
1010
1000
1001
0000
,
0011
0010
0110
0100
,
1002
0000
0013
0100
,
1000
1020
0100
1030
,
1000
0000
0000
0000
0001
0000
0000
0000
0001
0000
0000
0000
0010
0000
0000
0100
0000
0000
1000
0000
0000
0000
0000
0000
,
1000
0002
0000
0000
0000
0000
0000
0000
,
0000
0000
0000
0000
,
0003
0000
0000
0000
;
