#TITLE:Multitalents;
#SUBTITLE:;
#ARTIST:PSYQUI;
#TITLETRANSLIT:;
#SUBTITLETRANSLIT:;
#ARTISTTRANSLIT:;
#GENRE:;
#CREDIT:;
#BANNER:banner.png;
#BACKGROUND:background.png;
#LYRICSPATH:;
#CDTITLE:;
#MUSIC:Multitalents.ogg;
#OFFSET:1.515275;
#SAMPLESTART:36.016022;
#SAMPLELENGTH:12.000000;
#LASTBEATHINT:1.290608;
#SELECTABLE:YES;
#BPMS:0.000000=160.000000
;
#STOPS:
;
#BGCHANGES:;
#KEYSOUNDS:;
#ATTACKS:;

//---------------dance-single - ----------------
#NOTES:
     dance-single:
     :
     Hard:
     16:
     0.935395,1.031536,0.255701,0.228304,0.894953,717.000000,689.000000,28.000000,25.000000,0.000000,0.000000,0.935395,1.031536,0.255701,0.228304,0.894953,717.000000,689.000000,28.000000,25.000000,0.000000,0.000000:
// measure 0
0000
0000
0000
0000
,  // measure 1
0000
0000
0000
0000
,  // measure 2
0000
0000
0000
0000
,  // measure 3
0000
0000
0000
0000
,  // measure 4
0000
0000
0000
0000
,  // measure 5
0000
0000
0000
0000
,  // measure 6
0000
0000
0000
0000
,  // measure 7
0000
0000
0000
0000
,  // measure 8
0000
0000
0000
0000
,  // measure 9
0010
0000
1000
0000
0001
0100
0001
0000
1000
0010
1000
0000
0001
0000
0010
0000
,  // measure 10
0100
1000
0001
0000
0010
0001
0100
0000
0010
0000
1000
0000
0001
0000
0010
0001
,  // measure 11
0100
0000
0001
0000
1000
0100
1000
0000
0001
0010
0001
0000
1000
0000
0010
0000
,  // measure 12
0100
0001
1000
0000
0010
1000
0100
0000
0010
0000
0001
0000
0010
0000
0100
1000
,  // measure 13
0001
0000
0010
0000
0001
0100
0001
0000
1000
0010
1000
0000
0001
0000
0010
0000
,  // measure 14
0100
1000
0010
0000
0100
0001
1000
0000
0010
0000
0100
0000
0001
0000
0010
0001
,  // measure 15
1000
0000
0001
0000
0100
0001
0100
0000
0010
1000
0010
0000
1000
0000
0001
0000
,  // measure 16
0010
0100
1000
0000
0001
1000
0010
0000
0100
0100
0010
0000
1010
0000
1000
0000
,  // measure 17
1001
0000
0000
0001
0100
0000
0001
0000
0010
0000
0000
0100
1000
0000
0100
0000
,  // measure 18
0010
0000
0000
0001
0100
0000
0001
0000
1000
0010
0000
0010
1000
0000
0100
0000
,  // measure 19
1000
0000
0000
1000
0100
0000
0010
0000
0001
0100
0001
0000
1000
0000
0010
0000
,  // measure 20
1000
0000
0000
0001
1000
0000
0010
0000
0100
0001
0000
0001
0100
0000
0010
0000
,  // measure 21
1000
0000
0001
1000
0001
0000
0100
0000
0010
0000
0100
0010
1000
0000
0001
0000
,  // measure 22
0010
0000
0100
0010
0100
0000
1000
0000
0001
0000
0010
0001
1000
0000
0100
0000
,  // measure 23
0010
0100
0010
0100
1000
0100
1000
0010
0100
0001
0100
0010
1000
0100
0010
0001
,  // measure 24
1000
0000
1000
0000
0010
0000
0010
1000
0000
1000
0001
0000
0011
0000
0100
0000
,  // measure 25
2002
0000
0000
0000
0000
0000
3003
0000
0001
0100
0010
1000
0001
0000
0100
0001
,  // measure 26
1000
0000
0010
0000
0100
0000
0001
0100
0010
1000
0100
0010
0001
0000
0010
0001
,  // measure 27
1000
0000
0001
0000
0100
0000
0010
1000
0100
0010
0001
0100
0010
0000
1000
0001
,  // measure 28
0010
0000
0100
0000
0010
0000
0001
1000
0001
0000
0010
0000
1001
0000
1001
0000
,  // measure 29
0110
0000
0110
0000
1001
0000
0100
0001
0100
0010
1000
0100
0010
0000
0001
1000
,  // measure 30
0100
0000
1000
0000
0010
0000
0100
0010
1000
0001
0010
0100
2000
0000
3000
0000
,  // measure 31
0020
0030
0100
0000
0020
0030
0100
0001
0020
0031
1000
0020
1030
0000
0020
1030
,  // measure 32
0200
0300
1000
0000
0200
0300
0010
0001
0100
0100
0010
0000
1000
0000
0001
0000
,  // measure 33
2002
0000
0000
0000
0000
0000
3003
0000
1000
0010
0100
0001
0100
0010
1000
0001
,  // measure 34
1000
0000
0100
0010
0001
0000
1000
0001
0100
0010
1000
0001
1000
0010
0100
0001
,  // measure 35
0010
0000
0001
1000
0001
0000
0100
0001
0010
0100
1000
0001
1000
0100
0010
0001
,  // measure 36
1000
0000
0100
1000
0001
0000
0010
0001
0100
0000
0001
0000
0110
0000
0110
0000
,  // measure 37
1001
0000
1001
0000
0110
0000
0010
1000
0001
0100
0001
1000
0100
0010
0001
0010
,  // measure 38
0100
0000
1000
0001
0100
0000
0010
0100
0001
1000
0010
0100
0010
1000
0010
1000
,  // measure 39
0002
0003
1000
0000
0002
0003
0010
0000
0002
0003
0100
0002
0103
0000
0002
0003
,  // measure 40
2000
3000
0010
0000
2000
3000
0100
0000
0022
0000
0033
0000
2002
0000
3003
0000
,  // measure 41
2200
0000
3300
0000
1001
0000
0001
0100
0001
0010
0100
1000
0100
0010
0001
1000
,  // measure 42
0001
0000
0100
0010
0100
0000
0010
1000
0100
0010
0001
1000
0001
0010
0100
1000
,  // measure 43
0010
0000
1000
0010
0100
0000
0001
0100
0010
1000
0001
1000
0100
0010
0001
1000
,  // measure 44
0001
0000
1000
0010
0100
0000
0001
0100
0010
0000
1000
0000
0001
0000
0001
0000
,  // measure 45
1100
0000
1100
0000
0011
0000
0001
0000
0010
0000
0100
0010
0100
0000
0010
0000
,  // measure 46
0010
0000
0001
0000
0100
0000
0010
0000
0100
0000
0001
0100
0001
0000
1000
0000
,  // measure 47
1010
0010
1000
0010
0100
0001
0100
0001
,  // measure 48
1000
0000
0001
0000
1000
0000
0001
0000
0010
0000
0100
0010
0000
0001
0010
0100
,  // measure 49
1000
0000
0010
0000
0100
0001
1000
0000
0001
1000
0100
0000
0010
0000
0001
0000
,  // measure 50
1000
0001
0010
0000
0100
0010
0001
0000
0100
0000
0010
0000
1000
0000
0001
0100
,  // measure 51
0001
0000
1000
0000
0010
1000
0001
0000
0010
0001
1000
0000
0100
0000
0010
0000
,  // measure 52
0001
1000
0100
0000
1000
0010
1000
0000
0010
0000
0100
0000
0001
0000
0100
0001
,  // measure 53
1000
0000
0010
0000
1000
0100
0001
0000
0100
1000
0001
0000
0100
0000
0010
0000
,  // measure 54
1000
0010
0001
0000
0010
1000
0001
0000
0010
0000
0100
0000
1000
0000
0010
1000
,  // measure 55
0010
0000
1000
0000
0001
0100
1000
0000
0100
0001
1000
0000
0100
0000
0010
0000
,  // measure 56
0001
0010
1000
0000
0010
0001
0100
0000
0010
0010
0100
0000
0101
0000
0001
0000
,  // measure 57
1001
0000
1000
0000
0010
0000
1000
0100
1000
0010
0100
0001
1000
0000
0001
0010
,  // measure 58
0001
0100
0010
0000
1000
0000
0001
0100
0001
0010
0100
0000
1000
0000
0010
1000
,  // measure 59
0001
0000
0100
0000
0010
0000
0100
0001
1000
0010
1000
0100
0010
0000
0001
0010
,  // measure 60
0001
1000
0100
0000
1000
0000
0010
0100
0010
1000
0001
0000
0010
0000
0100
1000
,  // measure 61
0001
0000
0100
0000
0010
0000
0100
0001
0100
0010
1000
0001
0100
0000
0001
0010
,  // measure 62
0001
1000
0100
0000
0010
0000
0100
1000
0001
0010
0001
0000
0100
0000
0010
0000
,  // measure 63
1000
0000
0001
0000
0010
0000
0001
0100
0010
1000
0001
1000
0100
0000
0010
0001
,  // measure 64
1000
0001
0100
0000
0010
0000
0100
0001
1000
0010
1000
0100
0010
0000
0001
1000
,  // measure 65
0100
0000
0010
0000
0001
0000
0100
0001
0100
1000
0100
0001
1000
0000
0010
1000
,  // measure 66
0010
0000
1000
0000
0001
0000
1000
0100
0001
0100
1000
0000
0010
0000
0100
0001
,  // measure 67
0010
0000
0100
0000
1000
0000
0100
1000
0100
0001
0100
1000
0001
0000
0010
0001
,  // measure 68
0010
0000
0001
0000
1000
0000
0001
0100
1000
0100
0001
0000
0010
0000
0100
1000
,  // measure 69
0001
0000
1000
0000
0010
0000
0100
0010
0100
1000
0100
0001
0010
0000
0100
0010
,  // measure 70
0001
0000
1000
0000
0100
0000
0010
0100
0001
0100
1000
0000
0001
0000
0100
0000
,  // measure 71
0110
0010
0100
0010
1000
0010
1000
0010
,  // measure 72
0100
0000
0001
0000
0100
0000
0001
0000
0010
0010
0100
0000
1100
0000
1001
0000
;

//---------------dance-single - ----------------
#NOTES:
     dance-single:
     :
     Medium:
     13:
     0.661430,0.698782,0.255701,0.255701,0.292229,507.000000,479.000000,28.000000,28.000000,0.000000,0.000000,0.661430,0.698782,0.255701,0.255701,0.292229,507.000000,479.000000,28.000000,28.000000,0.000000,0.000000:
0000
0000
0000
0000
,
0000
0000
0000
0000
,
0000
0000
0000
0000
,
0000
0000
0000
0000
,
0000
0000
0000
0000
,
0000
0000
0000
0000
,
0000
0000
0000
0000
,
0000
0000
0000
0000
,
0000
0000
0000
0000
,
0020
0000
1030
0001
0020
0000
0031
1000
,
0100
0010
0010
0001
0100
0010
1000
0001
,
0200
0000
0301
1000
0200
0000
0310
0001
,
1000
0100
0100
0010
0001
0100
0010
1000
,
0002
0000
0013
0100
2000
0000
3010
0100
,
0001
1000
1000
0010
1000
0001
0010
0100
,
2000
0000
3100
0010
0002
0000
0013
0100
,
1000
0000
0010
0000
1000
0000
0001
0000
0100
0010
0100
0000
0001
0000
1000
0000
,
1001
0000
0000
0000
0001
0000
1000
0000
0010
0000
0000
0010
1000
0000
0001
0000
,
1000
0000
0000
0000
0100
0000
0010
0000
0100
0000
0000
0100
0010
0000
0001
0000
,
1000
0000
0000
0000
0001
0000
0010
0000
0001
0100
0000
0001
0100
0000
0001
0000
,
1000
0000
0000
0000
0010
0000
1000
0000
0100
1000
0000
0100
1000
0000
0100
0000
,
0010
0001
1000
0100
0010
0001
1000
0001
,
0100
1000
0100
0001
1000
0010
0100
0001
,
0010
0100
1000
0010
2000
0000
0002
3003
,
0010
0000
0100
0000
1000
0000
0001
0010
0000
0010
0001
0000
0101
0000
0000
0000
,
2002
0000
0000
0000
0000
0000
3003
0000
0001
0010
0000
0010
0001
0000
1000
0000
,
0010
0000
0000
0000
1010
0000
0000
0000
1000
0100
0000
0100
1000
0000
0001
0000
,
0010
0000
0000
0000
0101
0000
0000
0000
0001
0100
0000
0100
0001
0000
1000
0000
,
0100
0000
1100
0000
1000
0020
0100
0130
,
0001
0000
0001
0000
1001
0000
0000
0000
1000
0001
0000
1000
0001
0000
0100
0000
,
0010
0000
0000
0000
1010
0000
0000
0000
1000
0001
0000
1000
0200
0000
0300
0000
,
0011
0000
0000
0000
1001
0000
0000
0000
0101
0000
0000
1010
0000
0000
1100
0000
,
1001
0000
0000
0000
0110
0000
0000
0000
1000
0100
1000
0000
0001
0000
0010
0000
,
0220
0000
0000
0000
0000
0000
0330
0000
0010
0100
0000
0010
0001
0000
1000
0000
,
0010
0000
1000
0000
0001
0000
0100
0000
0010
0100
0000
0010
1000
0000
0001
0000
,
0010
0000
0100
0000
1000
0000
0001
0000
0100
0010
0000
0100
0001
0000
1000
0000
,
0010
1000
0100
0010
0001
0020
0100
0130
,
1000
0000
1000
0000
1001
0000
0000
0000
0010
1000
0000
1000
0010
0000
0100
0000
,
0001
0000
0010
0000
0100
0000
1000
0000
0001
0010
0000
0010
0200
0000
0300
0000
,
0110
0000
0000
0000
1100
0000
0000
0000
1010
0000
0000
1001
0000
0000
0101
0000
,
0110
0011
2000
3200
,
0320
0000
0000
0000
0031
0000
0100
0000
0001
1000
0000
0001
1000
0000
0010
0000
,
1000
0000
0100
0000
0001
0000
0100
0000
1000
0010
0000
0010
1000
0000
0001
0000
,
0010
0000
0100
0000
1000
0000
0100
0000
0010
0001
0000
0001
0010
0000
0001
0000
,
0100
0001
1000
0010
1000
0200
0010
0310
,
0001
0000
0001
0000
0011
0000
0000
0000
0100
0000
0000
1000
0000
0000
0100
0000
,
1100
0000
0000
0000
1010
0000
0000
0000
0010
0000
0000
1000
0000
0000
0001
0000
,
0020
0000
0230
0000
,
2300
0000
0000
0000
0000
0000
0000
0000
3001
0000
0100
0001
0000
0100
0010
0000
,
1000
0010
0100
0001
0100
0010
1000
0100
,
0010
0100
0010
0001
1000
0100
1000
0010
,
0100
0001
1000
0010
1000
0001
0100
0010
,
1000
0100
0010
0100
0010
0001
1000
0100
,
0010
0001
0100
1000
0100
0001
1000
0010
,
0100
0010
0001
0010
1000
0001
0010
0100
,
1000
0001
1000
0100
0001
0100
1000
0001
,
0010
0000
0100
0000
0010
0000
0001
0000
1000
0100
1000
0000
0010
0000
0100
0000
,
0001
0000
1000
0000
0100
0000
1000
0000
0001
0100
0001
0000
1000
0000
0010
0000
,
1000
0000
0100
0000
0010
0000
0001
0000
1000
0001
1000
0000
0100
0000
0010
0000
,
0100
0000
1000
0000
0001
0000
0010
0000
0100
1000
0100
0000
0010
0000
0001
0000
,
1000
0000
0010
0000
1000
0000
0001
0000
0100
0010
0100
0000
0001
0000
0010
0000
,
0100
0000
1000
0000
0010
0000
1000
0000
0001
0100
0001
0000
1000
0000
0010
0000
,
1000
0000
0100
0000
0010
0000
0001
0000
0100
0001
0100
0000
0001
0000
0010
0000
,
0100
0000
1000
0000
0010
0000
0100
0000
0001
0100
0001
0000
0010
0000
0001
0000
,
1000
0000
0100
0000
0010
0000
0001
0000
1000
0000
0010
0000
0100
0000
0001
1000
,
0010
0000
0100
0000
0010
0000
1000
0010
1000
0010
1000
0000
0001
0000
0000
0000
,
1000
0000
0100
0000
0010
0000
0100
0010
0100
0010
0001
0000
1000
0000
0000
0000
,
0010
0000
1000
0000
0001
0000
0100
0001
0100
0001
0100
0000
0010
0000
0000
0000
,
1000
0000
0001
0000
0100
0000
0010
1000
0010
1000
0010
0000
1000
0000
0000
0000
,
0001
0000
0010
0000
0100
0000
1000
0001
1000
0001
1000
0000
0010
0000
0000
0000
,
1000
0000
0010
0000
0100
0000
0001
0100
0001
0100
0001
0000
0010
0000
0100
0000
,
2000
0000
3002
0000
,
0023
0000
0000
0000
0000
0000
0000
0000
0130
1000
0100
0000
0010
0000
1001
0000
;

//---------------dance-single - ----------------
#NOTES:
     dance-single:
     :
     Easy:
     9:
     0.400511,0.465855,0.027397,0.255701,0.068491,307.000000,304.000000,3.000000,28.000000,0.000000,0.000000,0.400511,0.465855,0.027397,0.255701,0.068491,307.000000,304.000000,3.000000,28.000000,0.000000,0.000000:
0000
0000
0000
0000
,
0000
0000
0000
0000
,
0000
0000
0000
0000
,
0000
0000
0000
0000
,
0000
0000
0000
0000
,
0000
0000
0000
0000
,
0000
0000
0000
0000
,
0000
0000
0000
0000
,
0000
0000
0000
0000
,
0010
1000
0001
1000
,
0100
0000
0010
0000
0001
1000
0000
0000
,
0010
0001
0100
0001
,
1000
0000
0100
0000
0010
0001
0000
0000
,
0001
0100
0010
0100
,
0001
0000
1000
0000
0100
0010
0000
0000
,
0100
1000
0001
1000
,
0010
0000
0100
0000
0001
1000
0001
0000
,
0010
0100
0000
1000
0000
0001
0000
0001
,
0000
1000
0000
0010
0000
1000
0000
1000
,
0010
1000
0000
0100
0000
0010
0000
0010
,
0000
0001
0000
0100
0000
0010
0000
0010
,
0100
0001
0100
0000
0010
1000
0010
0000
,
1000
0001
1000
0000
0100
0010
0100
0000
,
1000
0100
0010
0000
0001
1000
0001
1000
,
0001
0010
0010
1001
,
2000
0000
0000
0000
0000
0000
0000
0000
3010
0000
0000
0010
0000
0000
0010
0000
,
1000
0000
0000
0000
0001
0000
0000
0000
0100
0000
0000
0100
0000
0000
0100
0000
,
0001
0000
0000
0000
0010
0000
0000
0000
0100
0000
0000
1000
0000
0000
1000
0000
,
0010
0000
1000
0000
0001
0200
0000
0000
,
0310
0000
0010
0000
1000
0000
0000
0000
0001
0000
0000
0001
0000
0000
0001
0000
,
1000
0000
0000
0000
0010
0000
0000
0000
1000
0000
0000
1000
0000
0000
1000
0000
,
0200
0300
0000
0000
0200
0300
0000
0000
0200
0300
0000
0200
0300
0000
0200
0300
,
0020
0030
0000
0000
0020
0030
0000
0000
0001
0000
1000
0000
0001
0000
0000
0000
,
0012
0000
0000
0000
0000
0000
0000
0000
1003
0000
0000
0001
0000
0000
1000
0000
,
0001
0000
0000
0000
0010
0000
0000
0000
0001
0000
0000
0100
0000
0000
0001
0000
,
0100
0000
0000
0000
0010
0000
0000
0000
1000
0000
0000
0001
0000
0000
1000
0000
,
0001
0000
0010
0000
0100
2000
0000
0000
,
3010
0000
0010
0000
0100
0000
0000
0000
0001
0000
0000
0010
0000
0000
0001
0000
,
1000
0000
0000
0000
0001
0000
0000
0000
0100
0000
0000
0010
0000
0000
0100
0000
,
0002
0003
0000
0000
0002
0003
0000
0000
0002
0003
0000
0002
0003
0000
0002
0003
,
2000
3000
0000
0000
2000
3000
0000
0000
0020
0000
0000
0000
0230
0000
0000
0000
,
0302
0000
0000
0000
1003
0000
0000
0000
0010
0000
0000
1000
0000
0000
0010
0000
,
0100
0000
0000
0000
0001
0000
0000
0000
0010
0000
0000
0001
0000
0000
0010
0000
,
0100
0000
0000
0000
1000
0000
0000
0000
0001
0000
0000
0100
0000
0000
0001
0000
,
1000
0000
0010
0000
1000
0002
0000
0000
,
0013
0010
0100
0000
0100
0000
1000
0001
,
1000
0000
0010
0000
0100
0000
0001
0010
,
0002
1003
2000
3010
,
0020
0130
1001
0000
,
1000
0100
0010
0100
,
1000
0000
0001
0000
0010
0100
0000
0000
,
0010
0001
0100
0001
,
0010
0000
0100
0000
1000
0001
0000
0000
,
0100
0000
0001
0100
0010
0000
1000
0000
,
0001
0000
1000
0000
0100
0010
0000
0000
,
0100
0000
0010
0001
1000
0000
0001
0000
,
0100
0000
0001
0000
1000
0001
1000
0001
,
1000
0000
0010
0000
0100
0010
0100
0000
,
0001
0000
1000
0000
0001
0010
0001
0000
,
1000
0000
0010
0000
1000
0001
1000
0000
,
0001
0000
0100
0000
0001
0100
0001
0000
,
1000
0000
0010
0000
1000
0001
1000
0000
,
0100
0000
0010
0000
0001
0010
0001
0000
,
1000
0000
0001
0000
0100
0001
0100
0000
,
0010
0000
1000
0000
0100
0000
0010
0001
,
1000
0000
0001
0000
0100
0010
1000
0000
,
0001
0000
1000
0000
0100
0010
0001
0000
,
0010
0000
0100
0000
0010
0001
1000
0000
,
0010
0000
0100
0000
0010
1000
0001
0000
,
0100
0000
0001
0000
0010
0100
1000
0000
,
0001
0000
1000
0000
0010
0100
0001
0000
,
2000
3001
0002
0013
,
0020
0000
0130
0000
0100
0010
0001
1000
;

//---------------dance-single - ----------------
#NOTES:
     dance-single:
     :
     Beginner:
     5:
     0.240046,0.298964,0.045661,0.000000,0.000000,184.000000,179.000000,5.000000,0.000000,0.000000,0.000000,0.240046,0.298964,0.045661,0.000000,0.000000,184.000000,179.000000,5.000000,0.000000,0.000000,0.000000:
0000
0000
0000
0000
,
0000
0000
0000
0000
,
0000
0000
0000
0000
,
0000
0000
0000
0000
,
0000
0000
0000
0000
,
0000
0000
0000
0000
,
0000
0000
0000
0000
,
0000
0000
0000
0000
,
0000
0000
0000
0000
,
0010
0000
0001
1000
,
0000
0010
1000
0000
,
1000
0000
0001
0010
,
0000
0001
0100
0000
,
0001
0000
0010
0001
,
0000
1000
0001
0000
,
1000
0000
0010
1000
,
0000
1000
0001
0000
,
1000
1000
1000
0000
,
0001
0001
0001
0000
,
0010
0010
0010
0000
,
0100
0100
0100
0000
,
0010
0000
0001
0000
,
1000
0000
0010
0000
,
1000
0100
1000
0100
,
0010
0000
0000
0110
,
1001
0000
0001
1000
,
0001
0000
1000
0010
,
1000
0000
0100
0010
,
0100
0000
0010
0001
,
0000
1001
1000
1000
,
0001
0000
0100
0100
,
0010
0000
1000
0010
,
1000
0000
0100
0010
,
0100
0000
0010
0010
,
0001
0000
1000
1000
,
0100
0000
0100
0100
,
0010
0000
0010
0100
,
0000
1001
0001
0001
,
1000
0000
0010
0100
,
0010
0000
1000
1000
,
0001
0000
0001
0010
,
0100
0000
1000
1000
,
0001
0000
0001
0001
,
0100
0000
0010
0010
,
0100
0000
0001
0010
,
0000
0110
0100
0100
,
0010
0000
0001
1000
,
0001
0000
0100
0000
,
0010
0000
0000
0000
,
0010
0000
1000
0000
,
0001
1000
0001
0000
,
0010
0000
0100
0000
,
0010
0001
0010
0000
,
0001
0000
0100
0000
,
0010
1000
0010
0000
,
1000
0000
0001
0000
,
1000
0100
0100
1000
,
0001
0001
1000
1000
,
0010
0000
0010
0000
,
1000
1000
0100
0100
,
0010
0000
0010
0000
,
0001
0001
1000
1000
,
0100
0000
0100
0000
,
0010
0010
0001
0001
,
0100
0000
0100
0000
,
0001
0001
1000
1000
,
0010
0000
0010
0000
,
0100
0100
0010
0010
,
1000
0000
1000
0000
,
0100
0100
0010
0010
,
0001
0000
0001
0000
,
0010
0000
0100
0000
,
1000
0000
0010
0010
;
