#VERSION:0.83;
#TITLE:Moonlight;
#SUBTITLE:;
#ARTIST:Protest the Hero;
#TITLETRANSLIT:;
#SUBTITLETRANSLIT:;
#ARTISTTRANSLIT:;
#GENRE:;
#ORIGIN:;
#CREDIT:;
#BANNER:Moonlight.png;
#BACKGROUND:Moonlight-bg.png;
#PREVIEWVID:;
#JACKET:Moonlight-jacket.png;
#CDIMAGE:;
#DISCIMAGE:;
#LYRICSPATH:;
#CDTITLE:;
#MUSIC:Moonlight.ogg;
#OFFSET:1.144287;
#SAMPLESTART:0.363734;
#SAMPLELENGTH:11.250000;
#SELECTABLE:YES;
#BPMS:0.000=160.000,
373.500=109.333,
407.500=164.000,
471.500=158.000,
503.500=146.000,
535.500=181.000,
597.333=90.500,
598.000=181.000,
632.000=271.500,
684.000=84.000;
#STOPS:555.667=0.221;
#DELAYS:;
#WARPS:;
#TIMESIGNATURES:0.000=4=4;
#TICKCOUNTS:0.000=4;
#COMBOS:0.000=1;
#SPEEDS:0.000=1.000=0.000=0;
#SCROLLS:0.000=1.000;
#FAKES:;
#LABELS:0.000=Song Start;
#BGCHANGES:;
#KEYSOUNDS:;
#ATTACKS:
;

//---------------dance-single - ----------------
#NOTEDATA:;
#CHARTNAME:;
#STEPSTYPE:dance-single;
#DESCRIPTION:;
#CHARTSTYLE:;
#DIFFICULTY:Challenge;
#METER:18;
#RADARVALUES:0.924811,1.363930,0.235407,0.121165,1.185687,1870.000000,1802.000000,68.000000,35.000000,0.000000,0.000000,0.000000,0.000000,0.000000,0.924811,1.363930,0.235407,0.121165,1.185687,1870.000000,1802.000000,68.000000,35.000000,0.000000,0.000000,0.000000,0.000000,0.000000;
#CREDIT:Daniel Van Eden;
#NOTES:
// measure 0
0000
0000
0000
0000
,  // measure 1
1000
0000
0000
1000
0001
0000
1000
0000
0000
0010
0100
0010
1000
0000
0001
0000
,  // measure 2
0010
0000
0000
0000
0100
0000
0010
0001
1000
0000
0001
0000
0100
0000
0010
0000
,  // measure 3
1000
0000
0000
1000
0001
0000
0100
0000
0000
0010
0100
0010
1000
0000
0001
0000
,  // measure 4
0010
0000
0000
0000
0100
0000
1000
0010
0100
0000
0001
0000
1000
0000
0100
0000
,  // measure 5
0010
0001
1000
0001
0100
0010
1000
0001
0100
0001
1000
0100
0010
0001
1000
0001
,  // measure 6
0100
0010
1000
0100
0010
0001
1000
0001
0010
0100
1000
0000
0010
0000
0100
0000
,  // measure 7
0010
1000
0010
0000
1000
0000
0001
0000
0010
0001
0010
0000
0100
0000
1000
0100
,  // measure 8
1000
0001
0010
0001
1000
0100
0010
0000
0000
0010
0001
0000
1000
0000
0000
1000
,  // measure 9
0001
1000
0010
0000
1000
0000
0100
0000
0000
0000
1000
0000
0001
0010
0001
0000
,  // measure 10
0100
0000
0010
0000
1000
0000
0100
0000
0000
0100
1000
0000
0001
0000
0000
0001
,  // measure 11
1000
0001
0010
0000
0001
0000
0100
0000
0000
0000
0010
0000
1000
0010
1000
0000
,  // measure 12
0001
0000
1000
0100
0010
0001
1000
0000
0000
0010
0000
0000
0010
0000
1000
0001
,  // measure 13
0010
0000
0100
0000
0000
0100
1000
0000
0100
0000
0000
0000
0100
0000
0010
0001
,  // measure 14
1000
0100
0010
0000
0000
0010
0001
0000
0010
0000
0000
0001
1000
0000
0010
0000
,  // measure 15
0000
1000
0001
0000
0100
0000
1000
0000
0100
0000
0001
0100
0010
1000
0100
0010
,  // measure 16
0001
1000
0100
0000
0000
0100
0010
0000
0100
0000
0000
1000
0010
0000
0100
0000
,  // measure 17
0000
0100
0001
0000
1000
0000
0001
0010
0100
1000
0001
0000
0000
0001
0100
0000
,  // measure 18
0001
0000
0000
1000
0010
0000
1000
0000
0000
1000
0100
0000
0010
0100
1000
0001
,  // measure 19
0010
0100
1000
0000
0000
1000
0010
0000
0100
0000
0010
0100
0001
0000
1000
0000
,  // measure 20
0000
1000
0001
0000
0010
0000
1000
0000
0010
0000
0001
1000
0100
0010
0001
0000
,  // measure 21
0000
0001
0100
0000
0010
0000
0000
0010
1000
0000
0001
0000
0000
1000
0000
0000
,  // measure 22
0100
0000
0001
0000
0100
0000
1000
0010
0100
0001
1000
0100
0010
0001
1000
0000
,  // measure 23
0000
1000
0010
0000
0100
0000
0000
0100
0001
0000
1000
0000
0000
0001
1000
0000
,  // measure 24
0010
0000
1000
0100
0010
0001
1000
0000
0000
1000
0001
0000
0100
0000
0000
0010
,  // measure 25
0100
0000
0000
0000
0000
0000
0001
0000
0000
0000
0000
0000
0000
0000
0000
0001
0000
0000
1000
0000
0000
0000
0000
0000
0010
0000
1000
0000
0001
0000
0100
0000
0000
0000
0000
0000
0001
0000
0000
0000
0000
0000
0101
0000
0000
0000
0000
0000
,  // measure 26
0000
0101
0000
0000
0100
0001
1000
0000
0000
1001
0000
0000
0001
0000
1000
0100
,  // measure 27
1000
0020
0000
0000
1030
0100
1000
0100
0010
0002
0000
0000
1003
0000
1010
0000
,  // measure 28
0000
1010
0000
0000
0010
1000
0001
0000
0000
1001
0000
0000
1000
0000
0001
0100
,  // measure 29
0001
0020
0000
0000
0031
0100
0001
0100
0010
2000
0000
0000
3100
0000
1100
0000
,  // measure 30
0000
1100
0000
0000
0100
0010
0001
0000
0000
0011
0000
0000
0010
0000
0001
1000
,  // measure 31
0001
0200
0000
0000
0301
1000
0001
1000
0100
0020
0000
0000
0031
0000
0011
0000
,  // measure 32
0000
0011
0000
0000
0010
0001
0100
0000
0001
1000
0100
0000
0010
0000
0001
1000
,  // measure 33
0001
1000
0001
0100
0010
1000
0100
0000
0010
0100
1000
0001
0100
0010
1000
0000
,  // measure 34
0010
1000
0001
1000
0100
1000
0010
0100
0002
0000
0000
0000
0013
0000
0010
0000
,  // measure 35
0000
0000
0101
0000
0100
0010
0100
0000
0010
0000
1010
0000
1000
0000
0100
0000
,  // measure 36
0010
0001
1000
0001
0100
0001
0010
0100
2000
0000
0000
0000
3010
0000
0010
0000
,  // measure 37
0000
0000
0101
0000
0001
1000
0001
0000
1000
0000
0100
0000
0010
0000
1001
0000
,  // measure 38
0000
1000
0010
0000
1000
0000
0001
0100
0001
0000
0100
0000
0010
0000
1001
0000
,  // measure 39
0000
0001
1000
0000
0010
0000
1000
0100
1000
0000
0100
0000
0010
0000
0011
0000
,  // measure 40
0000
0001
0100
0000
0010
0000
0100
0010
0100
0000
0010
0000
1000
0000
1010
0000
,  // measure 41
0000
0010
1000
0000
0001
0000
1000
0100
0010
0001
0100
0010
1000
0001
0100
0000
,  // measure 42
0000
0100
0001
0000
1000
0000
0001
0010
0001
0000
1000
0000
0100
0000
0110
0000
,  // measure 43
0000
0100
1000
0000
0001
0000
1000
0010
1000
0000
0001
0000
0100
0000
0101
0000
,  // measure 44
0000
0001
1000
0000
0100
0000
0010
0100
0010
0000
0001
0000
1000
0000
1100
0000
,  // measure 45
0100
0010
0001
0100
0010
1000
0001
0000
0000
0000
1010
0000
0000
0000
0110
0000
,  // measure 46
0010
0100
0001
0010
0100
1000
0010
0001
,  // measure 47
0010
0000
1010
0000
1000
0001
0100
0000
0001
0000
0011
0000
0100
0000
1001
0000
,  // measure 48
1000
0001
0100
0000
0010
0000
1000
0000
0001
0000
1000
0000
0100
0000
0010
0000
,  // measure 49
0100
1000
0010
0100
0001
1000
0001
0010
,  // measure 50
0001
1000
0100
0000
1000
0000
0001
0000
0100
0000
0010
0000
0100
0000
0001
0000
,  // measure 51
1000
0100
0010
0001
1000
0010
0100
0010
,  // measure 52
0000
1010
0000
0000
1000
0000
0001
0000
0000
0011
0000
0000
0010
0000
0200
0300
,  // measure 53
1000
0001
1000
0001
0200
0300
0200
0300
0001
1000
0200
0300
1000
0001
0200
0300
,  // measure 54
0010
1000
0100
0002
0000
0003
0100
1000
,  // measure 55
0100
1000
0001
0010
0000
0000
0001
0000
0000
1000
0000
0000
0010
0000
0000
0010
0000
0000
0100
0000
0000
0110
0000
0000
,  // measure 56
0000
0010
0000
0000
1000
0000
0001
0000
0101
0000
2002
0000
0000
0000
0000
0000
,  // measure 57
0000
3003
0100
0001
2010
0000
0000
3001
,  // measure 58
0010
0000
1000
0000
0010
0000
0001
0000
0100
0000
0010
0000
0001
0010
1000
0000
,  // measure 59
0001
0100
1000
0000
0100
0000
0001
0000
0010
0000
1000
0000
0010
0000
0001
0000
,  // measure 60
1000
0010
0100
0001
0010
0100
1000
0000
0001
0100
0010
1000
0100
0010
0001
0000
,  // measure 61
0000
1000
0000
0101
0000
1000
0001
0001
,  // measure 62
0010
0001
0100
0010
1000
0100
0010
0000
0100
1000
0010
0100
0001
0010
0100
0000
,  // measure 63
0000
0000
0100
0000
0000
0000
0100
0000
0010
0000
1001
0000
0001
0000
1000
0100
,  // measure 64
0010
0001
1000
0010
1000
0001
0010
0100
,  // measure 65
0001
0100
1000
0001
0100
0010
1000
0001
,  // measure 66
0100
1000
0100
0010
1000
0100
0010
0001
,  // measure 67
0010
0100
1000
0001
0001
1000
1000
0100
,  // measure 68
0000
0100
1000
0000
0001
0000
0000
0001
1000
0001
0100
0000
0001
0000
0010
0000
,  // measure 69
0000
0000
0001
0000
1000
0100
1000
0000
0010
0000
0100
0000
0001
0000
0010
0000
,  // measure 70
0000
0010
0001
0000
1000
0000
0000
1000
0001
1000
0100
0000
1000
0000
0010
0000
,  // measure 71
0000
0000
0100
0000
0001
0100
0001
0000
1000
0000
0001
0010
0100
1000
0001
0000
,  // measure 72
0000
0100
0000
0000
0100
0000
0001
1000
0100
0000
0010
0000
0000
0010
0001
0000
,  // measure 73
0010
0000
0000
0000
0010
0000
0100
1000
0001
0010
0100
0000
0000
0100
1000
0000
,  // measure 74
0100
0000
0000
1000
0001
0000
0100
0000
0000
0001
1000
0000
0010
0000
0001
0000
,  // measure 75
0010
0000
1000
0010
0100
0001
0010
0100
1000
0001
0010
0000
0000
0010
0100
0000
,  // measure 76
0010
0000
0000
0001
0100
0000
0010
0000
0000
0010
1000
0000
0001
0000
1000
0100
,  // measure 77
0010
0001
1000
0000
0000
1000
0010
0000
1000
0000
0000
0001
0100
0000
0001
0000
,  // measure 78
0000
0001
0010
0000
0100
0010
0001
1000
0100
0010
0001
0000
0000
0001
0100
0000
,  // measure 79
0010
0000
0100
0010
1000
0000
0001
0000
0000
0001
1000
0000
0100
0000
0001
0000
,  // measure 80
0100
0000
1000
0001
0010
0100
1000
0000
0000
1000
0010
0000
0100
0000
0000
0100
,  // measure 81
0001
0000
1000
0000
0000
0001
0000
0000
0010
0000
1000
0000
0010
0000
0001
0100
,  // measure 82
0010
1000
0001
0010
0100
1000
0001
0000
0000
0001
0100
0000
0010
0000
0000
0010
,  // measure 83
1000
0000
0001
0000
0000
1000
0001
0000
0100
0000
0001
0010
0100
1000
0001
0000
,  // measure 84
0000
0001
1000
0000
0010
0000
0000
0100
0010
0000
1000
0000
0000
1000
0000
0000
,  // measure 85
0010
0100
0010
0000
1000
0000
0001
0000
0000
1000
0001
0000
0010
0000
0100
0000
,  // measure 86
0010
0100
0010
0000
0001
0000
1000
0000
0000
0010
1000
0000
0001
0000
0100
0000
,  // measure 87
0000
0001
0010
0000
0001
0000
1000
0000
0100
0010
0100
0000
1000
0000
0010
0000
,  // measure 88
0100
0001
0100
0000
0001
0000
1000
0000
0100
0010
0001
0000
1000
0000
0010
0000
,  // measure 89
0010
1000
0001
0010
0100
1000
0001
0000
0100
0001
0100
0000
0010
0000
1000
0000
,  // measure 90
0100
1000
0100
0000
0010
0000
0001
0000
1000
0010
1000
0000
0001
0000
0100
0000
,  // measure 91
0001
0010
0001
0000
1000
0000
0010
0000
1000
0001
0100
0000
0010
0000
0100
0000
,  // measure 92
0001
1000
0010
0000
1000
0000
0100
0000
1100
0000
1100
0000
1010
0000
1010
0000
,  // measure 93
0110
0000
0000
0110
0000
0000
0101
0000
0000
1001
0000
0000
0000
1000
0000
0010
0000
1000
0000
0100
0000
0001
0000
0100
,  // measure 94
1000
0100
0000
0010
0001
0010
0000
1000
0000
0010
0000
1000
0000
0010
0000
0100
0001
0100
0001
1000
0000
0000
0000
0001
,  // measure 95
0000
0010
0000
0001
0000
0100
0000
1000
0000
0100
0001
0100
0000
0010
1000
0010
0000
1000
0000
0001
0000
0010
0000
0001
,  // measure 96
0010
0001
1000
0100
0010
0001
0000
0000
0000
0001
0000
0100
0000
0000
0000
0010
0000
0100
0000
0010
1000
0010
0000
0100
,  // measure 97
0010
0100
0000
0001
0000
1000
0000
0100
0000
0010
0000
0001
0010
0100
1000
0010
0000
0000
0000
0010
0000
1000
0000
0000
,  // measure 98
0000
0000
0000
0000
0000
0000
0000
0000
0001
0000
0000
0000
0000
0000
0000
0000
0000
0000
0000
0000
0000
0000
0000
0000
1000
0000
0000
0000
0000
0000
0000
0000
0000
0000
0000
0000
0000
0000
0000
0000
0000
0000
0000
0000
0000
0000
0000
0000
0000
0000
0000
0000
0000
0000
0000
0000
0010
0000
0000
0000
0000
0000
0000
0000
0000
0000
0000
1000
0000
0000
0000
0000
0000
0000
0000
0000
0000
0001
0000
0000
0000
0000
0000
0000
0000
0000
0000
0000
0100
0000
0000
0000
0000
0000
0000
0000
0000
0000
0000
0000
0000
0000
0000
0000
0001
0000
0000
0000
0000
0000
0000
0000
0000
0000
0000
0000
0000
0000
0000
0000
0010
0000
0000
0000
0000
0000
0000
0000
0000
0000
0000
0000
0000
0000
0000
0000
0100
0000
0000
0000
0000
0000
0000
0000
0000
0000
0000
0000
0000
0000
0000
0000
1000
0000
0000
0000
0000
0000
0000
0000
0001
0000
0000
0000
0000
0000
0000
0000
0010
0000
0000
0000
0000
0000
0000
0000
0001
0000
0000
0000
0000
0000
0000
0000
0010
0000
0000
0000
0000
0000
0000
0000
,  // measure 99
0001
0100
0000
0000
0000
0100
0000
0010
0000
0000
0000
1000
0000
0010
0000
0100
0001
0100
0000
0010
0100
0010
0000
1000
,  // measure 100
0000
0100
0000
0010
0000
0100
1000
0010
0100
0001
1000
0001
0000
0000
0000
0001
0000
1000
0000
0000
0000
0010
0000
1000
,  // measure 101
0000
0000
0000
0000
0000
0000
0000
0000
0000
0000
0000
0000
0000
0000
0000
0000
0000
0000
0000
0000
0000
0000
0000
0000
0001
0000
0000
0000
0000
0000
0000
0000
0000
0000
0000
0010
0000
0000
0000
0000
0000
0000
0000
0000
0000
0100
0000
0000
0000
0000
0000
0000
0000
0000
0000
0000
1000
0000
0000
0000
0000
0000
0000
0000
0000
0000
0000
0000
0000
0000
0000
0000
0001
0000
0000
0000
0000
0000
0000
0000
0000
0000
0000
0000
0000
0000
0000
0000
0100
0000
0000
0000
0000
0000
0000
0000
0000
0000
0000
0000
0000
0000
0000
0000
0101
0000
0000
0000
0000
0000
0000
0000
0000
0000
0000
0000
0000
0000
0000
0000
0110
0000
0000
0000
0000
0000
0000
0000
0000
0000
0000
0000
0000
0000
0000
0000
0010
0000
0000
0000
0000
0000
0000
0000
1000
0000
0000
0000
0000
0000
0000
0000
0010
0000
0000
0000
0000
0000
0000
0000
0100
0000
0000
0000
0000
0000
0000
0000
0001
0000
0000
0000
0000
0000
0000
0000
0000
0000
0000
0000
0000
0000
0000
0000
0000
0000
0000
0000
0000
0000
0000
0000
,  // measure 102
0000
0001
1000
0000
0010
0000
1000
0000
0100
0000
0001
0000
0100
0000
1000
0010
,  // measure 103
0100
0001
0010
0001
0100
0010
1000
0010
0100
0001
0010
0001
0100
0010
1000
0000
,  // measure 104
0000
0000
0000
1000
0000
0000
0001
0000
0000
0000
0000
0000
0010
0000
0000
0000
0000
0000
0001
0000
0000
0000
0000
0000
0100
0000
0000
0000
0000
0000
1000
0000
0000
0000
0000
0000
0100
0000
0000
0000
0000
0000
0001
0000
0000
0000
0010
0000
,  // measure 105
0000
1000
0000
0001
0000
0100
0000
1000
0000
0010
0000
0100
0000
0001
0000
0010
0000
0100
0000
1000
0000
0010
0000
0000
,  // measure 106
0000
0010
1000
0000
0100
0000
0000
0000
0010
0000
0001
0000
0100
0000
0001
0010
,  // measure 107
0100
1000
0010
1000
0100
0010
0001
0010
0100
1000
0010
1000
0100
0010
0001
0000
,  // measure 108
0000
0000
0000
0001
0000
0000
0100
0000
0000
0000
0000
0000
0010
0000
0000
0000
0000
0000
1000
0000
0000
0000
0000
0000
0010
0000
0000
0000
0000
0000
0001
0000
0000
0000
0000
0000
0010
0000
0000
0000
0000
0000
1000
0000
0000
0000
0100
0000
,  // measure 109
0000
0001
0000
1000
0000
0010
0000
0001
0000
0100
0000
0010
0000
1000
0000
0100
0000
0010
0000
0001
0000
1000
0000
0000
,  // measure 110
0000
1000
0001
0000
0010
0000
0001
0000
1000
0000
0010
0000
1000
0010
0100
0001
,  // measure 111
1000
0010
1000
0010
1000
0010
0100
0001
1000
0010
1000
0100
0010
0001
1000
0000
,  // measure 112
0000
1000
0001
0000
0010
0000
0100
0000
0010
0000
0001
0000
1000
0000
0010
0000
,  // measure 113
0010
0000
1000
0001
0100
0000
0100
0000
0001
1000
0010
0000
1000
0001
0100
0000
,  // measure 114
0000
0100
0001
0000
0010
0000
0100
0000
1000
0000
0100
0000
0010
0001
1000
0100
,  // measure 115
0010
0001
0010
0001
0010
0001
1000
0100
0010
0001
0010
0100
1000
0010
0100
0000
,  // measure 116
0000
0000
0000
0100
0000
0000
0010
0000
0000
0000
0000
0000
1000
0000
0000
0000
0000
0000
0001
0000
0000
0000
0000
0000
1000
0000
0000
0000
0000
0000
0100
0000
0000
0000
0000
0000
0010
0000
0001
0000
0010
0000
0100
0000
0000
0000
0000
0000
,  // measure 117
0100
0000
1000
0010
0100
0000
0100
0000
0001
1000
0010
0000
1000
0001
0100
0001
,  // measure 118
1000
0100
0010
0000
0100
1000
0001
0100
0010
0000
1010
0000
0000
0000
1000
0010
,  // measure 119
0100
0001
1000
0000
0001
0010
0100
1000
0010
0100
0001
1000
0100
0000
0010
0100
,  // measure 120
1000
0001
0100
0000
0010
0100
0001
1000
0100
0000
0000
0000
0011
0000
0010
0001
,  // measure 121
0100
0010
1000
0000
0010
0100
0001
1000
0001
1000
0001
0000
0000
0000
1000
0100
,  // measure 122
0010
0100
1000
0100
0001
0100
1000
0010
0100
0001
1000
0000
0000
0000
0001
0100
,  // measure 123
0010
0100
0001
0100
1000
0100
0001
0010
0100
1000
0010
0100
0001
0000
1000
0010
,  // measure 124
0100
0010
1000
0010
0001
0010
1000
0100
0010
0000
0000
0000
1001
0000
0001
0010
,  // measure 125
0100
0010
0001
0010
1000
0010
0001
0000
1000
0010
0100
0001
0010
0100
1000
0100
,  // measure 126
1000
0010
0100
0010
1000
0100
0010
0001
0010
0100
1000
0100
0010
0001
0100
0001
,  // measure 127
0100
0010
1000
0010
0100
0001
1000
0100
1000
0010
0100
0010
1000
0001
0100
0010
,  // measure 128
1000
0001
1000
0010
0100
0001
0010
0100
1000
0001
1000
0100
0010
0001
1000
0100
,  // measure 129
1000
0010
0100
0001
1000
0010
0100
0010
1000
0001
1000
0100
0010
0001
1000
0100
,  // measure 130
1000
0100
1000
0100
1000
0100
0010
0000
0011
0000
0101
0000
0000
0000
0001
0000
,  // measure 131
1000
0000
1001
0000
0000
0000
0010
0001
0010
0100
0010
0100
1000
0100
0010
0001
,  // measure 132
0010
0001
0010
0001
0010
0100
1000
0000
1010
0000
1100
0000
0000
0000
0010
0000
,  // measure 133
0110
0000
0101
0000
0000
0000
0100
0001
1000
0010
1000
0001
0010
0100
1000
0000
,  // measure 134
0000
0000
0000
0000
0000
0000
0000
0000
0000
0000
0000
0000
0000
0000
0000
0000
0000
0000
0000
0000
0000
0000
0000
0000
0010
0000
0000
0000
0000
0000
0000
0000
0000
0000
0000
0000
0000
0000
0000
0000
0200
0000
0000
0000
0000
0000
0000
0000
0300
0000
0000
0000
0000
0000
0000
0000
0000
0000
0000
0000
0000
0000
0000
0000
0000
0000
0000
0000
0000
0000
0000
0000
0001
0000
0000
0000
0000
0000
0000
0000
0000
0000
0000
0000
0000
0000
0000
0000
0000
0000
0000
0000
0000
0000
0000
0000
0000
0000
0000
0000
0000
0000
0000
0000
0000
0000
0000
0000
0000
0000
0000
0000
0000
0000
0000
0000
0000
0000
0000
0000
1000
0000
0000
0000
0000
0000
0000
0000
0000
0000
0000
0000
0000
0000
0000
0000
0000
0000
0000
0000
0000
0000
0000
0000
0000
0000
0000
0000
0000
0000
0000
0000
0000
0000
0000
0000
0000
0000
0000
0000
0000
0000
0000
0000
0000
0000
0000
0000
0010
0002
0000
0000
0000
0000
0000
0000
0000
0003
0000
0000
0000
0000
0000
0000
0000
0000
0000
0000
0000
0000
0000
0000
,  // measure 135
0000
0000
0000
0100
0000
0000
0000
0000
0000
1000
0000
0000
0000
0020
0030
0100
0000
0000
0000
0000
0000
0001
0000
0000
,  // measure 136
0000
0000
0000
0000
0000
0000
0000
0000
0000
0000
0000
0000
0000
0000
0000
0000
0000
0000
0000
0000
0000
0000
0000
0000
1000
0000
0000
0000
0000
0000
0000
0000
0000
0000
0000
0000
0000
0000
0000
0000
0200
0000
0000
0000
0000
0000
0000
0000
0300
0000
0000
0000
0000
0000
0000
0000
0000
0000
0000
0000
0000
0000
0000
0000
0000
0000
0000
0000
0000
0000
0000
0000
1000
0000
0000
0000
0000
0000
0000
0000
0000
0000
0000
0000
0000
0000
0000
0000
0000
0000
0000
0000
0000
0000
0000
0000
0000
0000
0000
0000
0000
0000
0000
0000
0000
0000
0000
0000
0000
0000
0000
0000
0000
0000
0000
0000
0000
0000
0000
0000
0010
0000
0000
0000
0000
0000
0000
0000
0000
0000
0000
0000
0000
0000
0000
0000
0000
0000
0000
0000
0000
0000
0000
0000
0000
0000
0000
0000
0000
0000
0000
0000
0000
0000
0000
0000
0000
0000
0000
0000
0000
0000
0000
0000
0000
0000
0000
0000
0001
0200
0000
0000
0000
0000
0000
0000
0000
0300
0000
0000
0000
0000
0000
0000
0000
0000
0000
0000
0000
0000
0000
0000
,  // measure 137
0000
0000
0000
0001
0000
0000
0000
0000
0000
1000
0000
0000
0000
0200
0300
0010
0000
0000
0000
0000
0000
0100
0000
0000
,  // measure 138
0000
0000
0000
1000
0000
0002
0003
0000
0000
0100
0000
0000
0000
0000
0000
0010
0000
0000
0000
0000
0000
1000
0000
0000
,  // measure 139
0001
0000
0100
0000
0010
0000
1000
0000
0002
0003
1000
0000
0100
0000
0000
0000
0010
0000
0100
0000
1000
0000
0001
0000
,  // measure 140
0020
0030
0001
0000
1000
0000
0100
0000
0000
0000
0010
0000
0001
0000
0000
0000
0020
0030
0100
0000
1000
0000
0000
0000
,  // measure 141
0010
0000
1000
0000
0001
0000
0100
0000
0002
0003
0010
0000
0100
0000
0000
0000
0010
0000
0001
0000
1000
0000
0100
0000
,  // measure 142
2000
3000
0010
0000
0100
0000
0001
0000
0000
0000
0100
0000
0010
0000
0000
0000
2000
3000
0001
0000
0010
0000
0000
0000
,  // measure 143
0100
0000
0010
0000
0001
0000
0010
0000
0200
0300
1000
0000
0010
0000
0100
0000
0002
0003
1000
0000
0010
0000
0100
0000
,  // measure 144
0010
0100
0010
0010
0100
0001
1000
0010
1000
0100
0010
0000
,  // measure 145
0001
0010
0100
1000
0010
1000
0001
0100
0000
0001
1000
0000
,  // measure 146
0100
0010
0001
0000
0100
0001
1000
0010
1000
0100
0010
0000
,  // measure 147
0100
0010
0001
1000
0010
0100
0010
1000
0000
0001
0100
0000
,  // measure 148
0010
0100
0001
0000
1000
0100
0010
0001
1000
0001
0010
0100
,  // measure 149
1000
0010
1000
0001
0200
0000
0310
1000
0001
0100
0000
0010
,  // measure 150
0100
0000
0001
1000
0010
1000
0010
1000
0001
0100
0000
0001
,  // measure 151
0010
0000
0100
0010
0001
0000
0010
0001
1000
0100
0000
0010
,  // measure 152
0100
0000
1000
0100
0010
0001
0010
0001
1000
0100
0000
1000
,  // measure 153
0010
0000
0100
0001
1000
0000
0001
0100
0010
1000
0000
0001
,  // measure 154
1000
0000
0100
0010
0001
1000
0001
0100
0010
1000
0000
0001
,  // measure 155
1000
0000
0010
0100
0001
0000
1000
0100
0010
0001
0000
1000
,  // measure 156
0001
0000
0100
0010
1000
0001
1000
0100
0010
0001
0000
1000
,  // measure 157
0001
0000
0100
0010
1000
0000
0100
0010
0001
0000
0000
0000
,  // measure 158
0001
0010
0100
1000
0000
0001
1000
0000
,  // measure 159
0100
0010
0001
1000
0010
0100
0001
1000
,  // measure 160
0000
0100
1000
0000
0010
0100
0001
0000
,  // measure 161
1000
0100
0010
0001
0000
1000
0001
0000
,  // measure 162
0100
0010
1000
0001
0010
0100
1000
0001
,  // measure 163
0000
0010
0001
0000
0100
0010
1000
0000
,  // measure 164
0100
0010
0001
0000
0100
0010
1000
0001
,  // measure 165
0000
0010
0001
0000
0100
0010
1000
0001
,  // measure 166
0010
0001
1000
0100
0000
1000
0010
0000
,  // measure 167
0100
0010
1000
0000
0001
0010
0100
1000
,  // measure 168
0000
0010
1000
0000
0100
0010
0001
1000
,  // measure 169
0010
1000
0001
0100
0000
0001
0010
0000
,  // measure 170
0100
0010
0001
0000
0100
0010
1000
0000
,  // measure 171
0001
0100
0010
1000
0000
0100
1000
0000
0000
0000
0100
0000
0010
0000
0001
0000
0011
0000
1001
0000
1000
0000
1010
0000
,  // measure 172
1001
0000
0000
0101
0100
0110
1010
0000
0000
1000
1010
1001
,  // measure 173
0001
0010
0100
1000
0000
0001
1000
0000
0000
0000
0100
0000
1000
0000
0010
0000
0100
0000
0010
1000
0001
1000
0100
0001
,  // measure 174
0100
1000
0010
0100
0001
0010
1000
0010
0001
0100
1000
0100
0010
1000
0100
0010
0001
0010
0100
0000
1100
0000
0011
0000
,  // measure 175
0010
0001
0010
0100
0000
1000
0010
0000
0010
0100
0000
0001
0100
0000
0100
0010
0000
1000
0010
0000
0010
1000
0000
0001
,  // measure 176
1000
0000
1000
0100
0000
0010
0001
0000
0011
0000
0110
0000
1100
0000
1000
0010
0000
0010
1000
0000
0001
0000
0100
0000
,  // measure 177
0010
1000
0001
0100
1000
0100
0001
1000
0010
1000
0100
0001
0100
1000
0010
0100
0001
0010
0100
1000
0100
0010
0001
0100
,  // measure 178
0020
0000
1000
0000
0001
0000
1030
0001
,  // measure 179
1000
0100
0010
0001
0010
1000
0001
0100
1000
0010
0001
0010
0100
0010
1000
0001
0010
0100
0001
0100
1000
0010
0100
0001
,  // measure 180
0020
0000
0000
0000
,  // measure 181
0000
0000
0000
0000
,  // measure 182
0000
0000
0000
0000
,  // measure 183
0000
0030
0000
0000
;
