#VERSION:0.83;
#TITLE:Monkey Business 110;
#SUBTITLE:;
#ARTIST:kors k;
#TITLETRANSLIT:;
#SUBTITLETRANSLIT:;
#ARTISTTRANSLIT:;
#GENRE:;
#ORIGIN:;
#CREDIT:;
#BANNER:Monkey Business 110.png;
#BACKGROUND:Monkey Business 110-bg.png;
#PREVIEWVID:;
#JACKET:Monkey Business 110-jacket.png;
#CDIMAGE:;
#DISCIMAGE:;
#LYRICSPATH:;
#CDTITLE:;
#MUSIC:Monkey Business 110.ogg;
#OFFSET:0.010363;
#SAMPLESTART:115.667656;
#SAMPLELENGTH:17.454552;
#SELECTABLE:YES;
#BPMS:0.000=110.000,
207.500=55.000,
208.000=110.000;
#STOPS:32.000=1.636,
128.000=0.273;
#DELAYS:;
#WARPS:;
#TIMESIGNATURES:0.000=4=4;
#TICKCOUNTS:0.000=4;
#COMBOS:0.000=1;
#SPEEDS:0.000=1.000=0.000=0;
#SCROLLS:0.000=1.000;
#FAKES:;
#LABELS:0.000=Song Start;
#BGCHANGES:;
#KEYSOUNDS:;
#ATTACKS:
;

//---------------dance-single - ----------------
#NOTEDATA:;
#CHARTNAME:;
#STEPSTYPE:dance-single;
#DESCRIPTION:;
#CHARTSTYLE:;
#DIFFICULTY:Challenge;
#METER:16;
#RADARVALUES:0.658863,0.878898,0.290065,0.087020,0.788978,795.000000,745.000000,50.000000,15.000000,0.000000,0.000000,0.000000,0.000000,0.000000,0.658863,0.878898,0.290065,0.087020,0.788978,795.000000,745.000000,50.000000,15.000000,0.000000,0.000000,0.000000,0.000000,0.000000;
#CREDIT:Daniel Van Eden;
#NOTES:
// measure 0
0000
0000
0000
0000
,  // measure 1
0000
0000
0000
0000
,  // measure 2
0000
0000
0000
0000
,  // measure 3
0000
0000
0000
0000
,  // measure 4
0000
0000
0000
0000
,  // measure 5
0010
1000
0001
0100
,  // measure 6
0001
0010
0100
1000
,  // measure 7
0001
0000
1000
0000
0001
0000
0010
0000
0100
1000
0100
0010
0001
0100
0010
1000
,  // measure 8
0001
0000
0000
0000
1001
0000
0000
0000
1100
0000
0000
0000
1001
0000
0000
0001
,  // measure 9
0100
0000
1000
0000
0100
0000
0001
0000
0010
0000
1000
0000
0010
0000
0001
0010
,  // measure 10
0100
1000
1010
0000
1001
0000
0011
0000
,  // measure 11
1001
0000
0000
0000
1100
0000
0000
0100
0010
0000
0001
0000
1000
0001
1000
0000
,  // measure 12
0001
0000
0010
0000
0110
0000
0000
0000
1100
0000
0000
0000
0110
0000
0000
0010
,  // measure 13
0001
0000
0010
0000
1000
0000
0010
0000
0001
0000
0100
0000
0010
1000
0010
0100
,  // measure 14
0001
1000
0101
0000
1001
0000
1100
0000
,  // measure 15
0110
0000
0010
0000
0100
0010
0001
0000
0010
0100
1000
0000
0010
1000
0010
1000
,  // measure 16
0001
0100
0001
0100
0001
1000
0100
0000
1000
0100
1000
0100
0010
0000
0001
0000
,  // measure 17
1000
0100
0010
0001
1000
0001
1000
0000
0010
1000
0001
0010
0001
0000
1000
0010
,  // measure 18
0100
0000
0001
0000
1000
0001
0100
0000
0001
0100
0001
0100
0010
0000
1000
0000
,  // measure 19
0001
0010
0100
1000
0010
0000
0001
0010
1000
0000
0001
0000
1000
0100
0001
0000
,  // measure 20
0100
0000
0010
0000
0001
1000
0100
0000
0010
0001
0100
0010
1000
0000
0010
0000
,  // measure 21
0100
0010
1000
0100
0010
0001
1000
0000
0100
1000
0001
0100
0001
0000
1000
0001
,  // measure 22
0010
0000
0100
0000
1000
0001
0100
0000
0010
1000
0100
0010
0001
0000
1000
0000
,  // measure 23
0001
0010
0100
1000
0100
1000
0100
0000
0010
0100
0010
0000
0001
0010
0001
0010
,  // measure 24
0100
1000
0001
0010
0200
0000
0000
0000
1000
0000
0000
0000
0000
0000
0000
0000
,  // measure 25
1000
0000
0001
0000
,  // measure 26
0301
0020
0001
0000
,  // measure 27
0001
0000
1000
0000
,  // measure 28
1030
1010
0101
0001
,  // measure 29
1001
0001
0011
0001
,  // measure 30
1010
0000
0100
0000
0010
0000
1000
1000
0000
0000
0001
0000
0001
0000
0000
0010
,  // measure 31
0100
0000
0000
0000
0000
0000
0000
0000
0000
0000
0000
0000
0000
0000
0000
0000
0000
0000
0000
0000
0000
0000
0000
0000
1000
0000
0000
0000
0000
0000
0000
0000
0000
0000
0000
0000
0000
0000
0000
0000
0000
0000
0000
0000
0000
0000
0000
0000
0001
0000
0000
0000
0000
0000
0100
0000
0000
0000
0000
0000
0010
0000
0000
0000
0000
0000
1000
0000
0000
0000
0000
0000
0001
0000
0000
0000
0000
0000
0000
0000
1000
0000
0000
0000
0000
0000
0000
0000
0001
0000
0000
0000
0000
0000
0000
0000
0000
0000
0000
0000
0000
0000
0000
0000
0000
0000
0000
0000
0000
0000
0000
0000
0000
0000
0000
0000
0000
0000
0000
0000
1000
0000
0000
0000
0000
0000
0000
0000
0000
0000
0000
0000
0000
0000
0000
0000
0000
0000
0000
0000
0000
0000
0000
0000
0000
0000
0000
0000
0000
0000
0000
0000
0000
0000
0000
0000
0010
0000
0000
0000
0000
0000
0000
0000
0000
0000
0000
0000
0010
0000
0000
0000
0000
0000
0000
0000
0000
0000
0000
0000
0000
0000
0000
0000
0000
0000
0000
0000
0000
0000
0000
0000
,  // measure 32
0000
0000
1001
0000
1000
0001
0100
0001
0100
0001
0010
0001
0010
0100
1000
0100
,  // measure 33
1000
0000
0100
0000
0010
0001
1000
0001
1000
0001
1000
0010
0001
0010
0100
0000
,  // measure 34
0002
0000
0000
0000
0000
0000
0000
0000
0000
0000
0000
0000
0000
0000
0000
0000
0000
0000
0000
0000
0000
0000
0000
0000
1003
0000
0000
0000
0000
0000
0000
0000
0000
0000
0000
0000
0000
0000
0000
0000
0000
0000
0000
0000
0000
0000
0000
0000
0100
0000
0000
0000
0000
0000
0000
0000
0000
0000
0000
0000
0010
0000
0000
0000
0000
0000
0001
0000
0000
0000
0000
0000
1000
0000
0000
0000
0000
0000
0000
0000
0000
0000
0000
0000
0000
0000
0000
0000
0000
0000
0000
0000
0000
0000
0000
0000
0001
0000
0000
0000
0000
0000
0000
0000
0000
0000
0000
0000
1000
0000
0000
0000
0000
0000
0000
0000
0000
0000
0000
0000
0001
0000
0000
0000
0000
0000
0000
0000
0000
0000
0000
0000
0100
0000
0000
0000
0000
0000
0000
0000
0000
0000
0000
0000
0010
0000
0000
0000
0000
0000
0000
0000
1000
0000
0000
0000
0000
0000
0000
0000
0100
0000
0000
0000
0000
0000
0000
0000
0010
0000
0000
0000
0000
0000
0000
0000
0000
0000
0000
0000
0000
0000
0000
0000
0000
0000
0000
0000
0000
0000
0000
0000
,  // measure 35
0011
0000
0000
0000
0002
0000
0000
0000
1003
0000
0000
0000
2000
0000
0000
0000
3010
0000
0000
0000
0100
0000
0000
0000
0010
0100
0010
0100
0001
0000
1000
0000
,  // measure 36
0100
0010
0001
0000
0100
0010
0100
0001
0010
0001
1000
0100
0001
0100
0010
0001
,  // measure 37
1000
0000
0000
0010
0000
0000
1000
0010
1000
0010
0100
0001
0010
0001
0100
0010
0000
0000
1010
0000
0000
1001
0000
0000
,  // measure 38
0100
0000
0001
0000
1000
1000
0000
0000
0001
0000
0001
0000
0000
0100
0010
0000
,  // measure 39
1000
0000
0000
0000
0000
0000
0000
0000
0000
0000
0000
0000
0000
0000
0000
0000
0000
0000
0000
0000
0000
0000
0000
0000
1000
0000
0000
0000
0000
0000
0100
0000
0000
0000
0000
0000
0010
0000
0000
0000
0000
0000
0001
0000
0000
0000
0000
0000
1000
0000
0000
0000
0000
0000
0000
0000
0001
0000
0000
0000
0000
0000
0000
0000
1000
0000
0000
0000
0000
0000
0000
0000
0000
0000
0000
0000
0000
0000
0000
0000
0000
0000
0000
0000
0000
0000
0000
0000
0000
0000
0000
0000
0000
0000
0000
0000
0010
0000
0000
0000
0000
0000
0000
0000
0000
0000
0000
0000
0000
0000
0000
0000
0000
0000
0000
0000
0000
0000
0000
0000
0000
0000
0000
0000
0000
0000
0000
0000
0000
0000
0000
0000
0100
0000
0000
0000
0000
0000
0000
0000
0000
0000
0000
0000
0100
0000
0000
0000
0000
0000
0000
0000
0000
0000
0000
0000
0000
0000
0000
0000
0000
0000
0000
0000
0000
0000
0000
0000
0001
0000
0000
0000
0000
0000
0000
0000
0000
0000
0000
0000
0100
0000
0000
0000
0000
0000
0000
0000
0000
0000
0000
0000
,  // measure 40
0010
1000
0010
1000
0001
0000
0000
0000
1000
0000
0001
0000
0100
0000
0001
0000
0100
0000
0010
0000
1000
0000
0001
0000
1001
0000
0000
0000
0110
0000
0000
0000
,  // measure 41
1001
0000
1000
0000
1000
0000
0100
0000
0100
0010
0000
0000
0010
0001
1000
0000
,  // measure 42
0001
0000
0000
0000
0000
0000
0100
0000
0000
0000
0000
0000
0002
0000
0000
2003
0000
0000
3020
0000
0000
0000
0000
0000
0230
0000
0000
0000
0000
0000
0301
0000
0000
0000
0000
0000
0010
0000
0001
0000
0010
0000
0100
0000
0000
0000
0000
0000
,  // measure 43
1000
0000
0000
0000
0102
0000
0000
0000
1003
0000
0000
0000
2010
0000
0000
0000
3001
0000
0000
0000
0011
0000
0000
0000
0010
0100
0010
0100
2000
0000
0000
0000
,  // measure 44
3001
0000
0000
0000
0011
0000
0000
0000
1000
0000
0010
0000
0100
0000
0001
0000
0100
0000
0001
0000
1000
0001
1000
0001
1000
0100
0010
0001
1000
0000
0001
0000
,  // measure 45
0100
0000
0000
0001
0000
0000
0010
0000
0000
0100
0000
0000
1000
0000
0100
0000
0010
0000
0001
0000
0100
0000
0010
0000
1000
0000
0001
0000
0010
0000
0100
0000
0000
0000
0000
0000
1000
0000
0000
0000
0000
0000
0001
0000
0000
0010
0000
0000
,  // measure 46
0001
1000
0100
0000
0010
0010
0000
0000
0001
0000
0001
0000
0000
1000
0100
0000
,  // measure 47
0010
0000
0000
0000
0000
0000
0000
0000
0000
0000
0000
0000
0000
0000
0000
0000
0000
0000
0000
0000
0000
0000
0000
0000
0010
0000
0000
0000
0000
0000
0100
0000
0000
0000
0000
0000
0010
0000
0000
0000
0000
0000
0100
0000
0000
0000
0000
0000
0010
0000
0000
0000
0000
0000
0000
0000
0001
0000
0000
0000
0000
0000
0000
0000
1000
0000
0000
0000
0000
0000
0000
0000
0000
0000
0000
0000
0000
0000
0000
0000
0000
0000
0000
0000
0000
0000
0000
0000
0000
0000
0000
0000
0000
0000
0000
0000
0100
0000
0000
0000
0000
0000
0000
0000
0000
0000
0000
0000
0000
0000
0000
0000
0000
0000
0000
0000
0000
0000
0000
0000
0000
0000
0000
0000
0000
0000
0000
0000
0000
0000
0000
0000
1000
0000
0000
0000
0000
0000
0000
0000
0000
0000
0000
0000
0010
0000
0000
0000
0000
0000
0000
0000
0000
0000
0000
0000
0000
0000
0000
0000
0000
0000
0000
0000
0000
0000
0000
0000
0100
0000
0000
0000
0000
0000
0000
0000
0000
0000
0000
0000
0001
0000
0000
0000
0000
0000
0000
0000
0000
0000
0000
0000
,  // measure 48
1000
0100
0010
0001
2000
0000
0000
0000
0000
0000
0000
0000
0000
0000
0000
0000
0000
0000
0000
0000
0000
0000
0000
0000
0000
0000
0000
0000
0000
0000
0000
0000
,  // measure 49
0000
3000
0000
0000
0000
0000
0000
0000
,  // measure 50
0000
0000
0000
0010
1000
0000
1000
0001
0000
0001
0010
0100
0000
0100
0010
0000
,  // measure 51
0010
0001
1000
0000
1000
0101
0000
0001
1100
0000
1000
0100
0010
0001
0200
0000
,  // measure 52
0310
0000
1000
0001
1000
0100
0010
0001
1000
0010
1000
0001
1000
0000
0100
0000
,  // measure 53
0011
0000
0001
1000
0001
0100
0010
1000
0001
0010
0001
1000
0001
0000
1000
0000
,  // measure 54
1100
0000
0100
1000
0100
0010
0001
1000
0001
0010
0100
1000
0010
0000
1000
0000
,  // measure 55
0101
0000
0001
0010
0001
0100
1000
0100
0010
1000
0100
0010
0001
0000
1000
0000
,  // measure 56
1001
0000
0001
0010
0001
1000
0100
1000
0010
0001
0010
1000
0001
0000
0100
0000
,  // measure 57
0001
0000
1000
0010
1000
0001
0100
0001
0010
1000
0010
0001
1000
0000
0100
0000
,  // measure 58
0010
0100
1000
0001
1000
0100
0010
0001
0100
0010
1000
0001
0010
0001
1000
0010
,  // measure 59
0000
0010
1000
0000
1000
0100
0000
0100
0001
0000
0001
0100
0000
1000
0001
1000
,  // measure 60
0001
0000
1000
0000
1010
0000
0010
0000
0100
0001
1000
0001
0010
0000
0100
0000
,  // measure 61
1100
0000
0010
0000
0101
0000
1000
0000
0001
0100
0010
1000
0001
0000
0010
0000
,  // measure 62
1010
0000
0100
0000
0101
0000
0001
0000
1000
0010
1000
0001
0100
0000
0010
0000
,  // measure 63
0011
0000
0100
0000
1010
0000
1000
0000
0001
0010
0100
0010
0001
0000
1000
0000
,  // measure 64
1100
0000
0001
0000
0011
0000
1000
0000
0001
0010
1000
0010
0001
0000
1000
0000
,  // measure 65
0101
0000
0100
0000
1010
0000
1000
0000
0001
0100
1000
0100
0001
0000
1000
0000
,  // measure 66
0010
0000
1000
0010
1000
0001
0010
0100
0010
0001
1000
0100
0001
0100
1000
0010
,  // measure 67
0100
0000
0010
0000
1000
0000
0001
0000
0100
0000
0010
0000
1000
0000
0001
0000
0010
0100
0010
0100
0010
0100
1000
0000
0000
0000
0000
0000
0001
0000
0000
0000
,  // measure 68
0101
0000
0001
0100
1000
0100
1000
0100
1000
0100
1000
0100
0001
1000
0010
0000
,  // measure 69
1000
0000
0001
1000
0100
0001
0100
0001
0100
0001
0100
1000
0010
0000
0100
0001
,  // measure 70
1000
0000
0001
1000
0001
1000
0100
1000
0001
0010
1000
0010
0001
0100
0010
1000
,  // measure 71
0200
0000
1000
0000
0001
0000
1000
0000
0000
0000
0001
0000
1300
0000
0100
0010
,  // measure 72
0001
0000
1000
0010
0001
0010
0001
0010
0001
0010
0001
0010
1000
0100
0010
0000
,  // measure 73
1000
0000
0001
0010
1000
0010
1000
0010
0001
1000
0100
0010
0001
0000
1000
0000
,  // measure 74
0101
0000
0001
0001
0000
0000
0100
0000
0100
0000
0000
0010
1000
0000
0001
0000
,  // measure 75
1000
0000
0000
0000
0000
0000
0100
0000
0000
0000
0000
0000
0010
0000
0000
0000
0000
0000
0001
0000
0000
0000
0000
0000
1000
0000
0000
0000
0000
0000
0000
0000
0001
0000
0000
0000
0000
0000
0000
0000
1000
0000
0000
0000
0000
0000
0000
0000
0000
0000
0000
0000
0000
0000
0000
0000
0000
0000
0000
0000
0000
0000
0000
0000
0000
0000
0000
0000
0000
0000
0000
0000
0001
0000
0000
0000
0000
0000
0000
0000
0000
0000
0000
0000
0000
0000
0000
0000
0000
0000
0000
0000
0000
0000
0000
0000
0000
0000
0000
0000
0000
0000
0000
0000
0000
0000
0000
0000
0100
0000
0000
0000
0000
0000
0000
0000
0000
0000
0000
0000
0100
0000
0000
0000
0000
0000
0000
0000
0000
0000
0000
0000
0000
0000
0000
0000
0000
0000
0000
0000
0000
0000
0000
0000
0010
0000
0000
0000
0000
0000
0000
0000
0000
0000
0000
0000
0000
0000
0000
0000
0000
0000
0000
0000
0000
0000
0000
0000
0000
0000
0000
0000
0000
0000
0000
0000
0000
0000
0000
0000
0000
0000
0000
0000
0000
0000
0000
0000
0000
0000
0000
0000
;
