#TITLE:MilK;
#SUBTITLE:(Takeshita Remix);
#ARTIST:Morimori Atsushi;
#TITLETRANSLIT:;
#SUBTITLETRANSLIT:;
#ARTISTTRANSLIT:;
#GENRE:;
#CREDIT:;
#BANNER:banner.png;
#BACKGROUND:background.png;
#LYRICSPATH:;
#CDTITLE:;
#MUSIC:MilK (Takeshita Remix).ogg;
#OFFSET:-0.044776;
#SAMPLESTART:17.802050;
#SAMPLELENGTH:16.695654;
#SELECTABLE:YES;
#BPMS:0.000000=460.000000
;
#STOPS:184.000000=0.391000,
197.000000=0.261000,
243.000000=0.391000,
300.000000=0.130000,
301.000000=0.130000,
494.000000=0.391000,
507.000000=0.261000,
553.000000=0.391000,
610.000000=0.130000,
611.000000=0.130000,
804.000000=0.391000,
817.000000=0.261000,
863.000000=0.391000
;
#BGCHANGES:;
#KEYSOUNDS:;
#ATTACKS:;

//---------------dance-single - ----------------
#NOTES:
     dance-single:
     :
     Challenge:
     20:
     1.361056,1.628006,1.800710,0.196441,0.049110,1164.000000,944.000000,220.000000,24.000000,0.000000,0.000000,1.361056,1.628006,1.800710,0.196441,0.049110,1164.000000,944.000000,220.000000,24.000000,0.000000,0.000000:
// measure 0
0000
0000
0000
0000
,  // measure 1
0000
0000
0000
0000
,  // measure 2
0010
0000
0010
0000
1000
0000
0001
0100
,  // measure 3
0001
0000
0001
0000
,  // measure 4
1000
0000
0000
0100
,  // measure 5
1000
0010
0200
0300
,  // measure 6
0001
0000
0010
0001
0010
0000
0100
0000
,  // measure 7
0100
0000
0010
0001
0010
0100
1000
0100
,  // measure 8
0010
0100
0100
1000
,  // measure 9
0010
0000
1000
0001
,  // measure 10
0100
0000
1001
0000
,  // measure 11
0001
0000
1000
0010
1000
0000
0001
0000
,  // measure 12
1100
0000
0101
0000
,  // measure 13
0010
0110
0000
0011
,  // measure 14
0010
0000
0100
1000
0001
0000
0000
0000
,  // measure 15
1000
0010
0100
0010
,  // measure 16
1000
1000
0101
1001
,  // measure 17
0010
1000
0100
0000
,  // measure 18
1100
0100
0000
0011
,  // measure 19
0001
0000
1001
0000
,  // measure 20
1010
0000
0010
1000
,  // measure 21
0100
0000
0001
0000
0100
0000
1000
0001
,  // measure 22
0010
0000
0010
0000
0001
0000
0001
1000
,  // measure 23
0010
0000
0100
0010
0100
0000
0001
0000
,  // measure 24
1000
0100
1000
0100
0010
0000
0000
0000
,  // measure 25
0001
1010
1000
0100
,  // measure 26
0110
0110
0000
0011
,  // measure 27
0011
0000
1000
0010
,  // measure 28
1000
0001
0100
0010
,  // measure 29
0001
0000
0010
0000
1000
0000
0100
0010
,  // measure 30
0001
0100
0001
1000
0010
0000
1000
0001
,  // measure 31
1000
0010
0100
0000
0001
1000
0100
0000
,  // measure 32
0110
0010
0011
0001
,  // measure 33
1001
1000
1100
0000
,  // measure 34
0010
0000
0011
1000
,  // measure 35
0000
0000
1000
0000
0101
0000
0100
0010
,  // measure 36
1000
0000
1000
0000
1000
0000
0100
0010
,  // measure 37
0100
0000
0010
0001
0100
0010
1000
0000
,  // measure 38
1001
0000
1001
0000
0100
0001
0100
0010
,  // measure 39
2000
0000
0000
0000
3100
0010
0100
0010
,  // measure 40
0001
0000
0001
0010
0100
1000
0010
0000
,  // measure 41
0010
0100
0001
1000
0100
0000
0100
0000
,  // measure 42
0110
0000
0011
0000
,  // measure 43
1000
0000
0100
1000
0100
0000
0100
0000
,  // measure 44
0110
0110
0011
0110
,  // measure 45
1001
0000
0001
1000
0010
0000
1000
0000
,  // measure 46
0000
0000
0101
0000
0000
1010
0000
0000
,  // measure 47
0110
0000
0010
1000
0010
1000
0100
0010
,  // measure 48
0001
1000
0100
0000
0001
0000
0100
0000
,  // measure 49
1000
0000
0101
1100
,  // measure 50
0000
1010
0000
0000
0011
0000
0110
0000
,  // measure 51
0100
1001
0000
0100
,  // measure 52
0001
0010
0100
0010
0001
1000
0100
0000
,  // measure 53
0010
0100
0010
0100
1000
0001
0010
0000
,  // measure 54
0001
0000
1000
0010
0100
0010
1000
0000
,  // measure 55
0101
0000
0101
0011
,  // measure 56
0000
0011
1100
0010
,  // measure 57
1000
0010
0100
0000
0001
0000
1000
0100
,  // measure 58
0010
0000
0001
1000
0001
1000
0010
0000
,  // measure 59
1000
0101
0010
0001
,  // measure 60
1100
0000
1000
0100
0010
0001
0000
0000
,  // measure 61
1001
0000
0000
1100
0000
0000
0011
0000
,  // measure 62
0100
1000
0001
0010
0001
0000
0100
0000
,  // measure 63
0010
1000
0010
1000
,  // measure 64
0100
1000
0001
0010
,  // measure 65
0100
0010
0100
1000
,  // measure 66
0100
0010
0001
1000
,  // measure 67
0010
0100
0010
1000
,  // measure 68
0100
1000
0001
0010
,  // measure 69
0100
0000
1000
0000
0001
0000
0001
1000
,  // measure 70
0010
0000
0100
0010
1000
0000
0010
1000
,  // measure 71
0001
1000
0001
0100
0001
1000
0001
0100
,  // measure 72
0010
0000
0100
0010
1000
0000
0100
0010
,  // measure 73
0001
0000
1000
0001
0100
0000
0010
0000
,  // measure 74
0100
0000
0001
1000
0010
0000
0100
0000
,  // measure 75
0110
0000
1010
0000
1000
0001
0100
0010
,  // measure 76
1000
0100
0010
0100
1000
0001
0100
0010
,  // measure 77
1000
0010
0100
0001
0010
0000
1000
0000
,  // measure 78
0010
0001
0100
1000
,  // measure 79
0200
0000
0300
0000
0101
0000
0000
1100
,  // measure 80
0000
0000
0011
0000
0000
1010
0000
0000
,  // measure 81
0110
0101
1001
0110
,  // measure 82
0000
1100
0000
1010
,  // measure 83
0220
0330
0011
1100
,  // measure 84
1001
0000
0011
0000
,  // measure 85
0101
0000
0101
0000
1000
0000
0010
1000
,  // measure 86
0001
0000
0001
0000
1000
0100
1000
0010
,  // measure 87
0100
0000
0101
1100
,  // measure 88
0000
1010
0000
0110
,  // measure 89
1010
0000
1100
0000
0010
0000
0001
0010
,  // measure 90
0001
1001
0000
1100
,  // measure 91
0202
0303
0010
1000
,  // measure 92
0001
1000
0100
0000
0000
0000
0100
0000
,  // measure 93
1000
0000
0001
0000
0010
0000
0001
0100
,  // measure 94
1000
0000
0100
0000
0001
1000
0010
0001
,  // measure 95
0010
0000
1001
0000
,  // measure 96
1010
1100
0000
0101
,  // measure 97
1100
0011
0110
0000
,  // measure 98
1010
0101
0000
1010
,  // measure 99
2002
3003
0110
0101
,  // measure 100
0000
0000
1000
0010
1000
0000
0001
0000
,  // measure 101
1000
0000
1000
0000
0010
0100
0001
1000
,  // measure 102
0010
0010
1000
0200
,  // measure 103
0020
0000
0330
0000
0011
0000
0000
1100
,  // measure 104
0000
0000
1010
0000
0000
0110
0000
0000
,  // measure 105
1001
0000
0000
0011
0000
0000
0110
0000
,  // measure 106
0000
1010
0000
0000
1001
0000
0000
0011
,  // measure 107
0000
0000
0000
0000
0110
0000
1000
0100
0010
0000
0000
0000
0001
0010
0100
0000
,  // measure 108
0000
0000
1000
0010
0100
0000
0000
0000
0001
0100
0010
0000
0000
0000
1000
0001
,  // measure 109
0100
0000
0000
0000
0001
1000
0010
0000
0100
0000
0000
0000
0000
0000
1100
0000
,  // measure 110
0000
0000
0010
0000
0000
0110
0000
0000
,  // measure 111
1001
0000
0100
0000
,  // measure 112
0101
0010
0000
0010
,  // measure 113
0100
1000
0010
0100
0001
0000
0001
0000
,  // measure 114
0001
0000
1000
0001
1000
0010
0100
0000
,  // measure 115
0010
1000
1010
1010
,  // measure 116
0100
0000
0001
1000
0020
0000
0000
0000
,  // measure 117
1030
0100
0010
0001
0010
0000
0001
0010
,  // measure 118
0100
1000
0010
0000
1000
0001
0100
0010
,  // measure 119
1000
0001
0101
0000
,  // measure 120
1100
0000
0000
0000
1000
0000
0010
1000
,  // measure 121
0010
0010
1100
1100
,  // measure 122
1010
0000
1100
0000
0101
0000
1000
0001
,  // measure 123
0010
0001
0000
1100
,  // measure 124
0000
0101
0000
0000
1010
0000
0010
1000
,  // measure 125
0010
1000
0001
0100
0001
0100
0010
0000
,  // measure 126
1000
0100
0010
0000
,  // measure 127
0101
0000
0011
0000
0000
1010
0000
0000
,  // measure 128
1100
0110
0010
1001
,  // measure 129
0000
0000
0001
0000
1000
0010
0100
0010
,  // measure 130
1000
0100
0010
0000
0001
0100
0001
0100
,  // measure 131
0010
1000
0001
0000
1000
0000
0100
1000
,  // measure 132
0100
0010
0001
0000
0110
0000
0000
0000
,  // measure 133
1010
1100
0000
1010
,  // measure 134
0101
0000
0010
0000
0001
0010
0100
0000
,  // measure 135
1000
0000
0010
0100
0010
0000
1000
0010
,  // measure 136
1000
0010
0100
0000
0001
0000
0011
0000
,  // measure 137
0100
0000
1000
0000
0110
0000
0001
0010
,  // measure 138
0100
1000
0000
0000
1001
0000
0000
0110
,  // measure 139
0000
0000
1010
0000
1000
0010
0100
0001
,  // measure 140
1000
0100
0010
0001
,  // measure 141
0010
0001
0100
0010
,  // measure 142
1000
0100
0001
0100
,  // measure 143
1000
0010
0001
0010
,  // measure 144
1000
0001
0100
0010
,  // measure 145
0100
0001
1000
0010
,  // measure 146
0001
0010
1000
0100
,  // measure 147
0010
0000
0010
0001
1000
0000
0100
1000
,  // measure 148
0001
0000
0010
0001
1000
0001
1000
0100
,  // measure 149
1000
0001
1000
0100
0010
0000
0001
0010
,  // measure 150
0001
0000
1000
0100
1000
0000
0010
1000
,  // measure 151
0010
0000
1000
0000
0001
0000
1000
0001
,  // measure 152
0010
0100
1100
0101
,  // measure 153
0001
1000
0100
0010
0001
0100
0010
0100
,  // measure 154
0001
1000
0100
0010
0001
0010
0100
1000
,  // measure 155
0010
1000
0100
0010
,  // measure 156
0001
0100
0020
0030
,  // measure 157
1001
0000
0000
0011
0000
0000
1100
0000
,  // measure 158
0000
0101
0000
0000
0110
0000
1010
0000
,  // measure 159
1001
0110
0000
0011
,  // measure 160
0000
0101
0220
0330
,  // measure 161
1100
0011
1001
0000
,  // measure 162
1100
0000
1010
1010
,  // measure 163
0001
0000
0100
0001
1000
0000
1000
0000
,  // measure 164
0001
0010
0001
0100
0010
0000
0000
0000
,  // measure 165
1010
0011
0000
0101
,  // measure 166
0000
0110
0101
0011
,  // measure 167
0100
0000
1000
0100
1000
0000
1001
0000
,  // measure 168
0000
0011
2020
3030
,  // measure 169
0100
0000
0001
0000
1000
0001
0010
0000
,  // measure 170
0000
0010
0001
1000
,  // measure 171
0100
0000
1000
0010
0001
0000
0010
0000
,  // measure 172
1000
0001
0100
1000
0100
0000
0000
0000
,  // measure 173
1001
0000
0101
0011
,  // measure 174
0000
1010
0011
1100
,  // measure 175
0110
0000
0101
1010
,  // measure 176
0000
0101
2002
3003
,  // measure 177
0110
0000
1010
0000
0000
0000
0001
0100
,  // measure 178
0001
1000
0001
0001
,  // measure 179
0100
0010
1000
0001
0100
0000
0100
0000
,  // measure 180
0001
0020
0200
0330
,  // measure 181
1100
0000
0000
0011
0000
0000
0101
0000
,  // measure 182
0000
0110
0000
0000
1001
0000
0000
1100
,  // measure 183
0000
0000
0110
0000
0000
0101
0000
0000
,  // measure 184
1001
0000
0000
0000
0000
0000
1100
0000
0000
0000
0000
0000
0110
0000
0001
0010
,  // measure 185
0100
0000
0000
0000
1000
0100
0010
0000
0000
0000
0001
0100
0010
0000
0000
0000
,  // measure 186
1000
0010
0100
0000
0000
0000
0001
1000
0010
0000
0000
0000
1000
0001
0100
0000
,  // measure 187
0010
0000
0000
0011
0000
0000
0101
0000
,  // measure 188
0000
0110
0000
0000
1001
0000
0000
0000
,  // measure 189
0010
0000
1100
0001
,  // measure 190
0000
0000
0001
0000
0100
0010
1000
0001
,  // measure 191
0100
0000
0010
0000
0010
0000
1000
0100
,  // measure 192
1000
0001
0010
0000
0001
0000
1000
0000
,  // measure 193
1100
0000
1100
0000
0010
0000
0100
1000
,  // measure 194
0002
0000
0000
0000
1003
0010
1000
0001
,  // measure 195
0100
0000
0010
1000
0100
0010
0001
0000
,  // measure 196
0010
0100
0010
0001
1000
0000
0100
0000
,  // measure 197
1100
0000
0011
0000
,  // measure 198
0001
0000
1000
0010
1000
0000
1000
0000
,  // measure 199
0011
0011
0101
1100
,  // measure 200
0101
0000
0001
1000
0010
0000
0100
0000
,  // measure 201
0000
0000
0101
0000
0000
0110
0000
0000
,  // measure 202
1010
0000
0010
1000
0100
1000
0010
0100
,  // measure 203
0001
0100
0010
0000
0100
0000
0001
0000
,  // measure 204
0010
0000
1100
1010
,  // measure 205
0000
0011
0000
0000
1100
0000
0110
0000
,  // measure 206
1000
0101
0000
1000
,  // measure 207
0001
0010
0100
0010
0001
1000
0010
0000
,  // measure 208
1000
0010
1000
0010
0100
0001
1000
0000
,  // measure 209
0100
0000
0010
0100
1000
0001
0010
0000
,  // measure 210
0011
0000
0110
1100
,  // measure 211
0000
0101
1001
1000
,  // measure 212
0010
1000
0001
0000
1000
0000
0100
0010
,  // measure 213
0100
0000
0010
0001
0010
0001
0100
0000
,  // measure 214
1000
1010
0010
0100
,  // measure 215
0101
0000
1000
0010
0100
0001
0000
0000
,  // measure 216
0110
0000
0000
0101
0000
0000
1001
0000
,  // measure 217
0001
1000
0010
1000
0001
0000
0100
0000
,  // measure 218
0010
1000
0010
0100
,  // measure 219
2002
0000
0000
0000
,  // measure 220
0000
0000
0000
0000
,  // measure 221
3003
0000
0000
0000
;

//---------------dance-single - ----------------
#NOTES:
     dance-single:
     :
     Hard:
     18:
     1.005592,1.537561,0.802135,0.270107,0.000000,860.000000,762.000000,98.000000,33.000000,0.000000,0.000000,1.005592,1.537561,0.802135,0.270107,0.000000,860.000000,762.000000,98.000000,33.000000,0.000000,0.000000:
0000
0000
0000
0000
,
0000
0000
0000
0000
,
0000
0000
0000
0000
,
0000
0000
0000
0000
,
0000
0000
0000
0000
,
0000
0000
0000
0000
,
0000
0000
0000
0000
,
0000
0000
0000
0000
,
0000
0000
0000
0000
,
0000
0000
0000
0000
,
0000
0000
0000
0000
,
0000
0000
0000
0000
,
0000
0000
0000
0000
,
0000
0000
0000
0000
,
0000
0000
0000
0000
,
0000
0000
0000
0000
,
0000
0000
0000
0000
,
0000
0000
0000
0000
,
1000
1000
0000
0001
,
0001
0000
1001
0000
,
1000
0010
1000
0001
,
0100
0000
0001
0000
0010
0000
0100
1000
,
0100
0000
0010
0000
0001
0000
1000
0001
,
0100
0000
0001
1000
0010
0000
0100
0000
,
0020
0030
1001
0000
,
1000
0010
0100
0001
,
0010
0010
0000
0100
,
0100
0000
1100
0000
,
0001
0010
0001
1000
,
0100
0000
0010
0100
,
1000
0001
1000
0001
1000
0000
0010
1000
,
0010
1000
0010
0000
0100
0001
0100
0000
,
0010
1000
0001
0100
,
1000
0100
0001
0000
,
1000
0000
0101
1000
,
0000
0000
1000
0000
0010
0000
1000
0001
,
0100
0000
0001
0000
0010
0000
0001
1000
,
0100
0010
0001
0100
,
0010
0000
0010
0000
1000
0100
1000
0100
,
0020
0000
0030
0000
0001
0100
0001
0100
,
0001
0010
1000
0010
,
0002
0003
2000
3000
0002
0003
2000
3000
,
0010
0000
1010
0000
,
0100
0000
0010
0100
0010
0000
0010
0000
,
1000
0001
0100
0001
,
0010
0000
0100
0010
0001
0000
1000
0000
,
0000
0000
0010
0000
0000
0100
0000
0000
,
2002
0000
0000
0000
3003
0000
0010
1000
,
0001
0100
0010
0000
1000
0000
0100
0000
,
0010
0000
0001
0001
,
0000
0010
0000
0000
0010
0000
0100
0000
,
0100
1001
0000
0001
,
0100
0010
0100
0001
,
1000
0010
1000
0010
0100
0001
1000
0000
,
0100
0000
0001
0000
0100
1000
0010
0000
,
0100
0000
0100
0001
,
0000
1000
0001
1000
,
0000
0101
0010
0000
,
1000
0000
1000
0100
,
0000
0011
0100
0000
,
1010
0100
0001
0000
,
0100
0000
0000
0001
0000
0000
0010
0000
,
0100
1000
0001
0010
0001
0000
0100
0000
,
0010
1000
0010
1000
,
0010
1000
0001
1000
,
0010
0100
0001
0010
,
0100
0010
0001
1000
,
0100
0000
0011
0000
,
1100
0000
0000
0100
,
1000
0010
1000
0001
,
0100
0010
0100
0002
,
0010
0023
0100
0130
,
1000
0000
0010
1000
0010
0000
1000
0001
,
1000
0000
0001
0100
0001
0000
0010
0000
,
0100
0010
0001
1000
,
0110
0000
1001
0000
0001
0100
0001
0100
,
0010
1000
0001
0100
0010
0100
0001
1000
,
0010
1000
0001
0100
0010
0000
0000
1000
,
0000
0100
0100
0010
,
0000
0000
0000
0000
0011
0000
0000
1001
,
0000
0000
0101
0000
0000
1010
0000
0000
,
1001
1100
0010
1001
,
0000
0110
0000
0100
,
2000
3000
0010
0100
,
0010
0000
1000
0000
,
0001
0000
0001
0000
0010
0000
0100
1000
,
0001
0001
0010
0000
,
1100
0000
1010
0110
,
0000
0101
0000
1000
,
0001
0000
0010
0000
0100
0000
0010
0001
,
1000
0100
0000
0010
,
0002
0003
1000
0010
,
0100
0001
1000
0000
0000
0000
0010
0000
,
1000
0000
1000
0000
0001
0000
0010
0100
,
0010
0001
1000
0000
0100
0000
0000
0000
,
0011
0000
1001
0000
,
0101
1010
0000
0010
,
1100
0011
0001
0000
,
0110
1001
0000
1000
,
0002
0003
0010
0100
,
0000
0000
0100
1000
0001
0000
0010
0000
,
0001
0000
0001
0000
1000
0010
1000
0010
,
0100
0001
1000
0010
,
0000
0000
0000
0000
1010
0000
0000
1001
,
0000
0000
0101
0000
0000
0011
0000
0000
,
0110
0000
0000
1100
0000
0000
1010
0000
,
0000
0110
0000
0000
1001
0000
0000
0101
,
0000
0000
1001
0000
0001
1000
0000
1000
,
0010
0000
0010
0100
0000
0100
0001
0000
,
0001
0010
0000
0010
0100
0000
1000
0001
,
0010
0000
0100
0000
0010
0001
1000
0000
,
1100
0000
0001
0000
,
1010
0001
0000
0001
,
0100
0000
0001
1000
0010
0000
1000
0000
,
0100
0000
1000
0001
0010
0000
0100
0000
,
1000
0010
0100
0100
,
0001
0010
0001
0010
0200
0000
0300
0000
,
1000
0010
1000
0010
1000
0000
0100
0000
,
0001
0000
0100
0000
2000
3000
0002
0003
,
2000
3000
0002
0003
0100
0000
0000
0000
,
0101
0000
0000
0000
0010
0000
0100
0010
,
0100
0100
0001
1000
,
0010
0000
1000
0000
0100
0000
0010
0100
,
1000
0001
0000
0100
,
0000
0010
0000
0000
2002
0000
0000
0000
,
3003
0000
0100
0001
1000
0010
0100
0000
,
0001
0010
0100
0000
,
1000
0000
1000
0000
0000
0100
0000
0000
,
0100
0010
0010
1001
,
0000
1000
0010
0100
,
0010
0000
1000
0000
0001
0100
0001
0100
,
0010
1000
0001
0000
0010
0000
1000
0000
,
0010
0001
0100
0000
0010
0000
0000
0000
,
0010
1000
0000
0001
,
1000
0001
0000
1010
,
0100
0000
0001
0000
,
0001
0010
0000
1100
,
0010
0000
0101
0010
,
1000
0000
0000
0000
0010
0000
0000
1000
,
0000
0000
0100
0000
0010
0001
1000
0100
,
1000
0010
0100
0001
,
0100
0001
0100
0001
,
1000
0001
0100
0010
,
1000
0100
0010
0100
,
1000
0001
0010
0000
,
1100
0000
0011
0000
,
0000
0010
0001
0100
,
0001
1000
0010
0100
,
0010
2000
0100
3200
,
0010
0000
0310
0000
0001
0000
0100
0001
,
0100
0000
0001
1000
0001
0000
1000
0010
,
1000
0100
0010
0100
,
1000
0001
0110
1001
,
1000
0010
1000
0010
0100
0001
1000
0010
,
0100
0010
1000
0001
0100
0001
1000
0010
,
0100
0000
0000
0001
0000
0000
0010
0000
,
0010
0100
0000
0000
,
1100
0000
0000
1001
0000
0000
1010
0000
,
0000
0101
0000
0000
1001
0000
0011
0000
,
0100
1001
0000
0110
,
0000
0010
0002
0003
,
0100
0010
0100
0000
,
0001
0000
1000
1000
,
0100
0000
0010
0001
1000
0000
1000
0000
,
0100
0000
0011
0000
,
0101
0110
0000
1010
,
0000
0001
1000
0100
,
0010
0000
0100
1000
0001
0000
0010
0000
,
0000
0100
2000
3000
,
0001
0000
0100
0000
0010
1000
0001
0000
,
0000
0100
0001
0001
,
1000
0000
0100
0010
0100
1000
0001
0000
,
0010
0000
1100
0000
,
1001
0000
1010
0101
,
0000
0100
0011
1100
,
1000
0000
0110
1001
,
0000
0001
2000
3000
,
0100
0000
0010
0000
0000
0000
0010
0001
,
1000
0100
1000
1000
,
0001
0100
0001
0100
0010
0000
1000
0000
,
0001
0100
0000
0000
,
0101
0000
0000
1001
0000
0000
1010
0000
,
0000
1100
0000
0000
0110
0000
0000
0011
,
0000
0000
0101
0000
0000
0110
0000
0000
,
1001
0000
0000
1010
0000
0000
1001
0000
,
1000
0001
0000
0001
0100
0000
0100
0010
,
0000
0010
1000
0000
1000
0100
0000
0100
,
0010
0000
0001
1000
0100
0000
0010
0000
,
0100
1000
0001
0000
1100
0000
0000
0000
,
0010
0000
0110
0100
,
0000
0000
0001
0000
0010
0000
0001
0010
,
0100
0000
0010
0000
0001
0000
1000
0100
,
0010
0001
0100
0010
,
1000
0000
1000
0000
0001
0100
0001
0100
,
0020
0000
0030
0000
1000
0100
1000
0100
,
1000
0010
0001
0010
,
0200
0300
0020
0030
0200
0300
0020
0030
,
0100
0000
0011
0000
,
0001
0000
1000
0010
1000
0000
1000
0000
,
0010
0100
0001
1000
,
0100
0000
1000
0010
0100
0000
0001
0000
,
0000
0000
0011
0000
0000
1100
0000
0000
,
2002
0000
0000
0000
3003
0000
1000
0100
,
0010
0001
1000
0000
0010
0000
1000
0000
,
0100
0000
0100
0100
,
0000
0010
0000
0000
0010
0000
0001
0000
,
0001
1010
0000
1000
,
0010
0100
0010
1000
,
0001
0100
0001
0100
0010
1000
0100
0000
,
0010
0000
0100
0000
1000
0100
0010
0000
,
0001
0000
0001
1000
,
0000
1000
0010
0100
,
0000
0011
0001
0000
,
0010
0000
0010
0100
,
0000
1100
0010
0000
,
1010
0100
0001
0000
,
0100
0000
0000
0001
0000
0000
0010
0000
,
0100
1000
0001
0010
0001
0000
0100
0000
,
0010
1000
0010
1000
,
0020
0000
0000
0000
,
0000
0000
0000
0000
,
0030
0000
0000
0000
;

//---------------dance-single - ----------------
#NOTES:
     dance-single:
     :
     Medium:
     16:
     0.834875,1.175782,0.433808,0.212811,0.000000,714.000000,661.000000,53.000000,26.000000,0.000000,0.000000,0.834875,1.175782,0.433808,0.212811,0.000000,714.000000,661.000000,53.000000,26.000000,0.000000,0.000000:
0000
0000
0000
0000
,
0000
0000
0000
0000
,
0000
0000
0000
0000
,
0000
0000
0000
0000
,
0000
0000
0000
0000
,
0000
0000
0000
0000
,
0000
0000
0000
0000
,
0000
0000
0000
0000
,
0000
0000
0000
0000
,
0000
0000
0000
0000
,
0000
0000
0000
0000
,
0000
0000
0000
0000
,
0000
0000
0000
0000
,
0000
0000
0000
0000
,
0000
0000
0000
0000
,
0000
0000
0000
0000
,
0000
0000
0000
0000
,
0000
0000
0000
0000
,
0010
1000
0000
1000
,
0001
0000
1100
0000
,
0101
0000
0001
1000
,
0100
0000
0010
0100
,
0010
0001
1000
0001
,
0010
0100
1000
0010
,
2000
3000
0011
0000
,
0001
0100
0010
1000
,
0001
0001
0000
1000
,
1000
0000
0011
0000
,
1010
0000
0010
0100
,
0001
0100
0010
1000
,
0100
0010
0100
0001
,
0100
1000
0010
0100
,
0001
0001
0100
0100
,
0010
1000
0010
0000
,
0100
0000
0001
0010
,
0000
0010
0001
0000
,
1000
0000
0010
0000
1000
0000
0100
1000
,
0100
0010
0001
1000
,
0100
0000
0010
0000
0001
0000
1000
0001
,
1000
0000
0001
0000
,
0101
0100
0010
1010
,
0000
1000
0010
1000
,
0110
0000
0110
0000
,
0001
0000
0010
0001
0010
0000
0001
0000
,
1000
0001
1000
0001
,
0100
0010
0100
0010
,
0000
0000
1010
0000
0000
1100
0000
0000
,
0022
0000
0033
1000
,
0100
0010
0001
0100
,
0010
0000
1000
1000
,
0000
0010
0000
0000
0010
0000
1000
0000
,
0001
0100
0000
0020
,
0030
0000
1000
0001
1000
0001
1000
0000
,
0001
0010
0001
0000
1000
0000
0200
0000
,
0300
0010
0001
0010
,
0100
0000
0100
0100
,
0000
0100
0100
1000
,
0000
0001
0010
0001
,
1000
0100
1000
0010
,
0000
0100
0010
0000
,
0100
0010
1000
0000
,
0101
0000
0000
0110
0000
0000
2020
0000
,
0000
3030
0010
1000
,
0100
0001
0100
0001
,
0100
1000
0001
0000
,
0010
0001
1000
0000
,
0100
1000
0010
0000
,
0110
0000
0101
0000
,
1100
0000
0100
1000
,
0010
1000
0001
0100
,
0001
0010
0001
1000
,
0001
0001
1000
1000
,
0001
0000
0000
0001
0100
0000
0000
0100
,
0010
0000
0000
0010
1000
0000
1000
0000
,
0100
0100
0010
0010
,
0011
0000
0110
0000
0100
1000
0100
0000
,
0010
0000
0001
0000
0100
0001
0100
0000
,
0010
1000
0002
0000
,
0000
0000
0000
0000
,
2003
0000
3000
0000
0001
0000
0000
0100
,
0000
0000
0010
0000
0000
1000
0000
0000
,
0001
0100
0010
1000
,
0000
0100
0000
0010
,
0002
0003
0100
0010
,
0100
0000
0010
0000
,
1000
0010
1000
0001
,
0100
0001
0010
0100
,
1000
0000
1000
0100
,
0000
0010
0000
0100
,
0010
0000
0001
0000
1000
0000
0001
1000
,
0001
0100
0000
0010
,
1000
0000
0001
0100
,
0010
0100
0010
0000
0000
0000
1000
0000
,
0010
1000
0001
0100
,
0010
0100
0001
1000
,
0001
0000
1001
0000
,
1000
0100
0000
0100
,
1000
0010
0001
0000
,
0010
1000
0000
0001
,
0100
0000
0100
0010
,
0000
0000
0010
1000
0010
0000
1000
0000
,
0001
0000
1000
0000
0100
1000
0100
0000
,
0010
0001
0010
0100
,
1000
0000
0000
0000
0010
0000
0000
0100
,
0000
0000
0001
0000
0000
0010
0000
0000
,
0100
0000
0000
1000
0000
0000
0010
0000
,
0000
0100
0000
0000
0001
0000
0000
1000
,
0000
0000
0100
0000
0000
0010
0000
0000
,
0001
0000
0000
0100
0000
0000
0010
0000
,
0000
1000
0000
0000
0100
0000
0000
0100
,
0010
0000
0001
0000
0000
0001
0100
0000
,
0010
0000
0010
0000
,
1000
0100
0000
0100
,
1000
0000
0001
0100
,
0001
0000
0010
0001
0010
0000
0100
0000
,
1000
0001
0010
0100
,
1000
0000
0001
1000
0001
0000
0000
0000
,
1000
0000
1010
0010
,
0100
0101
0000
0001
,
0100
0001
0110
0000
,
0110
0000
0000
0000
1000
0000
0100
1000
,
0100
1000
0001
1000
,
0001
1000
0010
0100
,
0010
0100
0000
0101
,
0000
0011
0000
0000
2200
0000
0000
0000
,
3300
0001
0010
0100
,
1000
0010
0100
0000
,
0001
0000
0001
0000
0000
0100
0000
0000
,
0100
0001
1000
0010
,
0000
0000
0200
0000
0300
0000
0001
1000
,
0001
1000
0001
0000
1000
0100
1000
0000
,
0001
0020
0030
0100
,
1000
0100
0010
0000
,
0010
0010
0000
0010
,
0010
0001
0000
1000
,
0100
1000
0001
0010
,
0001
0100
0000
0010
,
0100
0000
0010
0100
,
0001
0000
0000
0000
1010
0000
0000
0110
,
0000
0202
0000
0303
,
0100
0001
0010
1000
,
0010
1000
0010
0001
,
1000
0000
0100
1000
,
0001
0000
0010
0001
,
0100
0000
0110
0000
,
1010
0000
0011
0000
,
0010
0001
0100
0001
,
1000
0010
1000
0100
,
1000
0001
1000
1000
,
0001
0000
0001
0000
1000
0000
0000
1000
,
0010
0000
0000
0010
0100
0000
0000
0100
,
0001
0001
0010
0010
,
0100
0100
1100
0110
,
0010
0001
0010
0000
0100
0000
1000
0000
,
0010
1000
0010
0000
0100
0000
0001
0000
,
2000
0000
0000
0000
,
0000
0000
3002
0003
,
1000
0000
0000
0010
0000
0000
0100
0000
,
0000
0001
0000
0000
1000
0000
0010
0000
,
0100
0001
0000
0010
,
0000
0100
2000
3000
,
0010
0100
0010
0000
,
0100
0000
0001
0100
,
0001
1000
0010
1000
,
0100
0010
0001
0000
,
0001
0010
0000
0100
,
0000
0010
0100
1000
,
0001
0000
1000
0001
1000
0000
0010
0000
,
0000
0100
0001
0000
,
1000
0000
0010
0000
0100
0010
0100
0000
,
0000
0001
0100
0001
,
1000
0010
0100
0010
,
1000
0001
1000
0000
,
1001
0000
0001
0010
,
0000
0010
0001
0100
,
1000
0000
0100
0001
,
0000
1000
0010
0000
,
0010
0000
0100
0000
0000
0000
0100
0001
,
0100
0001
1000
0001
,
0010
0001
0010
0000
0100
0000
1000
0000
,
0100
0010
0001
0000
,
0100
0000
0000
0010
0000
0000
1000
0000
,
0000
0100
0000
0000
0010
0000
0000
0001
,
0000
0000
0100
0000
0000
0010
0000
0000
,
1000
0000
0000
0001
0000
0000
0010
0000
,
0000
0110
0000
0000
1100
0000
0000
0011
,
0000
0000
0101
0000
0000
1001
0000
0000
,
1010
0000
0000
0010
0100
0000
0001
0000
,
0000
0001
0010
0000
0100
0000
0000
0000
,
0010
0000
1000
0100
,
0000
0100
1000
0000
,
0001
0000
0100
0000
0001
0000
0010
0001
,
0010
0100
1000
0001
,
0010
0000
0100
0000
1000
0000
0001
1000
,
0001
0000
1000
0000
,
1010
0010
0100
0101
,
0000
0001
0100
0001
,
0110
0000
0110
0000
,
1000
0000
0100
1000
0100
0000
1000
0000
,
0001
1000
0001
1000
,
0010
0100
0010
0100
,
0000
0000
0101
0000
0000
0011
0000
0000
,
2200
0000
3300
0001
,
0010
0100
1000
0010
,
0100
0000
0001
0001
,
0000
0100
0000
0000
0100
0000
0001
0000
,
1000
0010
0000
0200
,
0300
0000
0001
1000
0001
1000
0001
0000
,
1000
0100
1000
0000
0001
0000
0020
0000
,
0030
0100
1000
0100
,
0010
0000
0010
0010
,
0000
0010
0010
0001
,
0000
1000
0100
1000
,
0001
0010
0001
0100
,
0000
0010
0100
0000
,
0010
0100
0001
0000
,
1010
0000
0000
0110
0000
0000
0202
0000
,
0000
0303
0100
0001
,
1000
0001
1000
0001
,
2000
0000
0000
0000
,
0000
0000
0000
0000
,
3000
0000
0000
0000
;

//---------------dance-single - ----------------
#NOTES:
     dance-single:
     :
     Easy:
     12:
     0.527351,0.814003,0.196441,0.139146,0.000000,451.000000,427.000000,24.000000,17.000000,0.000000,0.000000,0.527351,0.814003,0.196441,0.139146,0.000000,451.000000,427.000000,24.000000,17.000000,0.000000,0.000000:
0000
0000
0000
0000
,
0000
0000
0000
0000
,
0000
0000
0000
0000
,
0000
0000
0000
0000
,
0000
0000
0000
0000
,
0000
0000
0000
0000
,
0000
0000
0000
0000
,
0000
0000
0000
0000
,
0000
0000
0000
0000
,
0000
0000
0000
0000
,
0000
0000
0000
0000
,
0000
0000
0000
0000
,
0000
0000
0000
0000
,
0000
0000
0000
0000
,
0000
0000
0000
0000
,
0000
0000
0000
0000
,
0000
0000
0000
0000
,
0000
0000
0000
0000
,
0010
0000
0000
1000
,
0000
0000
0100
0000
,
0100
0000
0010
0100
,
0010
0000
0001
0000
,
0001
0000
1000
0000
,
0010
0000
1000
0000
,
0100
0000
0010
0000
,
0100
0000
1000
0000
,
0001
0000
0000
1000
,
0000
0000
0010
0000
,
0100
0000
0001
1000
,
0001
0000
1000
0000
,
0100
0000
1000
0000
,
0010
0000
0100
0000
,
0001
0000
1000
0000
,
0001
0000
0000
0000
,
1000
0000
0010
1000
,
0000
1000
0010
0000
,
0100
0000
0001
0000
,
0010
0000
0100
0000
,
0010
0000
0001
0000
,
1000
0000
0100
0000
,
0010
0000
0001
0000
,
1000
0100
1000
0100
,
1000
0000
0010
0000
,
1000
0000
0100
0000
,
0100
0000
0010
0000
,
0001
0000
1000
0000
,
0000
0000
0001
0000
0000
2000
0000
0000
,
0002
0000
0000
0000
,
3003
0000
0000
0000
,
0000
0000
0000
1000
,
0000
1000
0000
0000
1000
0000
0010
0000
,
0000
1000
0000
0100
,
0000
0010
0000
0001
,
0000
0010
0000
0100
,
0000
1000
0000
0010
,
1000
0000
1000
0010
,
0000
0010
0010
1000
,
0000
1000
0001
0000
,
0001
1000
0000
0100
,
0000
0010
0000
0001
,
0000
1000
0000
0000
,
0100
0000
0000
0020
0000
0000
0002
0000
,
0000
0000
0000
0000
,
0033
0000
0000
0000
,
0001
0000
0101
0000
,
1000
0000
1100
0000
,
0001
0000
0101
0000
,
1000
0000
0010
0000
,
0100
0000
1001
0000
,
0010
0000
0100
0000
,
1000
0000
0010
0000
,
1000
0000
0001
0000
,
0100
0000
0001
0000
,
0001
0000
0010
0000
,
0010
0000
0100
0000
,
0100
0000
1000
0100
,
1000
0100
0010
0001
,
0010
0001
2000
0000
,
0000
0000
0000
0000
,
3000
0000
0000
0000
0010
0000
0000
1000
,
0000
0000
0010
0000
0000
1000
0000
0000
,
0010
1000
0001
1000
,
0000
0001
0000
1000
,
0001
0000
0110
0000
,
0101
0000
0011
0000
,
1100
0000
2000
0000
,
0100
0000
0001
0000
,
3001
0000
0100
0001
,
0000
0100
0000
0001
,
0100
0001
0010
0100
,
0010
0100
0000
0100
,
1000
0000
0010
0000
,
0000
1001
0000
0000
,
1100
0000
0010
0000
,
0100
0000
0010
0000
,
0001
0000
1001
0000
,
0001
1000
0000
1000
,
0001
1000
0001
0000
,
0001
1000
0000
1000
,
0100
0000
0011
0000
,
0000
0000
0100
0000
,
0001
0000
0010
0000
,
0100
0000
0010
0000
,
0001
0000
0000
0000
1000
0000
0000
0100
,
0000
0000
1000
0000
0000
0100
0000
0000
,
0010
0000
0000
0001
0000
0000
0010
0000
,
0000
0001
0000
0000
0100
0000
0000
0001
,
0000
0000
0100
0000
0000
0001
0000
0000
,
1000
0000
0000
0010
0000
0000
1000
0000
,
0000
0010
0000
0000
1000
0000
0000
0001
,
0000
0000
1000
0000
0000
0001
0000
0000
,
1000
0000
0001
0000
,
0100
0001
0000
0001
,
0100
0000
0010
0000
,
1000
0000
0100
0000
,
0010
0000
0100
0000
,
1000
0000
0001
0000
,
0010
0000
0100
0000
,
1000
0000
0001
0010
,
0001
0010
0001
0000
,
0100
0000
0001
0000
,
0010
0000
0010
0000
,
0100
0000
1000
0000
,
0001
0000
0000
1000
,
0000
0002
0000
0000
2000
0000
0000
0000
,
0000
0000
3003
0000
,
0000
0000
0000
0000
,
0000
0000
0001
0000
0000
0001
0000
0000
,
0001
0100
0000
0001
,
0000
0010
0000
0100
,
0000
1000
0000
0100
,
0000
0010
0000
0001
,
0000
0100
0001
0000
,
0001
0100
0000
0100
,
0100
0001
0000
0001
,
1000
0000
1000
0001
,
0000
0010
0000
0100
,
0000
1000
0000
0001
,
0000
0000
0000
0000
0010
0000
0000
0200
,
0000
2000
0000
0000
,
0000
0000
3300
0000
,
0000
0000
1000
0000
,
1010
0000
0001
0000
,
0011
0000
1000
0000
,
1010
0000
0001
0000
,
0100
0000
0010
0000
,
1001
0000
0100
0000
,
0010
0000
0001
0000
,
0100
0000
0001
0000
,
1000
0000
0010
0000
,
1000
0000
1000
0000
,
0100
0000
0100
0000
,
0010
0000
0010
0000
,
0001
0010
0001
0010
,
0100
1000
0100
1000
,
0002
0000
0000
0000
,
0000
0000
0003
0000
,
0100
0000
0000
0001
0000
0000
0100
0000
,
0000
0001
0000
0000
0100
0000
0001
0000
,
1000
0001
0000
1000
,
0000
0001
1000
0000
,
0110
0000
1010
0000
,
1100
0000
0011
0000
,
0002
0000
0010
0000
,
1000
0000
1003
0000
,
0010
1000
0000
0010
,
0000
1000
0010
1000
,
0100
0010
0100
0010
,
0000
0010
0001
0000
,
0100
0000
0000
1001
,
0000
0000
0011
0000
,
0100
0000
0010
0000
,
0100
0000
1000
0000
,
1001
0000
1000
0001
,
0000
0001
1000
0001
,
1000
0000
1000
0001
,
0000
0001
0010
0000
,
1100
0000
0000
0000
,
0010
0000
1000
0000
,
0100
0000
0010
0000
,
0100
0000
1000
0000
,
0001
0000
0000
0010
0000
0000
0001
0000
,
0000
0010
0000
0000
0100
0000
0000
1000
,
0000
0000
0100
0000
0000
1000
0000
0000
,
0010
0000
0000
1000
0000
0000
0010
0000
,
0000
1000
0000
0000
0001
0000
0000
0100
,
0000
0000
0001
0000
0000
0100
0000
0000
,
0001
0000
0000
1000
0000
0000
0001
0000
,
0000
1000
0000
0000
0001
0000
0000
0000
,
0001
0000
0100
0001
,
0000
0001
0100
0000
,
0010
0000
1000
0000
,
0100
0000
0010
0000
,
0100
0000
1000
0000
,
0001
0000
0010
0000
,
0100
0000
1000
0000
,
0001
0010
0001
0010
,
0001
0000
0100
0000
,
0001
0000
0010
0000
,
0010
0000
0100
0000
,
1000
0000
0001
0000
,
0000
0000
1000
0000
0000
0002
0000
0000
,
2000
0000
0000
0000
,
3003
0000
0000
0000
,
0000
0000
0000
0001
,
0000
0001
0000
0000
0001
0000
0100
0000
,
0000
0001
0000
0010
,
0000
0100
0000
1000
,
0000
0100
0000
0010
,
0000
0001
0000
0100
,
0001
0000
0001
0100
,
0000
0100
0100
0001
,
0000
0001
1000
0000
,
1000
0001
0000
0010
,
0000
0100
0000
1000
,
0000
0001
0000
0000
,
0010
0000
0000
0200
0000
0000
2000
0000
,
0000
0000
0000
0000
,
3300
0000
0000
0000
,
0200
0000
0000
0000
,
0000
0000
0000
0000
,
0300
0000
0000
0000
;

//---------------dance-single - ----------------
#NOTES:
     dance-single:
     :
     Beginner:
     8:
     0.322725,0.542669,0.098221,0.286477,0.000000,276.000000,264.000000,12.000000,35.000000,0.000000,0.000000,0.322725,0.542669,0.098221,0.286477,0.000000,276.000000,264.000000,12.000000,35.000000,0.000000,0.000000:
0000
0000
0000
0000
,
0000
0000
0000
0000
,
0000
0000
0000
0000
,
0000
0000
0000
0000
,
0000
0000
0000
0000
,
0000
0000
0000
0000
,
0000
0000
0000
0000
,
0000
0000
0000
0000
,
0000
0000
0000
0000
,
0000
0000
0000
0000
,
0000
0000
0000
0000
,
0000
0000
0000
0000
,
0000
0000
0000
0000
,
0000
0000
0000
0000
,
0000
0000
0000
0000
,
0000
0000
0000
0000
,
0000
0000
0000
0000
,
0000
0000
0000
0000
,
0010
0000
0000
1000
,
0000
0000
0001
0000
,
1000
0000
0000
0000
,
0100
0000
0000
0000
,
0010
0000
0000
0000
,
0100
0000
0000
0000
,
1000
0000
0010
0000
,
1000
0000
0000
0000
,
0001
0000
0000
0100
,
0000
0000
0001
0000
,
1000
0000
0000
0000
,
0100
0000
0000
0000
,
0010
0000
0000
0000
,
0100
0000
0000
0000
,
1000
0000
0100
0000
,
0010
0000
0001
0000
,
1000
0000
0000
0000
,
0010
0000
0000
0000
,
1000
0000
0100
0000
,
1000
0000
0000
0000
,
0010
0000
0000
0000
,
1000
0000
0000
0000
,
0001
0000
0000
0000
,
0100
0000
0010
0000
,
0100
0000
0000
0000
,
0001
0000
0000
0000
,
0010
0000
0000
0000
,
0100
0000
0000
0000
,
0000
2000
0000
0000
,
0002
0000
0000
0000
,
3003
0000
0000
0000
,
0000
0000
0000
0100
,
0000
0000
0000
0010
,
0000
0100
0000
0010
,
0000
0000
0000
1000
,
0000
0000
0000
0001
,
0000
0000
0000
1001
,
0000
0000
1001
0000
,
0000
1000
0000
0010
,
0000
0000
0000
0100
,
0000
0000
0000
0001
,
0000
0000
0000
0010
,
0000
0100
0000
0000
,
0020
0000
0000
0002
,
0000
0000
0033
0000
,
1000
0000
0001
0000
,
1000
0000
0010
0000
,
1000
0000
0001
0000
,
1000
0000
0100
0000
,
1000
0000
0001
0000
,
0010
0000
0000
0000
,
0100
0000
0000
0000
,
1000
0000
1000
0000
,
1000
0000
0000
0000
,
0010
0000
0000
0000
,
0100
0000
0000
0000
,
0001
0000
0000
0000
,
0010
0010
0200
0000
,
1000
0000
0000
0000
,
0310
0000
0002
0000
,
0100
0000
0000
0000
,
0020
0033
1000
0000
,
0000
0010
0000
0000
,
1000
0000
0000
0100
,
0000
0010
0000
0000
,
0001
0000
1000
0000
,
0000
0000
0001
0000
,
0000
0000
0100
0000
,
0000
0000
0010
0000
,
0010
0000
1000
0000
,
0000
0001
0000
0000
,
0100
0000
0010
0000
,
0000
0100
0000
0000
,
0001
0000
0010
0000
,
0000
0100
0000
0000
,
1000
0000
0001
0000
,
1000
0000
0001
0000
,
0000
0000
1001
0000
,
0000
1000
0000
0000
,
0010
0000
0100
0000
,
0000
0001
0000
0000
,
1000
0000
0100
0000
,
0000
0010
0000
0000
,
0001
0000
0010
0000
,
0100
0000
1000
0000
,
0000
0000
0020
0000
,
0000
2030
0000
0000
,
3200
0000
0000
0320
,
0000
0000
0032
0000
,
0000
0203
0000
0000
,
0320
0000
0000
2030
,
0000
0000
3100
0000
,
0000
0110
0000
0000
,
1001
0000
0001
0000
,
0000
0000
0100
0000
,
0000
0000
0001
0000
,
0010
0000
0001
0000
,
0000
0000
0100
0000
,
0000
0000
0001
0000
,
0000
0000
1000
0000
,
0000
0000
0010
0000
,
0100
0000
0010
0000
,
0000
0000
1000
0000
,
0000
0000
0100
0000
,
0000
0000
0010
0000
,
0000
0000
0000
0002
,
0000
0000
2000
0000
,
0000
0000
3003
0000
,
0000
0000
0000
0000
,
0000
0010
0000
0000
,
0000
0100
0000
0010
,
0000
0100
0000
0000
,
0000
0001
0000
0000
,
0000
1000
0000
0000
,
0000
1001
0000
0000
,
1001
0000
0000
0001
,
0000
0100
0000
0000
,
0000
0010
0000
0000
,
0000
1000
0000
0000
,
0000
0100
0000
0010
,
0000
0000
0200
0000
,
0000
2000
0000
0000
,
3300
0000
0001
0000
,
1000
0000
0001
0000
,
0100
0000
0001
0000
,
1000
0000
0001
0000
,
0010
0000
0001
0000
,
1000
0000
0100
0000
,
0000
0000
0010
0000
,
0000
0000
0001
0000
,
0001
0000
0001
0000
,
0000
0000
0100
0000
,
0000
0000
0010
0000
,
0000
0000
1000
0000
,
0000
0000
0100
0100
,
0020
0000
0001
0000
,
0000
0000
0130
0000
,
2000
0000
0010
0000
,
0000
0000
0200
3300
,
0001
0000
0000
0100
,
0000
0000
0001
0000
,
0000
0010
0000
0100
,
0000
0000
1000
0000
,
0001
0000
0000
0000
,
1000
0000
0000
0000
,
0010
0000
0000
0000
,
0100
0000
0100
0000
,
0001
0000
0000
1000
,
0000
0000
0010
0000
,
0100
0000
0000
0010
,
0000
0000
1000
0000
,
0100
0000
0000
0010
,
0000
0000
0001
0000
,
1000
0000
0001
0000
,
1000
0000
0000
0000
,
1001
0000
0000
0001
,
0000
0000
0100
0000
,
0010
0000
0000
1000
,
0000
0000
0001
0000
,
0010
0000
0000
0100
,
0000
0000
1000
0000
,
0100
0000
0010
0000
,
0001
0000
0000
0000
,
0200
0000
0000
0302
,
0000
0000
0023
0000
,
0000
0230
0000
0000
,
2300
0000
0000
3020
,
0000
0000
0230
0000
,
0000
0302
0000
0000
,
0013
0000
0000
0110
,
0000
0000
1001
0000
,
1000
0000
0000
0000
,
0010
0000
0000
0000
,
1000
0000
0100
0000
,
1000
0000
0000
0000
,
0010
0000
0000
0000
,
1000
0000
0000
0000
,
0001
0000
0000
0000
,
0100
0000
0010
0000
,
0100
0000
0000
0000
,
0001
0000
0000
0000
,
0010
0000
0000
0000
,
0100
0000
0000
0000
,
0000
2000
0000
0000
,
0002
0000
0000
0000
,
3003
0000
0000
0000
,
0000
0000
0000
0100
,
0000
0000
0000
0010
,
0000
0100
0000
0010
,
0000
0000
0000
1000
,
0000
0000
0000
0001
,
0000
0000
0000
1001
,
0000
0000
1001
0000
,
0000
1000
0000
0010
,
0000
0000
0000
0100
,
0000
0000
0000
0001
,
0000
0000
0000
0010
,
0000
0100
0000
0000
,
0020
0000
0000
0002
,
0000
0000
0033
0000
,
1000
0000
0001
0000
,
2000
0000
0000
0000
,
0000
0000
0000
0000
,
3000
0000
0000
0000
;
