#TITLE:Mango Love;
#SUBTITLE:;
#ARTIST:Shawn Wasabi feat. Satica;
#TITLETRANSLIT:;
#SUBTITLETRANSLIT:;
#ARTISTTRANSLIT:;
#GENRE:;
#CREDIT:;
#BANNER:Mango Love.png;
#BACKGROUND:Mango Love-bg.png;
#LYRICSPATH:;
#CDTITLE:;
#MUSIC:Mango Love.ogg;
#OFFSET:-0.344001;
#SAMPLESTART:34.627861;
#SAMPLELENGTH:13.714283;
#SELECTABLE:YES;
#BPMS:0.000000=140.000000
;
#STOPS:
;
#BGCHANGES:;
#KEYSOUNDS:;
#ATTACKS:;

//---------------dance-single - ----------------
#NOTES:
     dance-single:
     :
     Hard:
     14:
     0.665398,0.679260,0.469013,0.323457,0.181945,576.000000,518.000000,58.000000,40.000000,0.000000,0.000000,0.665398,0.679260,0.469013,0.323457,0.181945,576.000000,518.000000,58.000000,40.000000,0.000000,0.000000:
// measure 0
0000
0000
0000
0000
,  // measure 1
0000
0000
0000
0000
,  // measure 2
0000
0000
0000
0000
,  // measure 3
0000
0000
0000
0000
,  // measure 4
1000
0000
0001
1000
1000
0001
1000
0100
,  // measure 5
0010
0000
0100
0010
0010
0100
0010
0001
,  // measure 6
0100
0000
0010
0100
0100
0010
0100
0001
,  // measure 7
1000
0000
0010
1000
1000
0010
1000
0001
,  // measure 8
0100
0000
0001
0100
0100
0001
0100
0010
,  // measure 9
1000
0000
0100
1000
1000
0100
0010
0001
,  // measure 10
0010
0000
0100
0010
0010
0100
0010
0001
,  // measure 11
1000
0000
0001
1000
1000
0001
0100
0010
,  // measure 12
0100
0001
0100
0000
0010
0000
1000
0000
0001
0000
1000
0000
0100
0000
0010
0000
,  // measure 13
0002
0000
0103
0000
0002
0000
0003
0000
0010
0000
0001
0000
0020
0000
0230
0300
,  // measure 14
1000
0001
1000
0001
1000
0000
0000
0000
0001
0010
0001
0010
0001
0000
0000
0000
,  // measure 15
0100
0001
0100
0001
0100
0000
0010
0000
1000
0000
0001
0000
0001
0000
0100
0000
,  // measure 16
0010
1000
0010
0000
1000
0000
0001
0000
0100
0000
0001
0000
0010
0000
0100
0000
,  // measure 17
2000
0000
3010
0000
2000
0000
3000
0000
0100
0000
1000
0000
0020
0000
0230
0300
,  // measure 18
0001
0010
0001
0010
0001
0000
0000
0000
1000
0100
1000
0100
1000
0000
0100
0000
,  // measure 19
0220
0330
2002
3003
1000
0001
0010
0001
,  // measure 20
1000
0010
1000
0000
0001
0000
0100
0000
0010
0000
0100
0000
0101
0000
0110
0000
,  // measure 21
2010
3001
2010
3100
0010
0001
0110
1100
,  // measure 22
1000
0001
0010
1000
0010
0001
0011
0101
,  // measure 23
0001
0100
0010
0100
0001
0000
0100
0000
1000
0000
0100
0000
0001
0000
0010
0000
,  // measure 24
0100
1000
0100
0000
0010
0000
0001
0000
1000
0000
0001
0000
1100
0000
0110
0000
,  // measure 25
0012
1003
0012
0103
0010
1000
1100
0110
,  // measure 26
0001
1000
0100
0001
0100
1000
1100
0110
,  // measure 27
0100
1000
0001
1000
0100
0000
0010
0000
0002
0000
0100
0000
0203
0000
0010
0000
,  // measure 28
0310
0000
0100
0010
0010
0100
0010
1000
,  // measure 29
0001
0000
0010
0001
0001
0010
0100
1000
,  // measure 30
0001
0000
1000
0001
0001
1000
0100
1000
,  // measure 31
0010
0000
1000
0010
0010
1000
0010
0100
,  // measure 32
0001
0000
1000
0001
0001
1000
0001
0010
,  // measure 33
0100
0000
0010
0100
0100
0010
0001
1000
,  // measure 34
0010
0000
1000
0010
0010
1000
0100
0010
,  // measure 35
0002
0010
0000
1000
0000
0100
0103
0010
,  // measure 36
1000
0010
0100
0000
0001
0000
1000
0000
0001
0000
0100
0000
0010
0000
1000
0000
,  // measure 37
2200
3300
0022
0033
0100
0010
0011
0110
,  // measure 38
1000
0001
0100
1000
0100
0001
0010
0100
,  // measure 39
1000
0001
0100
0010
1000
0000
0010
0000
0100
0000
0001
0000
1000
0000
1000
0000
,  // measure 40
0001
0100
0010
0000
1000
0000
0100
0000
1000
0000
0010
0000
0100
0000
0001
0000
,  // measure 41
0202
0303
2020
3030
0001
1000
1010
0110
,  // measure 42
0100
0001
0010
1000
0010
0001
0100
0010
,  // measure 43
0100
0001
1000
0010
0100
0000
0001
0000
0010
0000
0001
0000
1000
0000
0100
0000
,  // measure 44
1000
0000
0010
0100
0001
0010
0001
0010
,  // measure 45
0100
0000
1000
0100
1000
0010
1000
0100
,  // measure 46
0010
0000
0001
0010
0001
0000
0010
0100
0010
0000
0100
1000
0100
0000
1000
0000
,  // measure 47
0010
0000
1000
0010
0001
0010
1000
0100
,  // measure 48
0010
0000
0001
1000
0100
1000
0001
0100
,  // measure 49
0010
0000
1000
0001
0100
0001
0010
0100
,  // measure 50
1000
0000
0010
1000
0010
0000
0100
0010
0100
0000
0001
0100
0001
0000
1000
0000
,  // measure 51
0001
0000
0000
0000
0000
0000
0000
0000
0000
0000
0000
0000
0000
0000
0000
0000
0000
0000
0000
0000
0000
0000
0000
0000
0000
0000
0000
0000
0000
0000
0000
0000
0000
0000
0000
0000
0000
0000
0000
0000
0000
0000
0000
0000
0000
0000
0000
0000
0000
0000
0000
0000
0000
0000
0000
0000
0000
0000
0000
0000
0000
0000
0000
0000
0000
0000
0000
0000
0000
0000
0000
0000
0000
0000
0000
0000
0000
0000
0000
0000
0000
0000
0000
0000
0000
0000
0000
0000
0000
0000
0000
0000
0000
0000
0000
0000
0000
0000
0000
0000
0000
0000
0000
0000
0000
0000
0000
0000
0000
0000
0000
0000
0000
0000
0000
0000
0000
0000
0000
0000
0000
1000
0000
0000
0000
0000
0000
0000
0000
0000
0000
0100
0000
0000
0000
0000
0000
0000
0000
0000
0000
0000
0000
0010
0000
0000
0000
0000
0000
0000
0000
0000
0000
0000
0000
0000
0000
0000
0000
0000
0000
0000
0000
0000
0000
0000
0000
0000
0000
0000
0000
0000
0000
0000
0000
0000
0000
0000
0000
0000
0000
0000
0000
0000
0000
0000
0000
0000
0000
0000
0000
0000
,  // measure 52
0100
0010
0001
0000
1000
0000
0001
0000
0010
0000
0100
0000
1100
0000
1010
0000
,  // measure 53
0201
0310
0102
1003
0010
0100
0101
0011
,  // measure 54
0010
0100
1000
0001
1000
0100
0110
0011
,  // measure 55
0001
1000
0010
0100
0001
0000
0100
0000
1000
0000
0100
0000
0001
0000
0001
0000
,  // measure 56
0010
0100
1000
0000
0001
0000
1000
0000
0100
0000
0010
0000
0011
0000
0101
0000
,  // measure 57
1020
0130
2010
3001
0100
0010
1010
1100
,  // measure 58
0100
1000
0010
0001
0010
1000
1100
0110
,  // measure 59
0010
0001
0100
0001
0010
0000
0001
0000
1000
0000
0010
0000
1000
0000
0100
0000
,  // measure 60
0010
0001
1000
0000
0200
0000
1300
0000
0010
0000
1000
0000
1010
0000
0110
0000
,  // measure 61
0102
0013
0201
0310
1000
0001
0011
0110
,  // measure 62
1000
0100
0020
0130
1000
0001
1010
0101
,  // measure 63
0001
0100
0010
0100
0001
0000
0100
0000
1000
0000
0100
0000
0001
0000
0010
0000
,  // measure 64
0100
1000
0001
0000
0020
0000
0130
0000
1000
0000
0001
0000
0101
0000
0110
0000
,  // measure 65
1020
0130
2010
3100
0010
0001
0101
0110
,  // measure 66
0010
0100
0002
0103
0010
1000
1100
0110
,  // measure 67
0100
0010
0001
0010
0100
0000
1000
0000
0010
0000
1000
0000
0001
0000
0010
0000
,  // measure 68
0200
0000
0000
0000
,  // measure 69
0000
0000
0000
0000
,  // measure 70
0300
0000
0000
0000
;

//---------------dance-single - ----------------
#NOTES:
     dance-single:
     :
     Medium:
     12:
     0.514066,0.594352,0.258766,0.566050,0.064691,445.000000,413.000000,32.000000,70.000000,0.000000,0.000000,0.514066,0.594352,0.258766,0.566050,0.064691,445.000000,413.000000,32.000000,70.000000,0.000000,0.000000:
0000
0000
0000
0000
,
0000
0000
0000
0000
,
0000
0000
0000
0000
,
0000
0000
0000
0000
,
1000
0000
0001
1000
1000
0001
1000
0100
,
0010
0000
0001
0010
0010
0001
0010
0100
,
1000
0000
0100
1000
1000
0100
1000
0010
,
0100
0000
0001
0100
0100
0001
0100
0001
,
1000
0000
0010
1000
1000
0010
1000
0100
,
0010
0000
0100
0010
0010
0100
0010
0001
,
0100
0000
0001
0100
0100
0001
0100
0010
,
1000
0000
0100
1000
1000
0100
2000
0000
,
3200
0000
1300
0010
0000
0010
1000
0001
,
0202
0000
0303
0000
2002
0000
3003
0000
0000
0000
0001
0000
0020
0000
0230
0300
,
1000
0010
1000
0010
1000
0000
0000
0000
0001
0100
0001
0100
0001
0000
0000
0000
,
1000
0010
1000
0010
1000
0000
0001
0000
0100
0000
0010
0000
0100
0000
0001
0000
,
0020
0000
0031
0100
0000
0100
0001
1000
,
2020
0000
3030
0000
2002
0000
3003
0000
0000
0000
1000
0000
0020
0000
0230
0300
,
0001
1000
0001
1000
0001
0000
0000
0000
0010
0100
0010
0100
0010
0000
0001
0000
,
1000
0000
0000
0100
0010
0001
0010
0001
,
0010
0100
0010
0000
0001
0000
1000
0000
0001
0000
0100
0000
0010
0000
1000
0000
,
2200
3300
0022
0033
1100
0000
0020
0032
,
0103
0001
1000
0010
1000
0100
0010
0001
,
0020
0030
0020
0030
0100
1000
0100
1000
,
0010
1000
0010
0000
1000
0000
0001
0000
1000
0000
0100
0000
0010
0000
0001
0000
,
0022
0033
2200
3300
0101
0000
0020
2030
,
3001
0010
0100
0010
0001
1000
0100
0010
,
0002
0003
0002
0003
0100
0001
0100
0000
,
2010
0000
0010
0000
0000
0001
0000
0001
,
0000
3100
0000
0000
0100
0010
0001
0000
,
0012
0000
0010
0000
0000
1000
0000
1000
,
0000
0103
0000
0000
0001
0100
0010
0000
,
0210
0000
0001
0000
0000
1000
0000
1000
,
0000
0310
0000
0000
0010
1000
0100
0000
,
0210
0000
1000
0000
0000
0010
0000
0001
,
0000
0010
0000
1300
0000
1000
0100
0010
,
0001
0100
0001
0000
1000
0000
0010
0000
1000
0000
0001
0000
0100
0000
0010
0000
,
2020
3030
2002
3003
0100
0001
0100
0010
,
1000
0100
0010
0100
1000
0001
0010
0100
,
0020
0030
0020
0030
0000
0100
0010
0001
,
1000
0010
1000
0000
0001
0000
0100
0000
0001
0000
1000
0000
0010
0000
0100
0000
,
0220
0330
0202
0303
0010
0001
1000
0100
,
1000
0010
0100
0001
0100
0010
1000
0001
,
0200
0300
0200
0310
1000
0100
1000
0100
,
1000
0000
0001
1000
0000
0001
1000
0100
,
0010
0000
0100
0010
0000
0100
0010
0001
,
0100
0020
0030
2000
3000
0200
0300
0010
,
0001
0000
1000
0000
0100
1000
0010
0100
,
0001
0000
1000
0001
0000
1000
0001
0100
,
0010
0000
0100
0010
0000
0100
0010
1000
,
0100
0020
0030
0002
0003
0200
0300
0010
,
1000
0000
0000
0001
1000
0001
1000
0001
,
0100
0001
0100
0000
0001
0000
0100
0000
0010
0000
1000
0000
0100
0000
0010
0000
,
0022
0033
0220
0330
1100
0000
1000
0100
,
0010
0001
0100
0010
0100
0001
1000
0010
,
2000
3000
2000
3000
0001
0100
0001
0010
,
0100
1000
0100
0000
1000
0000
0100
0000
0010
0000
0001
0000
0100
0000
0010
0000
,
2020
3030
0220
0330
0101
0000
1000
0010
,
0100
0001
1000
0001
0010
0001
1000
0100
,
0020
0030
0020
0030
0001
1000
0001
0000
,
0011
0000
0110
0000
0100
0001
0100
1000
,
0010
0100
0001
0000
1000
0001
1000
0010
,
1010
0000
0110
0000
0100
1000
0100
0001
,
0020
0130
0020
0030
0100
1000
0001
0000
,
1001
0000
0101
0000
0010
1000
0010
0001
,
0100
0010
1000
0000
1000
0100
0010
0001
,
1001
0000
1100
0000
0010
0001
0010
1000
,
0200
0310
0200
0300
1000
0001
0010
0001
,
0200
0000
0000
0000
,
0000
0000
0000
0000
,
0300
0000
0000
0000
;

//---------------dance-single - ----------------
#NOTES:
     dance-single:
     :
     Easy:
     7:
     0.295732,0.357420,0.080864,0.226420,0.000000,256.000000,246.000000,10.000000,28.000000,0.000000,0.000000,0.295732,0.357420,0.080864,0.226420,0.000000,256.000000,246.000000,10.000000,28.000000,0.000000,0.000000:
0000
0000
0000
0000
,
0000
0000
0000
0000
,
0000
0000
0000
0000
,
0000
0000
0000
0000
,
0000
0000
0010
1000
0020
0000
0030
0000
,
0000
0000
1000
0100
2000
0000
3000
0000
,
0000
0000
0001
0010
0002
0000
0003
0000
,
1000
0000
0001
0100
,
0010
0000
0100
0010
0200
0000
0300
0000
,
0000
0000
0001
1000
0002
0000
1003
0000
,
0000
0000
0100
1000
0200
0000
0310
0000
,
0010
0000
0000
1000
,
0002
0000
0000
0000
1003
0000
1000
0100
,
0020
0030
0020
0030
0000
0000
0010
0001
,
0100
0001
0100
0000
0001
1000
0001
0000
,
1000
0100
1000
0000
0100
0000
0100
0000
,
0020
0000
0000
0000
0130
0000
0100
0010
,
0002
0003
0002
0003
0000
0000
0010
0100
,
1000
0010
1000
0000
0001
1000
0001
1000
,
0001
0000
1000
0100
,
0010
0000
0010
0000
0010
0000
0001
0010
,
0200
0300
0200
0300
0010
0000
0100
1000
,
0100
1000
0001
0010
,
1001
0000
1001
0000
0001
0100
0001
0000
,
1000
0000
1000
0000
1000
0000
0010
1000
,
0020
0030
0020
0030
0100
0000
0001
0100
,
0001
1000
0010
0100
,
0110
0000
1000
0001
,
1000
0000
1000
0000
0000
0010
0000
0010
,
0000
1000
0000
0000
1000
0000
0001
0000
,
0010
0000
0001
0000
0000
0010
0000
0010
,
0000
0001
0000
0000
0001
0000
0100
0000
,
0010
0000
0100
0000
0000
0010
0000
0100
,
0000
0100
0000
0000
0010
0000
1000
0000
,
0100
0000
1000
0000
0000
1000
0000
0100
,
0000
0010
0000
0001
0000
0000
0000
0000
,
1000
0000
0000
1000
0000
0000
1000
0100
,
0020
0030
0020
0030
0001
0000
0001
0100
,
0010
1000
0001
0100
,
1010
0000
1010
0000
0000
0000
0001
1000
,
0001
0000
0000
0001
0000
0000
0010
0100
,
2000
3000
2000
3000
0001
0000
0010
0001
,
0010
0100
1000
0010
,
0101
0000
1000
0001
,
1000
1000
2000
3000
,
0010
0010
0020
0030
,
0000
0010
0010
0000
1000
0000
0001
0000
,
1001
0000
1000
0001
,
0100
0100
0200
0300
,
0010
0010
0020
0030
,
0000
1000
1000
0000
0100
0000
0010
0000
,
1001
0000
0000
0000
,
0010
0000
1000
0000
1000
0000
0001
0100
,
0002
0003
0002
0003
1000
0000
0100
0010
,
0001
0010
0100
0010
,
1100
0000
1000
0100
,
0010
0000
0001
0000
0001
0000
1000
0001
,
2000
3000
2000
3000
0010
0000
0100
0001
,
1000
0100
0010
0001
,
0101
0000
0010
1000
,
0001
0000
1000
0000
0000
0010
0000
1000
,
0000
0001
0000
0000
0001
0000
0100
0000
,
0001
0000
0010
0000
0000
0100
0000
1000
,
0000
0001
0000
0000
1000
0000
0010
0000
,
0100
0000
0010
0000
0000
0100
0000
0001
,
0000
1000
0000
0000
0100
0000
0010
0000
,
0001
0000
1000
0000
0000
0100
0000
0010
,
0000
0001
0000
0000
1000
0000
0001
0000
,
1000
0000
0000
0000
;

//---------------dance-single - ----------------
#NOTES:
     dance-single:
     :
     Beginner:
     2:
     0.162884,0.219951,0.048519,0.000000,0.000000,141.000000,135.000000,6.000000,0.000000,0.000000,0.000000,0.162884,0.219951,0.048519,0.000000,0.000000,141.000000,135.000000,6.000000,0.000000,0.000000,0.000000:
0000
0000
0000
0000
,
0000
0000
0000
0000
,
0000
0000
0000
0000
,
0000
0000
0000
0000
,
1000
0000
0010
0000
,
0000
0000
0100
0000
,
0000
0000
0100
0000
,
0001
0000
0000
0000
,
1000
0000
0001
0000
,
0000
0000
0001
0000
,
0000
0000
0010
0000
,
0100
0000
0000
0000
,
0010
0000
1000
0000
,
0001
0001
0000
0000
,
0010
0000
0100
0000
,
0010
0010
0010
0000
,
0100
0000
1000
0000
,
0010
0010
0000
0000
,
0100
0000
0001
0000
,
1001
0000
1000
0000
,
0001
0001
0001
0000
,
1000
1000
1000
0000
,
0010
0000
1000
0000
,
0100
0000
0010
0000
,
0001
0001
0001
0000
,
1000
1000
1000
0000
,
0010
0000
0100
0000
,
0110
0000
0010
0000
,
1000
0000
1000
0000
,
0100
0000
0100
0000
,
0010
0000
0010
0000
,
0001
0000
0001
0000
,
0010
0000
0010
0000
,
0100
0000
0100
0000
,
1000
0000
1000
0000
,
0001
0000
0000
0000
,
1000
0000
0000
1000
0000
0000
0000
0000
,
0100
0100
0000
0000
,
0010
0000
0100
0000
,
1000
0000
1000
0000
,
0001
0000
0000
0001
0000
0000
0000
0000
,
0010
0010
0000
0000
,
0001
0000
1000
0000
,
0100
0000
0010
0000
,
0100
0100
0100
0000
,
0010
0010
0010
0000
,
0001
0000
1000
0000
,
1001
0000
0100
0000
,
0010
0010
0010
0000
,
1000
1000
1000
0000
,
0100
0000
0010
0000
,
0001
0000
0000
0000
,
1000
0000
0010
0000
,
0100
0100
0000
0000
,
0010
0000
1000
0000
,
0001
0001
0001
0000
,
0100
0000
0010
0000
,
1000
1000
0000
0000
,
0100
0000
0010
0000
,
0001
0000
1001
0000
,
1001
0000
0100
0000
,
0010
0010
0010
0000
,
1000
0000
0100
0000
,
1000
1000
1000
0000
,
0001
0000
0100
0000
,
0010
0010
0010
0000
,
1000
0000
0100
0000
,
0010
0010
0010
0000
,
1001
0000
0000
0000
;
