#VERSION:0.83;
#TITLE:MISSING BEAUTY;
#SUBTITLE:;
#ARTIST:WORLD ORDER;
#TITLETRANSLIT:;
#SUBTITLETRANSLIT:;
#ARTISTTRANSLIT:;
#GENRE:;
#ORIGIN:;
#CREDIT:;
#BANNER:MISSING BEAUTY.png;
#BACKGROUND:MISSING BEAUTY-bg.png;
#PREVIEWVID:;
#JACKET:MISSING BEAUTY-jacket.png;
#CDIMAGE:;
#DISCIMAGE:;
#LYRICSPATH:;
#CDTITLE:;
#MUSIC:MISSING BEAUTY.ogg;
#OFFSET:1.792501;
#SAMPLESTART:77.841652;
#SAMPLELENGTH:15.354469;
#SELECTABLE:YES;
#BPMS:0.000=125.045;
#STOPS:;
#DELAYS:;
#WARPS:;
#TIMESIGNATURES:0.000=4=4;
#TICKCOUNTS:0.000=4;
#COMBOS:0.000=1;
#SPEEDS:0.000=1.000=0.000=0;
#SCROLLS:0.000=1.000;
#FAKES:;
#LABELS:0.000=Song Start;
#BGCHANGES:1.750=missing beauty.avi=1.000=0=0=0=StretchNoLoop====,
99999=-nosongbg-=1.000=0=0=0 // don't automatically add -songbackground-
;
#KEYSOUNDS:;
#ATTACKS:
;

//---------------dance-single - ----------------
#NOTEDATA:;
#CHARTNAME:;
#STEPSTYPE:dance-single;
#DESCRIPTION:;
#CHARTSTYLE:;
#DIFFICULTY:Hard;
#METER:12;
#RADARVALUES:0.501927,0.558885,0.111949,0.068892,0.413351,408.000000,395.000000,13.000000,8.000000,0.000000,0.000000,0.000000,0.000000,0.000000,0.501927,0.558885,0.111949,0.068892,0.413351,408.000000,395.000000,13.000000,8.000000,0.000000,0.000000,0.000000,0.000000,0.000000;
#CREDIT:Daniel Van Eden;
#NOTES:
0000
0000
0000
0000
,
0000
0000
0000
0000
,
0000
0000
0000
0000
,
0000
0000
0000
0000
,
0000
0000
0000
0000
,
0000
0000
0000
0000
,
0000
0000
0000
0000
,
0000
0000
0000
0000
,
0000
0000
0000
0000
,
0000
0000
0000
0000
,
0000
0010
0010
1000
0010
0000
0100
0010
,
0000
0010
1000
0001
0000
0010
0100
0010
,
0000
0001
1000
0001
0100
0010
0100
0001
,
1000
1000
0001
0001
0000
0100
0010
0100
,
0000
0001
0000
1000
0100
1000
0001
1000
,
0010
0100
0010
1000
0100
0010
0010
0001
,
0000
1000
1000
0001
1000
0010
1000
0100
,
0001
0100
1000
0001
0100
0010
1000
0010
,
0100
0000
0001
0100
0000
0001
0100
0000
0010
0100
0000
0010
0100
0000
0010
1000
,
0000
0010
1000
0000
0100
1000
0000
0100
1000
0000
0100
0010
0000
0100
0010
0000
,
0001
0000
1000
0001
0000
1000
0010
0000
1000
0010
0000
1000
0100
0000
1000
0000
,
0001
0000
0010
0001
0000
0010
0001
0000
0010
0100
0000
0010
0100
0000
1000
0000
,
0010
0000
1000
0001
0000
1000
0001
0000
0100
0001
0000
0100
0001
0000
0010
0100
,
0000
0010
0100
0000
1000
0100
0000
1000
0100
0000
0010
0001
0000
0010
0001
0000
,
1000
0000
0010
1000
0000
0010
1000
0000
0001
0100
0000
0001
0100
0000
0010
0000
,
1000
0000
0100
1000
0000
0100
1000
0000
0100
0010
0000
0100
0010
0000
0001
0000
,
1000
0001
1000
0100
1000
0100
0001
0100
,
1000
0010
1000
0001
0010
0001
0100
0010
,
1000
0001
0100
0001
0010
0100
1000
0100
,
0001
1000
0010
0001
0100
0010
1000
0002
,
0100
0010
0013
0100
0010
1000
0100
2000
,
0100
0010
3010
0100
0001
1000
0010
0100
,
0000
1001
1002
0000
0010
0000
1000
0000
,
0100
1000
0010
1003
,
0001
0010
0001
0100
0001
0010
1000
0010
,
0001
0100
0010
0100
0001
1000
0010
1000
,
0100
0010
0100
1000
0001
0010
0010
0001
,
0100
0010
1000
0010
0100
0001
0010
0002
,
0010
1000
1003
0100
1000
0010
0100
0002
,
1000
0100
0103
1000
0010
0100
0001
0020
,
0000
0001
0031
0000
0100
0000
1010
0000
,
0002
0000
0000
0000
,
1003
0000
0001
0000
0010
0001
0000
0000
0110
0000
0000
0100
1000
0000
0010
0000
,
1000
0001
0000
0000
1001
0000
0000
1000
0010
0000
0100
0000
0010
1000
0000
0000
,
1100
0000
0000
0100
0010
0000
0001
0000
0010
0100
0000
0000
1100
0000
0000
1000
,
0001
0000
0100
0000
0001
0010
0000
0000
0110
0000
0000
0010
0001
0000
1000
0000
,
0001
0000
1000
0000
0100
1000
0000
0000
0110
0000
0000
0010
0001
0000
0100
0000
,
0001
1000
0000
0000
1001
0000
0000
0001
0100
0000
0010
0000
0100
0001
0000
0000
,
0011
0000
0000
0010
0100
0000
1000
0000
0100
0010
0000
0000
0011
0000
0000
0001
,
1000
0000
0010
0000
1000
0100
0000
0000
0110
0000
0000
0100
1000
0000
0001
0000
,
1000
0000
0010
1000
0000
0010
1000
0000
0100
1000
0000
0100
1000
0000
0100
1000
,
0000
0100
0010
0000
0100
0010
0000
0001
0010
0000
0001
0010
0000
0001
0100
0000
,
0001
0000
1000
0001
0000
1000
0001
0000
1000
0010
0000
1000
0010
0000
0100
0010
,
0000
0100
0001
0000
0100
0001
0000
0010
0001
0000
0010
0001
0000
0010
0100
0000
,
1000
0000
0001
1000
0000
0001
1000
0000
0001
0100
0000
0001
0100
0000
0010
1000
,
0000
0010
1000
0000
0100
1000
0000
0001
0010
0000
0001
0010
0000
0001
0100
0000
,
0010
0000
0100
0010
0000
0100
0010
0000
1000
0010
0000
1000
0010
0000
1000
0001
,
0000
0100
0001
0000
0010
0100
0000
0010
0001
0000
0010
0100
0000
1000
0010
0000
,
2000
0000
0000
0000
,
3000
0000
0000
0000
;

//---------------dance-single - ----------------
#NOTEDATA:;
#CHARTNAME:;
#STEPSTYPE:dance-single;
#DESCRIPTION:;
#CHARTSTYLE:;
#DIFFICULTY:Medium;
#METER:9;
#RADARVALUES:0.338308,0.406462,0.043057,0.077503,0.172230,275.000000,270.000000,5.000000,9.000000,0.000000,0.000000,0.000000,0.000000,0.000000,0.338308,0.406462,0.043057,0.077503,0.172230,275.000000,270.000000,5.000000,9.000000,0.000000,0.000000,0.000000,0.000000,0.000000;
#CREDIT:Daniel Van Eden;
#NOTES:
0000
0000
0000
0000
,
0000
0000
0000
0000
,
0000
0000
0000
0000
,
0000
0000
0000
0000
,
0000
0000
0000
0000
,
0000
0000
0000
0000
,
0000
0000
0000
0000
,
0000
0000
0000
0000
,
0000
0000
0000
0000
,
0000
0000
0000
0000
,
0000
0001
1000
0001
1000
0000
1000
0010
,
0000
0010
0100
0010
0000
0010
1000
0010
,
0000
1000
0001
1000
0001
0100
0001
0100
,
0010
0100
0010
1000
0000
1000
0100
0010
,
0000
0001
0000
0001
1000
0100
1000
0010
,
1000
0001
0100
0001
0100
0010
0100
0010
,
0000
1000
0001
1000
0100
1000
0100
0010
,
0001
0010
0100
0010
0100
0010
0001
1000
,
0000
0002
0000
1003
0010
1000
0010
1000
,
0100
1000
0001
1000
0001
0010
0001
0010
,
0000
0100
0010
0100
1000
0001
1000
0000
,
0001
0000
0100
0010
0100
0010
1000
0010
,
0000
0100
0001
0100
0001
1000
0001
1000
,
0010
1000
0010
1000
0001
0100
0001
0100
,
0000
0001
1000
0001
0010
0001
0100
0001
,
1000
0010
1000
0100
1000
0001
0100
0000
,
0010
0000
1001
0000
1000
0001
0100
0000
,
0010
0000
1100
0000
1000
0100
0010
0000
,
0010
0000
0011
0000
0100
0001
1000
0000
,
0010
0000
1100
0000
1000
0001
0000
0020
,
0000
0100
0130
0000
0100
0010
0000
0002
,
0000
0100
0103
0000
0010
1000
0000
0200
,
0000
1000
1300
0000
0010
0000
1000
0000
,
0001
0000
0100
0000
0010
0100
0010
0100
,
0010
0000
1000
0000
0001
0010
0001
0000
,
0100
0000
0010
0000
1000
0001
1000
0000
,
0100
0000
1000
0000
0010
0100
0010
0000
,
0100
0000
0001
0000
0010
0001
0000
0200
,
0000
0010
0310
0000
0010
1000
0000
0020
,
0000
1000
1030
0000
1000
0001
0000
0101
,
0000
0002
2000
0000
0000
0000
0000
0000
,
3003
0000
0000
0000
,
0000
0000
0010
0000
0000
0001
0000
0000
0010
0000
0000
0100
0000
0000
1000
0000
,
0000
0100
0000
0000
0001
0000
0000
0100
0000
0000
1000
0000
0000
0001
0000
0000
,
0100
0000
0000
0010
0000
0000
1000
0000
0000
0001
0000
0000
0010
0000
0000
0100
,
0000
0000
0001
0000
0000
0100
0000
0000
1000
0000
0000
0010
0000
0000
1000
0000
,
0000
0000
0100
0000
0000
1000
0000
0000
0100
0000
0000
0010
0000
0000
0001
0000
,
0000
0010
0000
0000
1000
0000
0000
0010
0000
0000
0001
0000
0000
1000
0000
0000
,
0010
0000
0000
0100
0000
0000
0001
0000
0000
1000
0000
0000
0100
0000
0000
0010
,
0000
0000
1000
0000
0000
0010
0000
0000
0001
0000
0000
0100
0000
0000
0010
0000
,
1000
0000
0000
0001
0000
0000
1000
0000
0000
0001
0000
0000
0010
0000
0000
0100
,
0000
0000
0010
0000
0000
0100
0000
0000
1000
0000
0000
0010
0000
0000
1000
0000
,
0001
0000
0000
0100
0000
0000
0001
0000
0000
0100
0000
0000
0010
0000
0000
1000
,
0000
0000
0100
0000
0000
0010
0000
0000
0001
0000
0000
0010
0000
0000
0100
0000
,
1000
0000
0000
0001
0000
0000
1000
0000
0000
0001
0000
0000
0010
0000
0000
0001
,
0000
0000
0010
0000
0000
0100
0000
0000
1000
0000
0000
0100
0000
0000
1000
0000
,
0010
0000
0000
1000
0000
0000
0010
0000
0000
1000
0000
0000
0100
0000
0000
1000
,
0000
0000
0100
0000
0000
0010
0000
0000
0001
0000
0000
0010
0000
0000
0100
0000
,
2000
0000
0000
0000
,
3000
0000
0000
0000
;

//---------------dance-single - ----------------
#NOTEDATA:;
#CHARTNAME:;
#STEPSTYPE:dance-single;
#DESCRIPTION:;
#CHARTSTYLE:;
#DIFFICULTY:Easy;
#METER:5;
#RADARVALUES:0.211596,0.304847,0.051669,0.008611,0.000000,172.000000,166.000000,6.000000,1.000000,0.000000,0.000000,0.000000,0.000000,0.000000,0.211596,0.304847,0.051669,0.008611,0.000000,172.000000,166.000000,6.000000,1.000000,0.000000,0.000000,0.000000,0.000000,0.000000;
#CREDIT:Daniel Van Eden;
#NOTES:
0000
0000
0000
0000
,
0000
0000
0000
0000
,
0000
0000
0000
0000
,
0000
0000
0000
0000
,
0000
0000
0000
0000
,
0000
0000
0000
0000
,
0000
0000
0000
0000
,
0000
0000
0000
0000
,
0000
0000
0000
0000
,
0000
0000
0000
0000
,
0000
1000
0001
1000
,
0000
0010
0010
0010
,
0000
0100
0001
0100
,
0010
0010
1000
1000
,
0000
0001
1000
0001
,
0000
0100
0100
0100
,
0000
0010
0100
0010
,
1000
1000
0001
0001
,
0010
0100
0010
0100
,
1000
0010
1000
0010
,
0100
0001
0100
0001
,
0010
0001
0010
0001
,
0010
0100
0010
0100
,
1000
0001
1000
0001
,
0100
0001
0100
0001
,
1000
0010
1000
0000
,
1001
0000
0001
0010
,
0100
0000
1000
0100
,
1000
0010
0100
0001
,
1000
0000
0100
0000
,
0010
0010
1000
0000
,
1000
1000
0001
0000
,
0001
0001
0010
0000
,
0100
0000
0010
0000
,
1001
0000
0010
0100
,
1000
0000
0010
1000
,
0001
0100
0010
0100
,
0001
0000
1000
0000
,
0100
0100
0010
0000
,
0010
0010
0001
0000
,
0100
0000
0001
0000
,
0110
0000
0000
0000
,
0100
0010
0001
0010
,
0100
0010
0100
1000
,
0100
1000
0001
1000
,
0001
0010
0001
1000
,
0100
0010
0001
0100
,
0010
0100
0001
1000
,
0010
1000
0100
0010
,
0100
1000
0001
1000
,
0010
0100
0001
0010
,
0100
0010
0001
1000
,
0001
0100
1000
0100
,
0001
0010
1000
0010
,
1000
0010
1000
1010
,
0001
0010
0001
0011
,
0010
0001
1000
1100
,
0010
1000
0010
0010
,
0020
0000
0000
0000
,
0030
0000
0000
0000
;

//---------------dance-single - ----------------
#NOTEDATA:;
#CHARTNAME:;
#STEPSTYPE:dance-single;
#DESCRIPTION:;
#CHARTSTYLE:;
#DIFFICULTY:Beginner;
#METER:1;
#RADARVALUES:0.119331,0.149840,0.017223,0.000000,0.000000,97.000000,95.000000,2.000000,0.000000,0.000000,0.000000,0.000000,0.000000,0.000000,0.119331,0.149840,0.017223,0.000000,0.000000,97.000000,95.000000,2.000000,0.000000,0.000000,0.000000,0.000000,0.000000,0.000000;
#CREDIT:Daniel Van Eden;
#NOTES:
// measure 0
0000
0000
0000
0000
,  // measure 1
0000
0000
0000
0000
,  // measure 2
0000
0000
0000
0000
,  // measure 3
0000
0000
0000
0000
,  // measure 4
0000
0000
0000
0000
,  // measure 5
0000
0000
0000
0000
,  // measure 6
0000
0000
0000
0000
,  // measure 7
0000
0000
0000
0000
,  // measure 8
0000
0000
0000
0000
,  // measure 9
0000
0000
0000
0000
,  // measure 10
0010
0000
0000
0000
,  // measure 11
1000
0000
0000
0000
,  // measure 12
0001
0000
0000
0000
,  // measure 13
1000
0000
0000
0000
,  // measure 14
0100
0000
0000
0000
,  // measure 15
0010
0000
0000
0000
,  // measure 16
0001
0000
0000
0000
,  // measure 17
1000
0000
0000
0000
,  // measure 18
0010
0010
0010
0000
,  // measure 19
0001
0000
1000
0000
,  // measure 20
0100
0100
0100
0000
,  // measure 21
1000
0000
0010
0000
,  // measure 22
1000
1000
1000
0000
,  // measure 23
0001
0000
0100
0000
,  // measure 24
0010
0010
0010
0000
,  // measure 25
1000
0000
0001
0000
,  // measure 26
1000
0000
1000
0000
,  // measure 27
0001
0000
0001
0000
,  // measure 28
0010
0000
0100
0000
,  // measure 29
0010
0000
0010
0000
,  // measure 30
0001
0000
1000
0000
,  // measure 31
0010
0000
1000
0000
,  // measure 32
0100
0000
1000
0000
,  // measure 33
0001
0000
1001
0000
,  // measure 34
0100
0000
0100
0000
,  // measure 35
0010
0000
0010
0000
,  // measure 36
1000
0000
0001
0000
,  // measure 37
1000
0000
0100
0000
,  // measure 38
0010
0000
0001
0000
,  // measure 39
1000
0000
0100
0000
,  // measure 40
1000
0000
0010
0000
,  // measure 41
0000
0000
0000
0000
,  // measure 42
1001
0000
1000
0000
,  // measure 43
0010
0000
0100
0000
,  // measure 44
0010
0000
0100
0000
,  // measure 45
0001
0000
1000
0000
,  // measure 46
0010
0000
1000
0000
,  // measure 47
0100
0000
0010
0000
,  // measure 48
0001
0000
1000
0000
,  // measure 49
0001
0000
0100
0000
,  // measure 50
0010
0000
1000
1000
,  // measure 51
1000
0000
0100
0000
,  // measure 52
0010
0000
0001
0001
,  // measure 53
0001
0000
1000
0000
,  // measure 54
0010
0000
1000
1000
,  // measure 55
1000
0000
0001
0000
,  // measure 56
0010
0000
0100
0100
,  // measure 57
0100
0000
0010
0000
,  // measure 58
0001
0000
0000
0000
;
