#VERSION:0.83;
#TITLE:MAGIC MAGIC;
#SUBTITLE:;
#ARTIST:yuigot;
#TITLETRANSLIT:;
#SUBTITLETRANSLIT:;
#ARTISTTRANSLIT:;
#GENRE:;
#ORIGIN:;
#CREDIT:;
#BANNER:MAGIC MAGIC.png;
#BACKGROUND:MAGIC MAGIC-bg.png;
#PREVIEWVID:;
#JACKET:MAGIC MAGIC-jacket.png;
#CDIMAGE:;
#DISCIMAGE:;
#LYRICSPATH:;
#CDTITLE:;
#MUSIC:MAGIC MAGIC.ogg;
#OFFSET:0.882054;
#SAMPLESTART:8.096822;
#SAMPLELENGTH:14.328359;
#SELECTABLE:YES;
#BPMS:0.000=134.000,
180.000=67.000,
196.000=134.000;
#STOPS:52.875=0.224,
66.375=0.224,
75.875=0.224,
114.500=0.896,
120.500=0.224;
#DELAYS:;
#WARPS:;
#TIMESIGNATURES:0.000=4=4;
#TICKCOUNTS:0.000=4;
#COMBOS:0.000=1;
#SPEEDS:0.000=1.000=0.000=0;
#SCROLLS:0.000=1.000;
#FAKES:;
#LABELS:0.000=Song Start;
#BGCHANGES:;
#KEYSOUNDS:;
#ATTACKS:
;

//---------------dance-single - ----------------
#NOTEDATA:;
#CHARTNAME:;
#STEPSTYPE:dance-single;
#DESCRIPTION:;
#CHARTSTYLE:;
#DIFFICULTY:Challenge;
#METER:18;
#RADARVALUES:0.988788,1.379249,0.759584,0.286782,1.484289,893.000000,795.000000,98.000000,37.000000,0.000000,0.000000,0.000000,0.000000,0.000000,0.988788,1.379249,0.759584,0.286782,1.484289,893.000000,795.000000,98.000000,37.000000,0.000000,0.000000,0.000000,0.000000,0.000000;
#CREDIT:Daniel Van Eden;
#NOTES:
0000
0000
0000
0000
,
0000
0000
0000
0000
,
0000
0000
0000
0000
,
0000
0000
0000
0000
,
0000
0000
0000
0000
0000
0000
0000
0000
0000
0000
0000
0000
0000
0000
0001
0100
0010
0000
0000
0000
0010
0000
1000
0000
0000
0000
0001
0000
0010
0000
0000
0000
,
1001
0000
0000
0001
0100
0010
1000
0000
1010
0000
0000
1001
0000
0000
0100
0001
,
0000
0000
0000
0100
0000
0000
0010
0000
1000
0000
0001
0000
0100
0000
0000
0010
0000
0000
1000
0000
0000
0100
0000
0000
0010
0000
0000
0000
0000
0000
0001
0000
1000
0000
0100
0000
0010
0000
0000
0001
0000
0000
0100
0000
0000
0010
0000
0000
,
0100
0000
0000
0000
0000
0000
0001
0000
0000
0001
0000
0000
1000
0000
0000
0100
0000
0000
0001
0000
0000
0100
0000
0000
0010
0000
0000
0000
0000
0000
0001
0000
1000
0000
0010
0000
0100
0000
0000
0001
0000
0000
0100
0000
0000
0010
0000
0000
,
1000
0000
0001
0000
1000
0000
0001
0000
0000
1000
0000
0000
0100
0000
0000
0010
0000
0000
1000
0000
0000
0001
0000
0000
0100
0000
0000
1000
0000
0000
0010
0000
1000
0000
0100
0000
0010
0000
0000
0001
0000
0000
0100
0000
0000
0010
0000
0000
,
1000
0000
0000
0100
0001
1000
0010
0000
0011
0000
0000
0101
0000
0000
0010
1000
,
0000
0000
0000
0100
0000
0000
0010
0000
0001
0000
1000
0000
0100
0000
0000
1000
0000
0000
0010
0000
0000
0100
0000
0000
0001
0000
0000
0000
0000
0000
0100
0000
0001
0000
0010
0000
0100
0000
0000
0010
0000
0000
0001
0000
0000
1000
0000
0000
,
0100
0000
0000
0000
0000
0000
0100
0000
0000
1000
0000
0000
0000
0000
0000
0010
0000
0000
1000
0000
0000
0100
0000
0000
0001
0000
0000
0000
0000
0000
0100
0000
1000
0000
0010
0000
0100
0000
0000
0001
0000
0000
1000
0000
0000
0010
0000
0000
,
1000
0000
0100
0000
1000
0000
0100
0000
0000
0010
0000
0000
0001
0000
0000
0100
0000
0000
0001
0000
0000
0010
0000
0000
0100
0000
0000
1000
0000
0000
0010
0000
0100
0000
0001
0000
1000
0000
0000
0001
0000
0000
1000
0000
0000
0010
0000
0000
,
0100
0000
0000
0000
0000
0000
0000
0000
0000
0000
0000
0000
0000
0000
0000
0000
0000
0000
0000
0000
0000
0000
0000
0000
0020
0000
0000
0000
0000
0000
0000
0000
0000
0000
0000
0000
0000
0000
0000
0000
0000
0000
0000
0030
0000
0000
0000
0000
0000
0000
0000
0000
0000
0000
0000
0000
0000
0000
0000
0000
0000
0000
0000
0000
0000
0000
0000
0000
0000
0000
0000
0000
1100
0000
0000
0000
0000
0000
0000
0000
0000
0000
0000
0000
0000
0000
0000
0000
0000
0000
0000
0000
0000
0000
0000
0000
0000
0000
0000
0000
0000
0000
0000
0000
0000
0000
0000
0000
1001
0000
0000
0000
0000
0000
0000
0000
0000
0000
0000
0000
0000
0000
0000
0000
0000
0000
0000
0000
0000
0000
0000
0000
0000
0000
0000
0000
0000
0000
0000
0000
0000
0000
0000
0000
0011
0000
0000
0000
0000
0000
0000
0000
0000
0000
0000
0000
0000
0000
0000
0000
0000
0000
0000
0000
0000
0000
0000
0000
0110
0000
0000
0000
0000
0000
0000
0000
0000
0000
0000
0000
0000
0000
0000
0000
0000
0000
0000
0000
0000
0000
0000
0000
,
1000
0100
1000
0000
0010
1000
0010
0000
1000
0001
1000
0100
0010
0001
1000
0000
,
0000
0000
1010
0000
0100
0000
0010
0000
0100
0001
1000
0000
0010
0000
1000
0000
,
0100
0000
0000
0000
0000
0000
0000
0000
0000
0000
0000
0000
0010
0000
0000
0000
0000
0000
0000
0000
0000
0000
0000
0000
0001
0000
0000
0000
0000
0000
0000
0000
0000
0000
0000
0000
0010
0000
0000
0000
0000
0000
0000
0000
0000
0000
0000
0000
1000
0000
0000
0000
0000
0000
0000
0000
0000
0000
0000
0000
0001
0000
0000
0000
0000
0000
0000
0000
0000
0000
0000
0000
0100
0000
0000
0000
0000
0000
0000
0000
0000
0000
0000
0000
1000
0000
0000
0000
0000
0000
0000
0000
0000
0000
0000
0000
0000
0000
0000
0000
0000
0000
0000
0000
0000
0000
0000
0000
0020
0000
0000
0000
0000
0000
0000
0030
0000
0000
0000
0000
0000
0000
0000
0000
0000
0000
0000
0000
0000
0000
0000
0000
0000
0000
0000
0000
0000
0000
0000
0000
0000
0000
0000
0000
1001
0000
0000
0000
0000
0000
0000
0000
0000
0000
0000
0000
0000
0000
0000
0000
0000
0000
0000
0000
0000
0000
0000
0000
0010
0000
0000
0000
0000
0000
0000
0000
0000
0000
0000
0000
0001
0000
0000
0000
0000
0000
0000
0000
0000
0000
0000
0000
,
0010
0100
0010
0001
0200
0000
0310
1000
0001
1000
0100
0010
0002
0000
0013
0100
,
1000
0100
0010
0002
0000
1003
0010
1000
0100
0000
1010
0000
0101
0000
0100
0020
,
0030
0000
1100
0000
0010
1000
0010
0100
0001
0000
2000
0000
3002
0000
1003
0100
,
0010
0002
0000
0013
0100
1000
0020
1000
0030
0000
1100
0000
0100
1000
0100
1000
,
0010
0100
1000
0000
0100
0010
0100
0001
0010
0100
0001
0000
0100
0010
0001
1000
,
0010
1000
0001
0000
1010
0000
1100
0000
0110
0000
1001
0000
0010
1000
0100
0000
,
1000
0000
0000
0000
0000
0000
0011
0000
0000
0000
0000
0000
0010
0000
0000
0001
0000
0000
1000
0000
0000
0000
0000
0000
0001
0000
0000
0000
0000
0000
1000
0000
0010
0000
1000
0000
0100
0000
0010
0000
0100
0000
0010
0000
0001
0000
0010
0000
,
0001
0000
0100
0000
0010
0000
1000
0000
0010
0000
0100
0000
0001
0000
0010
0000
0100
0000
1000
0000
0100
0000
0010
0000
0001
0000
1000
0000
0001
0000
0010
0000
0000
0000
0000
0000
0100
0000
0000
0010
0000
0000
0001
0000
0000
0000
0000
0000
,
1000
0000
1010
0000
0000
1100
0000
0000
0101
0000
0010
0001
0000
0001
0100
0010
,
0100
2000
0000
3100
0010
0100
1000
0100
0001
0010
0100
0000
1000
0100
1000
0000
,
0010
0000
1001
0000
0100
1000
0100
0000
0010
0000
0101
0000
0110
0000
1000
1000
,
0010
1000
0001
1000
0100
0100
0010
0000
0110
0000
1001
0000
1001
0000
0010
1000
,
0100
0000
0020
0031
2000
3000
0100
1000
0100
0010
0101
0000
0000
0000
0110
0000
,
0010
0000
1010
0000
2000
0000
3000
0000
1010
0000
0000
0110
0000
0000
1100
0000
,
0102
0023
2030
3200
,
0310
0000
0100
0000
0010
0100
0010
0001
0000
2000
0000
0000
3010
0000
1000
0000
,
0100
0000
0000
0000
0000
0000
1000
0000
0000
0000
0000
0000
0001
0000
0000
1000
0000
0000
0100
0000
0000
0010
0000
0000
0001
0000
1000
0000
0100
0000
1000
0000
0001
0000
0010
0000
0200
0000
0000
0000
0000
0000
0010
0000
0000
0000
0000
0000
,
1300
0000
0100
0000
1000
0001
0100
0001
0000
0010
1100
0000
1001
0000
0110
0000
,
0101
0000
1000
0001
0010
0001
0100
0010
2000
0000
0000
3200
0000
0000
0310
0000
,
0011
0000
0000
0000
0000
0000
0001
0000
0000
1000
0000
0000
0001
0000
0000
0100
0000
0000
0010
0000
0100
0000
0010
0000
1000
0000
0000
0000
0000
0000
0110
0000
0000
0000
0000
0000
1000
0000
0000
0001
0000
0000
1000
0000
0000
0000
0000
0000
,
0101
0000
0000
0000
0000
0000
2000
0000
0000
0000
0000
0000
3100
0000
0000
0010
0000
0000
0100
0000
1000
0000
0001
0000
0020
0000
0000
0000
0000
0000
0130
0000
0000
0000
0000
0000
0001
0000
0000
1000
0000
0000
0010
0000
1000
0000
0010
0000
,
1000
0000
0010
0000
0101
0100
0010
1000
0100
0000
0000
0011
0000
0000
1001
0000
,
0010
0000
0000
0020
1000
0000
0130
0001
0100
0020
0000
0000
1030
0100
1000
0001
,
0110
0000
0100
0000
0010
0001
0010
0100
0000
2000
0000
0000
3010
0000
1010
0000
,
1100
0000
0000
0000
0000
0000
0100
0000
0000
0000
0000
0000
1000
0000
0000
0100
0000
0000
0010
0000
0000
0001
0000
0000
0100
0000
0001
0000
0100
0000
0010
0000
1000
0000
0001
0000
0100
0000
0000
0000
0000
0000
0001
0000
0000
0000
0000
0000
,
1001
0000
1000
0000
0010
1000
0100
0010
0000
0010
0001
0000
0101
0000
0110
0000
,
1001
0000
0000
0000
0000
0000
0010
0000
0000
1000
0000
0000
0100
0000
1000
0000
0001
0000
0010
0000
0001
0000
1000
0000
0200
0000
0000
0000
0000
0000
0000
0000
0000
0320
0000
0000
0000
0000
0000
0000
0000
0000
0031
0000
0000
0000
0000
0000
,
2000
0000
0000
0000
0000
0000
3000
0000
0000
0010
0000
0000
1000
0000
0000
0001
0000
0000
0000
0000
0000
0100
0000
0000
0010
0000
1000
0000
0010
0000
1000
0000
0100
0000
1000
0000
0100
0000
0000
0010
0000
0000
0100
0000
0000
1000
0000
0000
,
0001
0000
0000
0100
0010
0100
0001
0000
1000
0000
0000
0010
0000
0000
1000
0100
0000
1000
0001
0010
0001
0100
0010
1000
0100
0000
1000
0100
0010
1000
0010
0001
,
0100
0000
0002
0000
0003
1000
0010
0100
0001
0000
0010
0001
0010
0100
1000
0001
0010
0000
0010
0100
0010
0001
0010
0001
0100
0001
0100
0010
1000
0010
1000
0100
,
1000
0000
0010
1000
0010
0000
1100
0000
1001
0000
0001
0000
0001
0000
0110
0000
1100
0000
0010
0000
1010
0000
0001
0000
1010
0000
0101
0000
0001
0100
0001
0000
,
0120
0000
0000
0000
0000
0000
0000
0000
0000
0000
0000
0000
1030
0000
0000
0000
0000
0000
0000
0000
0000
0000
0000
0000
0100
0000
0000
0000
0000
0000
0010
0000
0000
0000
0000
0000
1000
0000
0000
0000
0000
0000
0100
0000
0000
0000
0000
0000
0010
0000
0000
0000
0000
0000
0000
0000
0000
0000
0000
0000
0100
0000
0000
0000
0000
0000
0001
0000
0000
0000
0000
0000
0100
0000
0000
0000
0000
0000
1000
0000
0000
0000
0000
0000
0001
0000
0000
0000
0000
0000
1000
0000
0000
0000
0000
0000
0010
0000
0000
0000
0000
0000
0000
0000
0000
0000
0000
0000
0100
0000
0000
0000
0000
0000
0000
0000
0000
0000
0000
0000
0101
0000
0000
0000
0000
0000
0000
0000
0000
0000
0000
0000
0001
0000
0000
0000
0000
0000
0000
0000
0000
0000
0000
0000
0010
0000
0000
0000
0000
0000
0000
0000
0100
0000
0000
0000
0000
0000
0000
0000
1000
0000
0000
0000
0000
0000
0000
0000
1001
0000
0000
0000
0000
0000
0000
0000
0000
0000
0000
0000
0000
0000
0000
0000
0000
0000
0000
0000
0000
0000
0000
0000
,
1010
0000
0000
1000
0010
1000
1100
0000
1001
0000
0000
0011
0000
0000
0110
0001
,
0000
0000
0000
1010
0000
0000
0001
0000
0100
0000
0010
0000
1000
0000
0000
0001
0000
0000
0100
0000
0000
0010
0000
0000
1010
0000
0000
0000
0000
0000
1000
0000
0100
0000
0010
0000
0001
0000
0000
0100
0000
0000
0001
0000
0000
0010
0000
0000
,
0110
0000
0000
0000
0000
0000
0100
0000
0000
1000
0000
0000
0010
0000
0000
1000
0000
0000
0100
0000
0000
0010
0000
0000
0101
0000
0000
0000
0000
0000
0010
0000
1000
0000
0010
0000
0100
0000
0000
0001
0000
0000
0010
0000
0000
0100
0000
0000
,
0010
0000
0001
0000
0010
0000
0001
0000
0000
1000
0000
0000
0010
0000
0000
0001
0000
0000
0010
0000
0000
1000
0000
0000
0100
0000
0000
0010
0000
0000
0001
0000
0010
0000
0100
0000
1000
0000
0000
0010
0000
0000
0100
0000
0000
0001
0000
0000
,
1001
0000
0000
0100
0010
0100
0101
0000
0011
0000
0000
0110
0000
0000
1001
0010
,
0000
0000
0000
1100
0000
0000
0010
0000
0001
0000
1000
0000
0100
0000
0000
0001
0000
0000
0100
0000
0000
1000
0000
0000
1010
0000
0000
0000
0000
0000
0001
0000
0100
0000
1000
0000
0100
0000
0000
0010
0000
0000
1000
0000
0000
0001
0000
0000
,
0101
0000
0000
0000
0000
0000
0010
0000
0000
0100
0000
0000
0010
0000
0000
1000
0000
0000
0001
0000
0000
0100
0000
0000
0110
0000
0000
0000
0000
0000
0001
0000
1000
0000
0100
0000
0010
0000
0000
0100
0000
0000
1000
0000
0000
0001
0000
0000
,
1000
0000
0010
0000
1000
0000
0010
0000
0000
0100
0000
0000
0010
0000
0000
1000
0000
0000
0100
0000
0000
0010
0000
0000
0001
0000
0000
1000
0000
0000
0010
0000
0100
0000
0001
0000
2000
0000
0000
0000
0000
0000
3010
0000
0000
0100
0000
0000
,
0110
0000
0000
0000
0000
0000
0000
0000
0000
0100
0000
0000
0101
0000
0000
0000
0011
0000
0000
0000
1010
0000
0000
0000
1001
0000
0000
0000
0000
0000
0000
0000
0000
1100
0000
0000
0000
0000
0000
0000
0000
0000
0011
0000
0000
0100
0000
0000
,
0000
0000
0000
1100
0000
0000
0010
0000
0001
0000
1000
0000
0100
0000
0000
1000
0000
0000
0010
0000
0000
0100
0000
0000
0001
0000
0000
0000
0000
0000
0100
0000
0010
0000
1000
0000
0001
0000
0000
1000
0000
0000
0100
0000
0000
0010
0000
0000
,
0001
0000
0000
0000
0000
0000
1000
0000
0000
0010
0000
0000
1000
0000
0000
0001
0000
0000
0010
0000
0000
0001
0000
0000
1001
0000
0000
0000
0000
0000
0010
0000
0001
0000
1000
0000
0100
0000
0000
0010
0000
0000
0100
0000
0000
0000
0000
0000
,
0010
0000
0000
0000
0000
0000
0000
0000
0000
0000
0000
0000
0000
0000
0000
0000
0001
0000
0000
0000
0000
0000
0000
0000
0000
0000
0000
0000
0000
0000
0000
0000
0100
0000
0000
0000
0000
0000
0000
0000
0000
0000
0000
0000
0000
0000
0000
0000
0010
0000
0000
0000
0000
0000
0000
0000
0000
0000
0000
0000
1000
0000
0000
0000
0000
0000
0000
0000
0000
0000
0000
0000
0001
0000
0000
0000
0000
0000
0000
0000
0000
0000
0000
0000
0100
0000
0000
0000
0000
0000
0010
0000
0000
0000
0000
0000
2000
0000
0000
0000
0000
0000
0000
0000
0000
0000
0000
0000
0000
0000
0000
0000
0000
0000
0000
0000
0000
0000
0000
0000
3000
0000
0000
0000
0000
0000
0000
0000
0000
0000
0000
0000
0202
0000
0000
0000
0000
0000
0000
0000
0000
0000
0000
0000
0303
0000
0000
0000
0000
0000
0000
0000
0000
0000
0000
0000
0010
0000
0000
0000
0000
0000
1000
0000
0000
0000
0000
0000
0001
0000
0000
0000
0000
0000
0000
0000
0000
0000
0000
0000
0100
0000
0000
0000
0000
0000
0000
0000
0000
0000
0000
0000
,
0101
0000
0000
1000
0001
0010
0110
0000
1100
0000
0000
1010
1000
0001
0011
0100
,
0000
0000
0000
0101
0000
0000
1000
0000
0010
0000
0100
0000
0001
0000
0000
0010
0000
0000
0100
0000
0000
0010
0000
0000
0011
0000
0000
0000
0000
0000
0100
0000
1000
0000
0001
0000
0010
0000
0000
0100
0000
0000
1000
0000
0000
0100
0000
0000
,
0020
0000
0000
0000
0000
0000
0031
0000
0000
0001
0000
0000
1000
0000
0000
0010
0000
0000
0001
0000
0000
0010
0000
0000
1000
0000
0000
0001
0000
0000
0100
0000
0010
0000
1000
0000
0001
0000
0000
0010
0000
0000
0100
0000
0000
1000
0000
0000
,
0010
0000
0100
0000
0010
0000
0100
0000
0000
0001
0000
0000
0010
0000
0000
0001
0000
0000
0100
0000
0000
0010
0000
0000
1000
0000
0000
0100
0000
0000
0010
0000
0001
0000
0100
0000
0000
0000
0000
0000
0000
0000
0000
0000
0000
0000
0000
0000
;

//---------------dance-single - ----------------
#NOTEDATA:;
#CHARTNAME:;
#STEPSTYPE:dance-single;
#DESCRIPTION:;
#CHARTSTYLE:;
#DIFFICULTY:Hard;
#METER:16;
#RADARVALUES:0.828234,0.977698,0.589065,0.131765,1.057992,748.000000,672.000000,76.000000,17.000000,0.000000,0.000000,0.000000,0.000000,0.000000,0.828234,0.977698,0.589065,0.131765,1.057992,748.000000,672.000000,76.000000,17.000000,0.000000,0.000000,0.000000,0.000000,0.000000;
#CREDIT:Daniel Van Eden;
#NOTES:
0000
0000
0000
0000
,
0000
0000
0000
0000
,
0000
0000
0000
0000
,
0000
0000
0000
0000
,
0000
0000
0000
0000
0000
0000
0000
0000
1000
0000
0001
1000
0000
0010
0100
0000
,
0101
0000
0000
1000
0010
0100
0001
0000
0011
0000
0000
0110
0000
0100
0010
0001
,
0000
1000
0001
0010
0100
1000
0010
1000
0001
0000
0100
0001
0010
0100
1000
0100
,
0010
0000
0010
0001
0000
1000
0001
0100
0010
0000
0100
0001
0010
0100
0010
0001
,
1000
0100
1000
0001
0100
0010
0100
0001
1000
0010
0100
0001
1000
0100
0010
0001
,
0010
0000
0000
0100
1000
0001
0010
0000
0101
0000
0000
1010
0000
1000
0001
0010
,
0000
0100
0001
0100
1000
0010
0100
0001
1000
0000
1000
0001
0010
0001
1000
0010
,
1000
0000
0001
0100
0000
0100
0010
0100
0001
0000
1000
0010
1000
0100
0010
0001
,
0010
1000
0010
1000
0010
0001
0100
0010
1000
0100
1000
0001
1000
0001
0010
0100
,
1000
0000
1001
0000
0000
0000
1010
0000
0000
0110
0000
0000
1001
0000
0011
0000
,
0100
0001
0100
0000
0010
0000
0100
0000
0001
0000
1000
0010
1000
0000
1001
0000
,
0000
0000
1100
0000
1000
0000
1001
0000
0001
0010
0001
0000
0100
0000
0010
0000
,
1000
0100
1000
0010
1000
0001
0100
0001
0010
0001
0000
0000
0001
0000
0100
0001
,
0100
0000
0010
0000
1000
0000
0100
1000
0100
0000
0010
0000
0001
0000
0010
0001
,
0010
0000
0100
1000
0000
0001
0010
0100
1000
0000
0010
0000
0100
0000
0010
1000
,
0000
1100
0001
0010
1000
0010
1001
0101
,
0110
0000
0010
1000
0010
1000
0100
0010
0000
0000
0011
0000
0001
1000
0001
0000
,
0100
0000
0010
0000
0100
0000
0001
0000
0100
0000
1010
0000
1000
0001
1000
0000
,
0100
0000
0010
0000
0100
0000
1000
0000
0001
0000
0101
0000
0010
1000
0001
0000
,
0100
0001
0010
0000
0100
1000
0001
0000
0010
0000
0100
1000
0100
1000
0001
0010
,
0001
0010
0100
0010
0001
1000
0100
0001
0100
1000
0010
0000
1000
0010
1000
0000
,
0001
0000
0100
0000
0001
0000
1000
0000
0100
0000
0010
0000
0001
0010
0001
0000
,
0001
0100
0000
0100
0010
1000
0001
0010
0001
1000
0100
0000
0010
0100
0010
0001
,
0010
0000
1001
0000
1000
0000
0010
0000
1000
0000
0001
0000
0100
0000
0001
0010
,
0100
1000
0000
0100
0010
0001
1000
0000
0000
0000
1001
0000
1001
0000
0000
1100
,
0000
0000
0012
0000
0003
0000
0200
0000
0000
0300
1010
0000
0000
0000
1100
0000
,
0010
0000
0022
0000
0033
0000
0000
0000
0101
0000
0000
0110
0000
0000
1010
0000
,
2001
3200
0320
0032
,
0103
0000
0010
0000
0100
0010
0100
0001
0000
0020
0000
0000
0130
0000
1100
0000
,
1001
0000
0010
0000
1000
0010
1000
0100
0010
0100
0010
0001
0100
0000
0010
0000
,
1010
0000
1000
0000
0001
1000
0001
0100
0000
0100
0010
0000
1010
0000
1001
0000
,
1100
0000
0010
0000
0100
0001
1000
0010
0200
0000
0000
0302
0000
0000
0013
0000
,
0001
0010
0001
0100
0010
0100
0001
1000
0010
0000
1100
0000
1001
0000
0101
0000
,
0001
1000
0010
1000
0001
0010
0100
0000
2001
0000
3010
0000
0110
0000
1001
0000
,
0100
1000
0001
1000
0010
0100
0001
0010
0100
0000
0000
1100
0000
0000
0011
0000
,
1001
0000
0001
0100
0000
0100
0010
0000
1000
0001
0000
0001
1000
0010
0100
0001
,
0010
0000
0001
0000
0010
0001
0010
0100
0000
2000
0000
0000
3010
0000
1010
0000
,
1001
0000
0100
0000
1000
0100
1000
0010
0100
0010
0100
0001
0010
0000
0001
0000
,
1100
0000
0001
0000
0100
0001
0100
0010
0000
0010
0100
0000
0110
0000
0101
0000
,
0012
0000
1003
0000
0100
1000
0100
0010
0002
0000
0000
0203
0000
0000
0310
0000
,
0000
0000
0000
0000
,
1000
0100
1000
0001
0100
0001
0100
0010
0100
0001
0010
0001
1000
0010
1000
0100
,
0010
0100
0010
0100
1000
0010
1000
0001
1000
0100
0010
0100
1000
0001
0010
0100
,
1100
0000
1000
0010
1000
0000
0001
0000
0110
0000
0000
0000
1000
0000
0001
0000
0101
0000
0000
0000
0110
0000
0010
0000
1010
0000
1000
0000
0010
0100
0010
0000
,
1000
0000
0000
0001
0000
0000
1000
0000
0000
0001
0000
0000
0010
0000
0000
0100
0000
0000
0010
0000
0000
0100
0000
0000
0010
0000
0000
0001
0000
0000
0100
0000
0000
0010
0000
0000
1000
0000
0100
0000
0010
0000
0001
0000
0000
0000
0000
0000
,
1001
0000
0000
0100
0010
1000
0001
0000
0011
0000
0000
0110
0000
0100
1000
0001
,
0000
1000
0001
0010
0100
1000
0010
0100
0001
0000
0100
0010
0100
0001
1000
0010
,
1000
0000
0100
1000
0000
1000
0010
0100
0010
0000
0010
0100
0010
1000
0001
0010
,
0100
0000
0010
0000
0100
0000
0010
0000
0000
0001
0000
0000
1000
0000
0000
0001
0000
0000
0010
0000
0000
0001
0000
0000
1000
0000
0000
0100
0000
0000
1000
0000
0010
0000
1000
0000
0010
0000
0000
0100
0000
0000
1000
0000
0000
0100
0000
0000
,
0010
0000
0000
1000
0001
1000
0010
0000
0110
0000
0000
1010
0000
0001
1000
0010
,
0000
1000
0001
0010
0100
1000
0010
1000
0100
0000
0010
0100
0010
0001
0100
0001
,
1000
0000
1000
0010
0000
1000
0001
0100
0001
0000
0001
0010
0001
1000
0100
1000
,
0010
0000
0100
0000
0010
0000
0100
0000
0000
0001
0000
0000
1000
0000
0000
0001
0000
0000
0100
0000
0000
0010
0000
0000
1000
0000
0000
0100
0000
0000
0010
0000
0001
0000
0010
0000
0001
0000
0000
0000
0000
0000
0000
0000
0000
0000
0000
0000
,
0101
0000
0000
0000
0000
0000
0000
0000
0000
0001
0000
0000
1000
0000
0000
0000
0010
0000
0000
0000
0100
0000
0000
0000
0101
0000
0000
0000
0000
0000
0000
0000
0000
0011
0000
0000
0000
0000
0000
0000
0000
0000
0110
0000
0000
0000
0000
0000
,
0000
1001
0000
0000
1010
0000
0110
0000
2001
0000
0010
0000
3010
0100
0001
1000
,
0010
0000
0010
1000
0000
0100
1000
0001
0010
0000
0001
0010
0100
1000
0010
0000
,
1000
0000
0000
0000
0010
0000
0000
0000
1000
0000
0000
0000
0001
0000
0000
0100
0000
0000
0001
0000
1000
0000
0010
0000
0100
0000
0000
0000
0000
0000
0110
0000
0000
0000
0000
0000
0000
0000
0000
0011
0000
0000
0000
0000
0000
0000
0000
0000
,
1100
0000
0000
0100
1000
0010
0100
0000
1010
0000
0000
0101
0000
0001
0100
0010
,
0000
1000
0001
0010
0100
0010
0100
1000
0010
0000
1000
0100
0010
0001
1000
0010
,
1000
0000
1000
0001
0000
0100
0001
0010
0100
0000
0010
0001
1000
0100
0010
0100
,
1000
0010
1000
0010
0100
0001
0100
0001
0010
0100
0010
0001
0000
0000
0000
0000
;

//---------------dance-single - ----------------
#NOTEDATA:;
#CHARTNAME:;
#STEPSTYPE:dance-single;
#DESCRIPTION:;
#CHARTSTYLE:;
#DIFFICULTY:Medium;
#METER:14;
#RADARVALUES:0.625605,0.852352,0.217024,0.193771,0.577439,565.000000,537.000000,28.000000,25.000000,0.000000,0.000000,0.000000,0.000000,0.000000,0.625605,0.852352,0.217024,0.193771,0.577439,565.000000,537.000000,28.000000,25.000000,0.000000,0.000000,0.000000,0.000000,0.000000;
#CREDIT:Daniel Van Eden;
#NOTES:
0000
0000
0000
0000
,
0000
0000
0000
0000
,
0000
0000
0000
0000
,
0000
0000
0000
0000
,
0000
0000
0000
0000
,
0010
0000
0000
0000
1000
0100
1000
0000
0010
0000
0000
1000
0000
0000
0001
0000
,
0010
0000
0001
0100
0001
0000
0010
0000
0100
0000
1000
0100
1000
0000
0010
0000
,
1000
0000
0000
0001
0000
0000
0001
0000
0100
0000
0010
0100
0010
0000
1000
0000
,
0100
1000
0100
0000
0010
0000
0001
0000
0100
0000
0001
1000
0001
0000
0010
0000
,
0001
0000
0000
0000
1000
0010
1000
0000
0001
0000
0000
0100
0000
0000
0010
0000
,
1000
0000
0100
1000
0100
0000
0010
0000
0001
0000
0010
0001
0010
0000
0100
0000
,
1000
0000
0000
0010
0000
0000
0010
0000
0100
0000
0001
1000
0001
0000
0010
0000
,
0100
0010
0100
0000
1000
0000
0010
0000
1000
0000
0001
0100
0001
0000
0000
0000
,
2002
0000
0000
3003
0000
0000
0010
0000
0000
1000
0000
0000
0010
0000
1000
0000
,
0001
0000
0010
0000
0001
0000
0100
0000
0010
0000
1000
0010
1000
0000
0100
0000
,
0000
0100
0010
0000
0001
0000
1000
0000
0001
0000
0010
0000
0100
0000
0010
0000
,
1000
0000
0010
0001
0010
0001
0000
0100
0000
0200
0300
0000
0010
0000
0010
1000
,
0010
0000
1000
0000
0100
0000
1000
0000
1000
0000
0001
0000
1000
0000
0001
0100
,
0001
0000
0010
0000
0001
0000
0010
0000
0010
0000
0100
0000
0010
0000
0010
0001
,
0000
0000
1000
0000
0001
0000
1000
0000
0010
0000
1000
0000
0100
0000
1000
0100
,
1000
0010
0000
0100
0001
0100
0010
0000
0000
0000
0010
0000
1000
0010
1000
0000
,
0010
0000
0100
0000
0001
0000
0100
0000
1000
0000
0100
0000
0001
0100
0001
0000
,
0010
0000
0100
0000
0010
0000
1000
0000
0010
0000
0001
0000
1000
0100
1000
0000
,
0010
0000
1000
0000
0001
0000
1000
0000
0100
0000
0010
0001
0010
0001
0100
0001
,
0100
0001
1000
0010
1000
0010
0100
0010
1000
0001
0100
0000
0010
0100
0010
0000
,
1000
0000
0001
0000
1000
0000
0100
0000
1000
0000
0010
0000
0100
0001
0100
0000
,
0100
0001
0000
0001
0010
0000
0100
0010
0100
0010
0100
0000
0010
0001
0010
0000
,
0001
0000
1000
0000
0010
0000
1000
0000
0001
0000
0100
0000
0010
0000
0100
0001
,
0100
0001
0000
1000
0010
1000
0010
0000
0000
0000
1100
0000
0100
0000
1000
0000
,
0001
0011
0000
0000
0000
0022
0033
0202
,
0303
0000
2020
0000
3030
0000
0000
0000
0001
0000
0000
0100
0000
0000
0010
0000
,
2000
3002
0023
0230
,
1300
0001
1000
0001
0010
0001
0100
0110
,
1010
0000
1000
0000
0001
0000
0010
0000
0001
0100
0001
0100
0001
0000
1000
0000
,
1010
0100
0010
1000
0100
1000
0001
0110
,
0011
0000
1000
0000
0010
0000
1000
0000
1010
0000
0000
0110
0000
0000
1001
0000
,
0010
0001
0000
0001
0100
0001
0000
0001
1000
0000
0001
0000
0100
0000
0010
0000
,
1000
0100
0000
0100
0010
0100
0000
0100
2000
0000
3000
0000
0001
0000
0100
0000
,
0010
1000
0000
1000
0001
1000
0000
1000
0100
0000
0000
0010
0000
0000
0001
0000
,
0202
0303
0220
0330
2002
3003
2200
3300
,
0010
0001
0010
0100
1000
0010
1000
1001
,
0101
0000
0010
0000
0100
0000
0001
0000
1000
0010
1000
0010
1000
0000
0100
0000
,
1000
0100
0010
0001
0100
0001
1000
1010
,
1001
0000
0001
0000
1000
0001
1000
0001
0020
0000
0000
0230
0000
0000
2300
0000
,
3000
0000
0000
0000
,
0010
1000
0010
1000
0100
0010
0100
0010
0001
0010
0001
0010
0100
1000
0100
0010
,
0001
0100
0001
0100
0010
1000
0010
1000
0001
0100
1000
0001
0010
1000
0001
1000
,
0010
0100
0010
0100
0001
0010
0001
0010
1000
0010
1000
0010
0001
0100
0001
0100
,
0010
0000
0000
1000
0000
0000
0010
0000
0000
1000
0000
0000
0100
0000
0000
1000
0000
0000
0100
0000
0000
0001
0000
0000
0100
0000
0000
0001
0000
0000
0100
0000
0000
1000
0000
0000
0010
0000
1000
0000
0001
0000
0100
0000
0000
0000
0000
0000
,
1000
0000
0000
0000
0001
0010
0001
0000
0100
0000
0000
0001
0000
0000
1000
0000
,
0100
0000
1000
0010
1000
0000
0100
0000
0010
0000
0001
0010
0001
0000
0100
0000
,
0001
0000
0000
1000
0000
0000
1000
0000
0010
0000
0100
0010
0100
0000
0001
0000
,
0010
0001
0010
0000
0100
0000
1000
0000
0010
0000
1000
0001
1000
0000
0100
0000
,
1000
0000
0000
0000
0001
0100
0001
0000
1000
0000
0000
0010
0000
0000
0100
0000
,
0001
0000
0010
0001
0010
0000
0100
0000
1000
0000
0100
1000
0100
0000
0010
0000
,
0001
0000
0000
0100
0000
0000
0100
0000
0010
0000
1000
0001
1000
0000
0100
0000
,
0010
0100
0010
0000
0001
0000
0100
0000
0001
0000
1000
0010
1000
0000
0000
0000
,
0010
0000
0000
0000
0000
0000
0000
0000
0000
0000
0000
0000
0100
0000
0000
0000
0010
0000
0000
0000
0100
0000
0000
0000
0010
0000
0000
0000
0000
0000
0000
0000
0000
1010
0000
0000
0000
0000
0000
0000
0000
0000
0101
0000
0000
0000
0000
0000
,
0000
0011
0000
0000
0110
0000
0110
0000
1100
0000
1000
0000
0100
0010
0000
0010
,
0001
0000
1000
0100
1000
0000
0010
0000
1000
0000
0001
0010
0100
1000
0001
0000
,
1000
0000
0000
0000
0010
0000
0000
0000
0100
0000
0000
0000
0001
0000
0000
0010
0000
0000
0100
0000
0000
1000
0000
0000
0001
0000
0000
0000
0000
0000
0000
0000
0000
0010
0000
0000
0000
0000
0000
0010
0000
0000
0100
0000
0000
0000
0000
0000
,
1000
0000
0000
0000
0010
1000
0010
0000
1000
0000
0000
0001
0000
0000
0001
0000
,
0010
0100
0010
0000
0001
0000
1000
0000
0010
0000
1000
0100
1000
0000
0100
0000
,
0010
0000
0010
0001
0000
0001
0100
0000
0010
0000
0100
0001
0100
0001
0100
0000
,
0010
0000
1000
0000
0001
1000
0000
1000
0100
1000
0000
0001
0000
0000
0000
0000
;

//---------------dance-single - ----------------
#NOTEDATA:;
#CHARTNAME:;
#STEPSTYPE:dance-single;
#DESCRIPTION:;
#CHARTSTYLE:;
#DIFFICULTY:Easy;
#METER:9;
#RADARVALUES:0.369827,0.624913,0.131765,0.062007,0.069758,334.000000,317.000000,17.000000,8.000000,0.000000,0.000000,0.000000,0.000000,0.000000,0.369827,0.624913,0.131765,0.062007,0.069758,334.000000,317.000000,17.000000,8.000000,0.000000,0.000000,0.000000,0.000000,0.000000;
#CREDIT:Daniel Van Eden;
#NOTES:
0000
0000
0000
0000
,
0000
0000
0000
0000
,
0000
0000
0000
0000
,
0000
0000
0000
0000
,
0000
0000
0000
0000
,
0010
0000
1000
0100
0010
0000
0001
0000
,
0010
0001
0010
0100
1000
0000
0010
1000
,
0010
1000
0100
0000
,
0010
0000
0001
0000
1000
0001
1000
0001
,
1000
0010
1000
1000
,
0100
0000
0100
1000
0100
0010
0001
0000
,
1000
0001
1000
0000
0010
0000
0000
0000
,
0010
0000
1000
0000
0001
0010
0001
0000
,
1001
0000
0000
0000
0000
0000
0010
0000
0000
0100
0000
0000
0010
0000
1000
0000
,
0000
0100
0010
0100
0010
0100
0000
0001
,
0010
0001
0000
1000
0100
1000
0000
0020
,
0000
2030
0000
3200
0000
0300
0010
0000
,
0001
0000
1000
0001
1000
0000
0010
0000
,
1000
0000
0010
0100
0010
0000
1001
0000
,
0000
0010
0001
0010
0001
0010
0000
0100
,
0000
1000
0100
0010
0000
0001
0000
0100
,
0000
0001
0100
0001
0000
1000
0000
0010
,
0000
1000
0010
1000
0000
0001
0000
1000
,
0000
0001
1000
0001
0000
1000
0100
0010
,
0001
1000
0100
0010
0001
1000
0000
0001
,
0000
1000
0100
1000
0000
0001
0000
1000
,
0000
0001
0010
0001
0000
0010
0000
0100
,
0000
0010
0001
0010
0000
0100
0000
1000
,
0000
0100
0010
0100
0000
1001
1000
0100
,
0010
0001
0000
0000
0000
0011
0000
0110
,
0000
0000
1001
0000
0000
0000
0000
0000
1000
0000
0000
0001
0000
0000
1000
0000
,
0001
0010
0001
1000
,
0100
0000
0010
0100
0000
0010
0100
1000
,
1000
0000
1000
0000
0001
0001
0100
0000
,
0010
0000
0100
0000
0001
0000
0010
0001
,
0010
0000
0000
0000
0100
0000
0000
0000
1000
0000
0000
0010
0000
0000
1000
0000
,
0001
0000
0101
0000
0000
1000
0010
1000
,
0010
0000
0110
0000
0000
1000
0100
1000
,
0100
0000
0000
0000
0011
0000
0000
0000
0010
0000
0000
0100
0000
0000
0010
0000
,
0002
2003
3200
0320
,
0031
0000
0100
0001
0000
0001
0100
0010
,
0010
0000
1000
0000
0100
0100
0010
0000
,
0001
0000
0100
0000
0001
0000
1000
0100
,
1000
0000
0000
0000
0010
0000
0000
0000
0001
0000
0000
1000
0000
0000
0001
0000
,
0000
0000
0000
0000
,
0001
0000
0100
0000
0001
0000
1000
0010
1000
0000
0100
0000
0010
0000
0100
0010
,
0100
0000
0010
0000
0001
0000
1000
0100
1000
0000
0100
0000
0010
0001
0010
0001
,
1000
0000
0000
1000
0000
0000
1000
0000
0001
0000
0000
0000
0000
0000
0001
0000
0100
0000
0000
0000
0110
0000
0000
0000
0000
0000
0010
0000
0000
0010
0000
0000
,
1000
0000
1001
0000
0001
0010
0001
0000
1000
0100
1000
0100
0010
0000
1001
0000
,
1000
0000
0010
1000
0010
0000
1000
0000
,
0001
1000
0001
0010
0001
0000
1000
0100
,
1000
0000
0010
0000
1000
0100
1000
0000
,
0010
0000
0100
0000
0001
0000
0100
0001
,
0100
0000
0001
1000
0001
0000
1000
0000
,
0010
1000
0010
0100
0010
0000
1000
0100
,
1000
0000
0001
0000
0010
0001
0010
0000
,
0001
0000
0100
0000
0001
1000
0001
0000
,
1001
0000
0000
0000
1001
0000
0000
1100
,
0000
0110
0011
0010
,
0001
0100
0001
0100
,
0020
0000
0000
0000
1030
1000
0000
0001
,
1000
0000
0010
1000
0010
0000
0100
0000
,
0100
0001
0100
0010
0100
0000
0001
1000
,
0001
0000
0010
0000
0001
1000
0001
0000
,
1000
0010
0100
0000
;

//---------------dance-single - ----------------
#NOTEDATA:;
#CHARTNAME:;
#STEPSTYPE:dance-single;
#DESCRIPTION:;
#CHARTSTYLE:;
#DIFFICULTY:Beginner;
#METER:6;
#RADARVALUES:0.219239,0.374948,0.077509,0.007751,0.000000,198.000000,188.000000,10.000000,1.000000,0.000000,0.000000,0.000000,0.000000,0.000000,0.219239,0.374948,0.077509,0.007751,0.000000,198.000000,188.000000,10.000000,1.000000,0.000000,0.000000,0.000000,0.000000,0.000000;
#CREDIT:Daniel Van Eden;
#NOTES:
// measure 0
0000
0000
0000
0000
,  // measure 1
0000
0000
0000
0000
,  // measure 2
0000
0000
0000
0000
,  // measure 3
0000
0000
0000
0000
,  // measure 4
0000
0000
0000
0000
,  // measure 5
0010
0000
0000
0000
2000
3000
0000
0000
,  // measure 6
0100
0010
0100
0010
,  // measure 7
0001
0000
1000
0000
,  // measure 8
0010
0000
1000
0000
0001
1000
0001
0000
,  // measure 9
1000
0000
0100
0000
,  // measure 10
0010
0001
0010
0100
,  // measure 11
0010
0000
0100
0000
,  // measure 12
1000
0000
0010
0000
1000
0001
1000
0000
,  // measure 13
1001
0000
0000
0001
0000
0000
0000
1000
,  // measure 14
0000
0000
0000
0010
0000
0100
0000
0010
,  // measure 15
0000
0000
0000
1000
0000
0000
0000
0100
,  // measure 16
0000
0010
0000
0001
0000
0000
0001
0000
,  // measure 17
0000
1000
0000
0010
,  // measure 18
1000
0010
0100
0010
,  // measure 19
0000
1000
0000
0100
0000
1000
0000
0000
,  // measure 20
0000
0001
0000
0000
0000
1000
0000
0001
,  // measure 21
0000
1000
0000
0000
0000
0010
0000
0100
,  // measure 22
0000
0010
0000
0000
0000
1000
0000
0100
,  // measure 23
0000
1000
0000
0000
0000
0001
0000
0001
,  // measure 24
0000
1000
0000
1000
0000
0001
0000
0000
,  // measure 25
0000
0100
0000
0010
0000
0100
0000
0000
,  // measure 26
0000
0001
0000
1000
0000
0001
0000
0000
,  // measure 27
0000
1000
0000
0100
0000
0010
0000
0010
,  // measure 28
0000
0010
0000
0000
0000
1001
0000
0001
,  // measure 29
0000
1000
0000
0000
0000
0010
0000
1000
,  // measure 30
0000
0100
0000
0000
0010
0000
0000
0000
,  // measure 31
0001
1000
0001
1000
,  // measure 32
0100
0000
0000
0010
,  // measure 33
0010
0000
0001
1001
,  // measure 34
1000
0000
0010
0000
,  // measure 35
1000
0000
0100
0010
,  // measure 36
0001
0000
0000
0000
0000
0000
0001
1000
,  // measure 37
0001
0000
0000
0000
0000
0000
1000
0010
,  // measure 38
1000
0000
0100
0010
,  // measure 39
0100
0010
0001
1000
,  // measure 40
0001
0000
0000
0000
0000
0000
1000
0001
,  // measure 41
1000
0000
0001
0101
,  // measure 42
0100
0000
0000
0000
0000
1000
0000
0000
,  // measure 43
0010
0000
1000
0000
,  // measure 44
0100
0000
0000
0000
,  // measure 45
0010
0000
0001
0000
1000
0001
1000
0001
,  // measure 46
0100
0000
0010
0000
1000
0100
1000
0000
,  // measure 47
0100
0000
0011
0000
0001
0001
1001
0000
,  // measure 48
1000
0000
1010
0000
0010
0000
1000
1001
,  // measure 49
0001
0000
1000
0010
,  // measure 50
1000
0000
0100
0010
,  // measure 51
0100
0000
0010
0001
,  // measure 52
0010
0000
0001
0000
1000
0001
1000
0000
,  // measure 53
0001
0000
0100
0010
,  // measure 54
0100
0000
0001
1000
,  // measure 55
0001
0000
1000
0010
,  // measure 56
1000
0000
0100
0000
1000
0001
1000
0000
,  // measure 57
0001
0000
1001
0000
,  // measure 58
1000
0010
0100
0010
,  // measure 59
1000
0000
0001
0000
,  // measure 60
1000
0000
1001
0000
,  // measure 61
0001
0000
0010
0001
,  // measure 62
0010
0000
0001
0100
,  // measure 63
0010
0000
1000
0001
,  // measure 64
1000
0001
1000
0000
;
