#TITLE:Lying To You;
#SUBTITLE:;
#ARTIST:Goldroom;
#TITLETRANSLIT:;
#SUBTITLETRANSLIT:;
#ARTISTTRANSLIT:;
#GENRE:;
#CREDIT:;
#BANNER:Lying To You.png;
#BACKGROUND:Lying To You-bg.png;
#LYRICSPATH:;
#CDTITLE:;
#MUSIC:Lying To You.ogg;
#OFFSET:-0.347715;
#SAMPLESTART:45.534618;
#SAMPLELENGTH:22.588238;
#SELECTABLE:YES;
#BPMS:0.000000=85.000000
;
#STOPS:
;
#BGCHANGES:;
#KEYSOUNDS:;
#ATTACKS:;

//---------------dance-single - ----------------
#NOTES:
     dance-single:
     :
     Beginner:
     1:
     0.096266,0.121096,0.014492,0.000000,0.000000,93.000000,91.000000,2.000000,0.000000,0.000000,0.000000,0.096266,0.121096,0.014492,0.000000,0.000000,93.000000,91.000000,2.000000,0.000000,0.000000,0.000000:
0000
0000
0000
0000
,
0000
0000
0000
0000
,
0000
0000
0000
0000
,
0000
0000
0000
0000
,
1000
0000
0010
0000
,
1000
0000
0000
0000
,
0001
0000
1000
0000
,
0100
0000
0010
0000
,
0001
0000
1000
0000
,
0001
0000
0000
0000
,
0010
0000
0100
0000
,
1000
0000
0001
0000
,
1000
0000
0000
0000
,
0010
0000
0000
0000
,
0001
0000
0000
0000
,
0100
0000
0010
0010
,
0010
0000
1000
0000
,
0001
0000
1000
1000
,
1000
0000
0001
0000
,
0100
0000
0010
0000
,
1001
0000
0010
0000
,
0001
0000
0100
0100
,
0100
0000
0001
0000
,
1000
0000
0001
0000
,
1000
1000
0000
0001
,
0000
0010
0000
0100
,
0100
0100
0000
0010
,
0000
0001
0001
0001
,
0000
0000
0000
0000
,
1000
0000
0000
0000
,
0001
0000
0000
0000
,
0010
0000
0000
0000
,
0100
0000
0100
0000
,
0010
0000
0001
0000
,
1000
0000
1000
0000
,
0010
0000
0100
0100
,
0100
0000
0001
0000
,
0010
0000
0001
0001
,
0001
0000
1000
0000
,
0100
0000
1000
1000
,
0000
1001
0000
0010
,
0000
0001
0000
1000
,
0000
0010
0000
1000
,
1000
1000
0000
0001
,
0001
0001
0000
1000
,
0000
0010
0000
0100
,
0100
0100
0000
0001
,
0000
1000
1000
1000
;

//---------------dance-single - ----------------
#NOTES:
     dance-single:
     :
     Easy:
     3:
     0.182181,0.207594,0.086950,0.000000,0.000000,176.000000,164.000000,12.000000,0.000000,0.000000,0.000000,0.182181,0.207594,0.086950,0.000000,0.000000,176.000000,164.000000,12.000000,0.000000,0.000000,0.000000:
0000
0000
0000
0000
,
0000
0000
0000
0000
,
0000
0000
0000
0000
,
0000
0000
0000
0000
,
0010
1000
0000
1000
,
0001
0010
0000
0010
,
0100
1000
0000
1000
,
0010
0100
0001
0000
,
0010
0001
0000
0001
,
0100
0010
0000
0010
,
1000
0001
0000
0010
,
0100
1000
0001
0000
,
1000
0010
0010
0100
,
0100
0010
1000
0010
,
0100
0001
1000
0001
,
0010
0010
0100
0100
,
1001
1000
0010
1000
,
0001
0010
0001
0100
,
0010
1000
0001
1000
,
0100
0010
0010
0010
,
1001
0100
0001
1000
,
0010
1000
0100
0010
,
0001
1000
0001
0100
,
0010
1000
0100
1000
,
0110
0010
0001
0010
,
1000
0010
0001
0100
,
1000
0100
0001
0100
,
1000
1010
1001
0101
,
1000
0001
0000
0001
,
0100
0010
0000
0010
,
1000
0001
0000
0001
,
0010
0000
0100
0010
,
0001
1000
1000
0010
,
0100
0001
0001
1000
,
0100
0010
0010
0001
,
1000
0001
1000
0010
,
1001
0001
0100
0010
,
1000
0001
1000
0100
,
0010
0001
0010
0100
,
1000
0001
0001
0001
,
1000
0110
0010
1000
,
0100
0010
0001
1000
,
0001
0100
0010
0100
,
0001
1000
0010
1000
,
1001
0001
0010
0100
,
1000
0100
0001
0100
,
1000
0001
0010
1000
,
0010
0011
0110
1100
;

//---------------dance-single - ----------------
#NOTES:
     dance-single:
     :
     Medium:
     6:
     0.267061,0.259492,0.057967,0.050721,0.028983,258.000000,250.000000,8.000000,7.000000,0.000000,0.000000,0.267061,0.259492,0.057967,0.050721,0.028983,258.000000,250.000000,8.000000,7.000000,0.000000,0.000000:
0000
0000
0000
0000
,
0000
0000
0000
0000
,
0000
0000
0000
0000
,
0000
0000
0000
0000
,
0010
0000
1000
0000
0001
0010
0001
0010
,
0001
0000
0000
0000
1000
0000
0000
0000
0010
1000
0000
0000
1000
0000
0001
0000
,
0100
0000
0010
0000
1000
0100
1000
0100
,
0010
0000
0000
0000
0001
0000
0000
1000
0000
1000
0000
0000
0010
0000
1000
0000
,
0001
0000
0010
0000
0001
1000
0001
1000
,
0001
0000
0000
0000
0100
0000
0000
0000
0010
0100
0000
0000
0100
0000
0001
0000
,
1000
0000
0100
0000
1000
0010
1000
0010
,
1000
0000
0000
0000
0001
0000
0000
0100
0000
0100
0000
0000
0001
0000
1000
0000
,
0010
0000
1000
0001
0001
0000
0010
0100
,
0100
0000
0010
0000
0001
0000
0100
0001
,
0100
0000
0010
0000
1000
0000
0001
1000
,
0001
0010
0100
0000
0100
0010
0001
0001
,
1000
0000
0001
0000
1000
0100
0010
0001
,
1000
0000
0010
0000
0100
0001
0100
0010
,
1000
0000
0001
0000
0010
0001
0010
0100
,
1000
0021
0100
1030
,
1001
0000
0100
0000
0001
0100
0010
1000
,
0001
0000
0010
0000
0100
1000
0100
0010
,
0001
0000
1000
0000
0010
1000
0001
0100
,
0010
1200
0010
0301
,
0001
0010
1000
0000
1000
0100
0001
0000
,
0010
0001
0100
0001
0010
0100
1000
0010
,
1000
0000
0001
0100
1000
0000
1000
0100
,
0002
0010
0100
1003
,
1000
0000
0010
1000
0010
0000
0100
0010
,
0100
0000
0001
0100
0001
0000
0010
0001
,
0010
0000
0100
0000
0010
0000
0001
1000
,
0020
0000
0000
0000
1000
0000
0000
1000
0000
1000
0000
0000
0130
0000
0000
0000
,
1000
0000
0001
0010
0001
0000
0100
0001
,
0100
0000
0010
0100
0010
0000
1000
0001
,
1000
0010
1000
0100
,
0010
0100
1000
0000
1000
0100
0010
0000
,
1001
0000
0010
0000
0001
0100
0001
1000
,
0010
0000
1000
0000
0100
0010
0001
0010
,
0100
0000
1000
0000
0001
0010
0100
1000
,
0010
0201
0010
1300
,
1000
0000
1001
0000
0010
0100
0010
0001
,
1000
0000
0010
0000
1000
0001
0100
0010
,
1000
0000
0001
0000
0010
0100
0010
0001
,
1000
0000
0021
0000
0100
0000
1000
1000
,
0031
0000
0001
0010
0100
0000
0100
1000
,
0001
0000
0100
0000
0010
0100
0001
0100
,
0010
0000
1000
0001
1000
0000
0100
0010
,
0001
2010
0100
3001
;

//---------------dance-single - ----------------
#NOTES:
     dance-single:
     :
     Hard:
     12:
     0.505139,0.501685,0.108688,0.014492,0.601406,488.000000,473.000000,15.000000,2.000000,0.000000,0.000000,0.505139,0.501685,0.108688,0.014492,0.601406,488.000000,473.000000,15.000000,2.000000,0.000000,0.000000:
// measure 0
0000
0000
0000
0000
,  // measure 1
0000
0000
0000
0000
,  // measure 2
0000
0000
0000
0000
,  // measure 3
0000
0000
0000
0000
,  // measure 4
0010
0001
1000
0001
0100
0010
0100
0001
,  // measure 5
1000
0000
0000
0000
0010
0000
1000
0001
1000
0200
0000
0000
0310
0000
0001
0000
,  // measure 6
1000
0001
0010
0100
0010
0001
0100
0010
,  // measure 7
1000
0000
0001
0000
1000
0000
0010
0100
0000
0001
0000
0001
0100
0010
1000
0001
,  // measure 8
0010
0100
0010
0000
0001
0000
0010
0000
0001
1000
0001
0000
0100
0000
0010
0000
,  // measure 9
1000
0010
1000
0000
0001
0000
0100
0000
0001
2000
0000
0000
3100
0000
0010
0000
,  // measure 10
0001
1000
0001
0000
0100
0000
0010
0000
1000
0100
1000
0000
0001
0000
0010
0000
,  // measure 11
0100
0010
0100
0000
0010
0000
0001
1000
0000
0100
0000
1000
0010
1000
0001
0100
,  // measure 12
0010
0000
0010
1000
0000
0000
1000
0001
0000
0000
0001
0010
0000
0000
0010
0100
,  // measure 13
0000
0000
0010
0000
0001
0000
1000
0001
0000
0000
0001
0100
0000
0000
0100
0010
,  // measure 14
0000
0000
0000
0000
0010
0000
0000
0000
1000
0000
0000
0000
0001
0000
0000
0000
0100
0000
0000
0000
0010
0000
0100
0000
0000
0000
0000
0000
0100
0000
0001
1000
,  // measure 15
0010
0000
1000
0000
0010
0100
0000
0001
0000
0100
0000
0010
1000
0001
1000
1000
,  // measure 16
0100
0000
0010
0000
1100
0000
1000
0000
0001
0000
1000
0010
0100
0010
0100
0001
,  // measure 17
1000
0000
0001
0000
0110
0000
0010
0000
0001
0000
0100
0001
0100
0010
0100
0010
,  // measure 18
1000
0000
0001
0000
1100
0000
1000
0000
0010
0000
1000
0100
0000
0010
0000
0100
,  // measure 19
0000
0010
0000
0010
0001
0000
1000
0001
0100
0010
0000
0010
0100
0000
1001
0000
,  // measure 20
0110
0000
0100
0000
0101
0000
0001
0000
0010
0000
0001
1000
0010
1000
0100
0010
,  // measure 21
0001
0000
1000
0000
1010
0000
0010
0000
0100
0000
0001
0100
0010
1000
0001
1000
,  // measure 22
0100
0000
0010
0000
0110
0000
0100
0000
1000
0000
0001
0010
0000
0001
0000
0100
,  // measure 23
0000
0100
0000
0010
1000
0000
0001
1000
0100
0010
0100
0010
0100
1000
0001
0010
,  // measure 24
0100
0010
0001
0000
0100
0001
1000
0000
0010
1000
0001
0000
1000
0100
0010
0000
,  // measure 25
0100
0010
0001
0000
0100
0001
1000
0000
0010
1000
0001
1000
0001
0100
0010
1000
,  // measure 26
0100
0010
0001
0000
0010
0100
1000
0010
0100
0010
1000
0000
0001
0100
0010
0100
,  // measure 27
0001
0000
0010
0000
0110
0000
0000
0100
1000
0010
1000
0001
0100
0000
0001
1000
,  // measure 28
0001
0000
0010
0000
0100
0000
0100
1000
0000
1000
0100
0000
1000
0010
0000
0010
,  // measure 29
0100
0000
0001
1000
0000
1000
0001
0000
0010
0100
0000
0100
0010
0000
0001
0100
,  // measure 30
0000
0100
0010
0000
0010
1000
0000
1000
0001
0000
0100
0010
0000
0010
0100
0000
,  // measure 31
0001
1000
0000
1000
0001
0000
0010
0100
0000
0100
0010
0000
0001
0100
0000
0100
,  // measure 32
0001
0000
1000
0010
1000
0000
0001
0100
0001
0000
0010
0100
0010
0000
0001
1000
,  // measure 33
0001
0000
1000
0000
0010
0000
0100
0010
0100
0000
0001
0100
0001
0000
1000
0010
,  // measure 34
1000
0000
0000
0000
0100
0000
0000
0000
0010
0000
0000
0000
0001
0000
0000
0000
1000
0000
0000
0000
0010
0000
1000
0000
0000
0000
0000
0000
1000
0000
0100
0010
,  // measure 35
0001
0000
0100
0000
0010
0100
0000
0001
0000
0010
0000
0001
1000
0100
1000
1000
,  // measure 36
0010
0000
0100
0000
1001
0000
0001
0000
0010
0000
0001
0100
0010
1000
0001
1000
,  // measure 37
0100
0000
0010
0000
1100
0000
1000
0000
0001
0000
0010
0001
1000
0001
1000
0010
,  // measure 38
0100
0000
0001
0000
0101
0000
0100
0000
0010
0000
0100
0001
1000
0010
1000
0001
,  // measure 39
0010
0100
1000
0000
0010
0000
0100
0001
0100
0010
0000
0010
1000
0000
0001
0000
,  // measure 40
0010
0000
0000
0000
1001
0000
0001
0000
0010
0000
0100
0010
0001
0010
0100
1000
,  // measure 41
0001
0000
1000
0000
1010
0000
0010
0000
0100
0000
0010
1000
0010
0100
0001
0100
,  // measure 42
0010
0000
1000
0000
1001
0000
0001
0000
0010
0000
0100
0010
0001
0010
0001
1000
,  // measure 43
0010
0100
0010
0000
1000
0000
0001
0010
0010
0001
1000
0100
1000
0001
0010
0100
,  // measure 44
1000
0001
0100
0000
0010
0100
0001
0000
1000
0100
0010
0000
0001
1000
0010
0000
,  // measure 45
0100
0010
1000
0000
0001
0100
0010
0000
1000
0001
0100
0000
0010
0100
0001
0010
,  // measure 46
0001
1000
0100
0000
1000
0010
0100
0001
1000
0000
0001
0000
0010
0100
0010
0001
,  // measure 47
1000
0000
0010
0000
1000
0000
0010
1000
1000
0001
0010
0100
0010
0000
0000
0000
;
