#TITLE:L'oiseau qui danse;
#SUBTITLE:;
#ARTIST:Tennyson;
#TITLETRANSLIT:;
#SUBTITLETRANSLIT:;
#ARTISTTRANSLIT:;
#GENRE:;
#CREDIT:;
#BANNER:Loiseau qui danse.png;
#BACKGROUND:Loiseau qui danse-bg.png;
#LYRICSPATH:;
#CDTITLE:;
#MUSIC:Loiseau qui danse.ogg;
#OFFSET:1.201678;
#SAMPLESTART:44.939281;
#SAMPLELENGTH:14.769234;
#LASTBEATHINT:0.369159;
#SELECTABLE:YES;
#BPMS:0.000000=130.000000
,67.000000=260.000000
,183.000000=130.000000
,246.000000=260.000000
,332.000000=249.999985
,333.000000=240.000000
,334.000000=230.000000
,335.000000=220.000000
,336.000000=210.000000
,337.000000=200.000000
,338.000000=190.000000
;
#STOPS:67.000000=1.154000,
79.000000=0.231000,
123.666664=0.115000,
124.166664=0.115000,
124.666664=0.231000,
129.000000=0.231000,
160.000000=0.231000,
183.000000=0.231000,
183.500000=0.231000,
246.000000=0.692000,
253.666672=0.231000,
260.666656=0.231000,
305.666656=0.115000,
306.166656=0.115000,
306.666656=0.231000,
311.000000=0.231000
;
#BGCHANGES:;
#KEYSOUNDS:;
#ATTACKS:;

//---------------dance-single - ----------------
#NOTES:
     dance-single:
     :
     Challenge:
     17:
     0.814923,1.246386,0.156287,0.164969,1.358825,657.000000,639.000000,18.000000,19.000000,0.000000,0.000000,0.814923,1.246386,0.156287,0.164969,1.358825,657.000000,639.000000,18.000000,19.000000,0.000000,0.000000:
0000
0000
0000
0000
,
0000
0000
0000
0000
,
0000
0000
0000
0000
,
0000
0000
0000
0000
,
0000
0000
0000
0000
,
0000
0000
0000
0000
,
0000
0000
0000
0000
,
0000
0000
0000
0000
,
0000
0000
0000
0000
,
1010
0000
0000
0000
0010
0000
1000
0000
0010
0100
0000
0000
0100
0000
0000
0000
,
1001
0000
0000
0000
1000
0000
0100
0000
1000
0010
1000
0001
0000
0000
0000
0000
,
0011
0000
0000
0000
0010
0000
0100
0000
0010
0001
0000
0000
1000
0000
0000
0000
,
0101
0000
0000
0000
0010
0000
1000
0000
0001
1000
0100
0010
0000
0000
0000
0000
,
0101
0000
0000
0000
0100
0000
0001
0000
0100
0010
0000
0000
0010
0000
0000
0000
,
1010
0000
0000
0000
0100
0000
0001
0000
0010
0100
0010
0001
0000
0000
0000
0000
,
0110
0000
0000
0000
0010
0000
0001
0000
1000
0100
0000
0000
0100
0000
0000
0000
,
2002
0000
0000
3003
,
0010
0000
1000
0100
0000
0010
0100
0000
1000
0010
0000
0100
,
0001
0000
0010
0100
0000
0010
0001
0000
1000
0100
0000
0010
,
0001
0000
0100
0010
0000
2000
0000
0000
0000
3010
0000
0000
,
0000
0000
0100
0001
0000
1000
0001
0000
0010
0100
0000
1000
,
0000
0000
0010
1000
0000
0010
0100
0000
0001
0010
0000
0000
,
0000
0001
0100
0001
0000
0100
0000
0010
0000
1000
0000
0010
,
0000
0000
0000
1000
0000
0010
0100
0010
0100
0001
0000
0010
,
0001
0000
1000
0200
0000
0000
0301
0000
0010
0001
0000
0100
,
0020
0000
0000
1030
0000
0001
0010
0000
0100
1000
0000
0010
,
1000
0000
0001
0100
0000
0001
0010
0000
0100
1000
0000
0010
,
0100
0000
0002
0000
0000
0000
1003
0000
0000
0010
0000
1000
,
0100
0000
0010
0100
0000
1000
0001
0010
0001
0100
0000
0010
,
1000
0000
0010
0100
0001
0100
0010
0000
1000
0100
0000
0010
,
0001
0000
1000
0100
0000
0010
0001
0000
0010
0100
0000
1100
,
0000
0110
0000
0000
0011
0000
0100
0000
0000
0000
0000
0000
0010
0000
0000
0000
2000
0000
0000
0000
0000
0000
0000
0000
,
3010
0000
0020
0130
0000
0000
0010
0000
0000
0100
0000
0002
,
0000
0000
0000
0010
0000
0013
0000
0000
0100
0000
0000
0010
,
1000
0001
1000
0100
0000
0022
0000
0000
0000
0033
0000
0000
,
0100
0000
0010
1000
0000
0100
0010
0000
0001
0000
0000
0001
,
1000
0000
0100
0010
0000
0001
0100
0000
0010
0000
0000
0010
,
1000
0000
0001
1000
0000
0010
0100
0000
0010
0100
0000
0001
,
0010
0000
0100
1000
0000
0100
1000
0000
0010
0100
0000
0001
,
1000
0000
0001
1000
0000
0100
0010
0000
0000
0000
0000
0010
,
0002
0003
0010
0100
0000
1000
0010
0000
0100
0001
0000
1000
,
0100
0000
0010
0001
0000
0000
0000
0000
0001
1000
0000
0000
,
0000
0000
0010
0001
0000
0010
0100
0000
1000
0010
0100
0010
,
1000
0000
0001
1000
0000
0000
0100
0010
0100
0010
0000
0001
,
0100
0000
0000
0010
1000
0010
1000
0000
0100
0010
0000
0000
,
0001
0000
0010
0000
0001
0000
0010
0000
0000
0000
0100
0000
1000
0000
0000
0000
0010
0000
0100
0000
0000
1001
0000
0000
,
0101
0000
0000
0000
1000
0000
0001
0000
0100
0001
0000
0000
0010
1000
0100
0010
,
0001
1000
0001
0010
0100
1000
0001
0100
0010
1000
0001
0100
0010
1000
0010
1000
,
0100
0010
0001
1000
0010
0100
0000
0010
0100
0010
1000
0100
0000
0100
0010
0001
,
1000
0010
0000
0010
0100
0001
0010
0100
1000
0010
1000
0001
0100
0010
1000
0100
,
0010
1000
0010
0001
0100
1000
0100
0001
0010
0100
1000
0001
1000
0010
0100
0010
,
1000
0100
1000
0001
0010
0100
0010
0100
1000
0010
0100
0001
0010
1000
0100
0010
,
0001
0100
0001
0010
0100
0010
0001
1000
0010
1000
0001
0100
0010
1000
0100
0010
,
0001
1000
0001
0100
0010
0100
0010
1000
0001
0010
1000
0001
0100
1000
0001
0100
,
0010
0100
0010
1000
0000
0000
1000
0001
1000
0100
0000
0100
0010
0001
0000
0100
,
0001
0010
0100
1000
0000
0000
0010
0100
0001
1000
0010
1000
0100
0001
0000
0100
,
1000
0001
0010
0100
1000
0001
0010
0000
0100
1000
0010
0100
0001
1000
0010
0000
,
1000
0001
0010
0001
0010
0100
1000
0010
0100
0010
1000
0001
0100
0010
1000
0100
,
0010
0001
0010
0100
1000
0001
0100
0010
1000
0001
0010
0001
1000
0100
1000
0010
,
0100
0001
1000
0010
0100
0010
1000
0100
0001
1000
0010
0001
0100
0010
1000
0001
,
0100
0010
0000
0010
0100
0001
1000
0010
1000
0100
0000
0100
0000
0010
0001
1000
,
0100
0010
0001
0100
0010
1000
0001
0010
0100
0000
0000
0000
1100
0000
0000
0000
,
1000
0000
0001
0000
0000
0001
0010
0000
0000
0001
0100
0001
,
1000
0000
0010
0100
0000
0002
0013
0000
0100
1000
0000
0100
,
0010
0001
0010
0100
0000
1000
0001
0000
0010
0100
0000
0010
,
0001
0000
2000
3010
0000
1000
0100
0000
0010
0001
0000
0100
,
0010
0000
1000
0100
0000
0001
0100
0000
1000
0010
0000
0100
,
0001
0000
1000
0010
0000
1000
0100
0000
0010
0001
0000
0100
,
0001
0000
0010
0100
0000
2000
0000
0000
0000
0000
0000
0000
,
0000
0000
0000
0000
3010
0000
0000
0100
0000
0000
0001
0000
0000
0010
0000
0000
,
0100
0000
0000
1000
0000
0000
0010
0100
0010
1000
0000
0100
,
0010
0000
0100
1000
0000
0010
0100
0000
0001
1000
0000
0010
,
1000
0000
0001
0010
0100
1000
0001
0000
0100
0010
0000
1000
,
0000
0000
0000
0010
0000
1000
0100
0000
0010
0001
0000
1000
,
0010
0000
0100
0001
1000
0100
0010
0000
0001
0010
0000
0100
,
1000
0000
0010
0100
0000
0001
0010
0000
1000
0100
0000
1000
,
0010
0000
0001
0000
0000
0000
0100
0000
0000
0000
0110
0000
0000
1100
0000
0000
1001
0000
0100
0000
0000
0000
0000
0000
,
0001
0000
0020
0000
0000
0000
0130
0000
0100
1000
0000
0000
,
1000
0000
0000
0100
0000
0020
0000
0000
0000
0031
0000
0001
,
0000
0000
1000
0000
0000
1000
0001
0010
0001
1000
0000
0200
,
0000
0000
0000
0000
0000
0000
0310
0000
0100
0001
0000
0100
,
1000
0000
0010
0100
0000
0100
0010
0000
1000
0001
0000
0100
,
0010
0000
1000
0000
0000
1000
0100
0000
0010
0001
0000
1000
,
0010
0000
1000
0010
0000
0100
0001
0000
0010
0100
0000
0010
,
0100
0000
1000
0001
0000
0010
0100
0000
0001
0100
0000
1000
,
0020
0000
0000
0000
,
0000
0000
0000
0000
,
0030
0000
0000
0000
;

//---------------dance-single - ----------------
#NOTES:
     dance-single:
     :
     Hard:
     15:
     0.662358,1.246386,0.130239,0.191017,0.876942,534.000000,519.000000,15.000000,22.000000,0.000000,0.000000,0.662358,1.246386,0.130239,0.191017,0.876942,534.000000,519.000000,15.000000,22.000000,0.000000,0.000000:
0000
0000
0000
0000
,
0000
0000
0000
0000
,
0000
0000
0000
0000
,
0000
0000
0000
0000
,
0000
0000
0000
0000
,
0000
0000
0000
0000
,
0000
0000
0000
0000
,
0000
0000
0000
0000
,
0000
0000
0000
0000
,
1000
0000
0001
1000
0001
0000
0010
0000
,
0001
0000
0000
0000
0100
0000
0010
0000
1000
0000
0001
2000
0000
0000
3000
0000
,
0100
0000
0010
0001
0010
0000
0100
0000
,
1000
0000
0000
0000
0010
0000
1000
0000
0001
0000
1000
0200
0000
0000
0300
0000
,
0010
0000
0010
0001
1000
0000
0100
0000
,
1000
0000
0000
0000
0010
0000
1000
0000
0010
0000
0100
0002
0000
0000
0003
0000
,
0010
0000
0001
0100
0010
0000
1000
0000
,
2002
0000
0000
3003
,
0010
0000
1000
0000
0000
1000
0100
0000
0000
0010
0000
0001
,
0010
0000
0000
0100
0000
0000
1000
0000
0100
0010
0000
0000
,
0001
0000
0100
0010
0000
2000
0000
0000
0000
3001
0000
0000
,
0000
0000
0010
0100
0000
1000
0100
0000
0010
0001
0000
0100
,
0000
0000
0010
1000
0000
0100
1000
0000
0010
0100
0000
0000
,
0000
0000
0001
0010
0000
0010
0000
0010
0000
0010
0000
0100
,
0000
0000
0000
1000
0000
0000
0010
1000
0010
2000
0000
0000
,
3010
0000
0100
0010
0000
0000
0101
0000
0000
0010
0000
0100
,
0010
0000
0000
1100
0000
0000
1000
0000
0010
0100
0000
0000
,
0010
0000
1000
0001
0000
0000
0100
0000
0001
0100
0000
0010
,
1000
0000
0002
0000
0000
0000
0013
0000
0000
0001
0000
1000
,
0100
0000
1000
0100
0000
0010
0100
0000
0010
0001
0000
1000
,
0001
0000
1000
0001
0000
0100
0010
0000
1000
0010
0000
0100
,
0001
0000
1000
0010
0000
0100
0001
0000
1000
0100
0000
0010
,
0000
0001
0000
0000
1000
0000
0020
0000
0000
0000
0030
0000
1000
0000
0002
0000
0000
0000
0000
0000
0000
0000
0000
0000
,
0013
0000
0000
1100
0000
0000
0100
0000
0000
0010
0000
0002
,
0000
0000
0000
0103
0000
0010
0000
0000
1010
0000
0000
1000
,
0001
0000
0000
0001
0000
0020
0000
0000
0000
0000
0000
0000
,
0031
0000
1000
0100
0000
0010
0200
0000
0000
0000
0000
0000
,
1300
0000
0001
0100
0000
0010
0200
0000
0000
0000
0000
0000
,
0301
0000
1000
0001
0000
0010
0100
0000
0010
0001
0000
0100
,
0010
0000
1000
0001
0000
0010
0100
0000
1000
0010
0000
0100
,
0010
0000
1000
0010
0000
0100
0001
0000
0000
0000
0000
0001
,
1000
0000
0000
1000
0000
0100
0010
0000
0000
0100
0000
0010
,
0001
0000
1000
0010
0000
0000
0000
0000
0010
0100
0000
0000
,
0000
0000
0010
1000
0000
0001
0100
0000
0000
0110
0000
0000
,
1000
0000
0010
0100
0000
0000
0011
0000
0000
1000
0000
0100
,
0010
0000
0000
0101
0000
0000
0010
0000
1000
0001
0000
0000
,
1010
0000
0000
0100
0000
0001
0100
0000
0001
2000
3000
0000
,
0001
0000
0000
0000
1000
0000
0010
0000
1000
0000
0000
0000
1000
0000
0100
0010
,
0100
0000
0010
0000
0001
0000
1000
0001
1000
0000
0010
0000
0100
0000
0010
0000
,
1000
0000
0100
0000
1000
0001
1000
0000
0010
0000
0100
0001
0100
0000
0001
0000
,
0010
0001
0010
0000
0100
0000
0000
1000
0000
0100
0000
1000
0010
0000
1000
0000
,
0100
0010
0100
0010
0100
0000
0010
0001
0010
0000
0001
0100
0001
0000
0100
0000
,
0010
1000
0010
1000
0010
0000
1000
0100
1000
0100
1000
0000
0001
0100
0001
1000
,
0001
0100
0001
0100
0010
0100
0010
0100
0010
1000
0001
1000
0010
1000
0100
1000
,
0100
0010
0100
0010
0001
0010
0001
0100
0001
0100
0001
0100
0010
1000
0010
1000
,
0001
0000
0000
0010
0000
0000
0010
0000
0100
0000
0000
0000
1001
0000
0000
0000
,
1000
0000
0010
0100
0000
0100
0001
0000
0010
0000
0100
0000
1100
0000
0000
0000
,
1000
0010
1000
0001
1000
0000
0100
0000
0010
0001
1000
0001
0010
0000
0100
0000
,
1000
0001
1000
0001
1000
0001
1000
0001
0100
0010
0100
0010
0100
0010
0100
0010
,
1000
0000
0001
0100
0001
0000
0010
0000
1000
0000
0100
1000
0100
0000
0010
0000
,
0010
0000
0001
0100
0001
0000
1000
0010
1000
0000
0100
0010
0001
0000
0100
0000
,
0010
1000
0000
1000
0001
0000
0010
0100
0010
0100
0000
0100
0000
1000
0100
0010
,
0001
0100
0000
0010
0100
0000
0001
1000
0001
0000
0000
0000
1001
0000
0000
0000
,
0001
0000
0100
0000
0000
0100
0010
0000
0000
1000
0000
0100
,
1000
0000
0100
1000
0000
0200
0310
0000
0000
0010
0000
0001
,
0000
0000
0001
0100
0000
0000
0001
0000
1000
0100
0000
0010
,
0001
0000
0020
0130
0000
0000
1000
0000
0010
1000
0000
0001
,
0000
0000
0001
0010
0000
0000
0100
0000
1000
0100
0000
0000
,
0010
0000
0100
0010
0000
0001
0000
0000
1000
0001
0000
0000
,
0010
0000
0100
1000
0000
0010
0000
0000
0000
0000
0000
0000
,
0000
0000
0000
0000
1000
0000
0000
0001
0000
0000
1000
0000
0000
0001
0000
0000
,
1000
0000
0000
1010
0000
0000
0010
0000
0000
0100
0000
0010
,
0000
0000
0010
0100
0000
0000
0010
0000
1000
0001
0000
0000
,
0100
0000
0001
1000
0000
0000
0100
0000
1000
0100
0000
0010
,
0000
0000
0000
0001
0000
0100
0010
0000
1000
0100
0000
0010
,
0001
0000
0010
0100
0000
1000
0010
0000
0100
0001
0000
1000
,
0100
0000
0010
0100
0000
1000
0010
0000
1000
0001
0000
0010
,
0001
0000
0000
0000
1000
0000
0100
0000
0000
0000
1000
0000
0000
0001
0000
0000
0010
0000
0100
0000
0000
0000
0000
0000
,
0001
0000
2000
0000
0000
0000
3010
0000
0000
0101
0000
0000
,
0100
0000
0000
0001
0000
0010
0000
0000
0000
0010
0000
0100
,
0000
0000
1100
0000
0000
1000
0010
0000
0000
0010
0000
0200
,
0000
0000
0000
0000
0000
0000
0301
0000
0100
0010
0000
1000
,
0002
0000
0000
0000
0000
0000
0013
0000
0100
1000
0000
0001
,
0020
0000
0000
0000
0000
0000
0130
0000
1000
0010
0000
0100
,
0001
0000
0010
0100
0000
1000
0001
0000
0010
0100
0000
0010
,
0001
0000
1000
0100
0000
0010
0001
0000
0100
0001
0000
1000
,
0200
0000
0000
0000
,
0000
0000
0000
0000
,
0300
0000
0000
0000
;

//---------------dance-single - ----------------
#NOTES:
     dance-single:
     :
     Medium:
     12:
     0.452735,0.642078,0.225747,0.312573,0.138921,365.000000,339.000000,26.000000,36.000000,0.000000,0.000000,0.452735,0.642078,0.225747,0.312573,0.138921,365.000000,339.000000,26.000000,36.000000,0.000000,0.000000:
0000
0000
0000
0000
,
0000
0000
0000
0000
,
0000
0000
0000
0000
,
0000
0000
0000
0000
,
0000
0000
0000
0000
,
0000
0000
0000
0000
,
0000
0000
0000
0000
,
0000
0000
0000
0000
,
0000
0000
0000
0000
,
1000
0000
0001
1000
0001
0000
0101
0000
,
0010
0000
0100
0010
0100
1000
0100
0000
,
2010
3001
0210
0301
,
0012
0103
2001
3100
,
0110
0000
0010
1000
0001
0000
0011
0000
,
0100
0000
0010
0100
0010
0001
1000
0000
,
0010
0000
1000
0100
0010
0000
0001
0000
,
2002
0000
0000
3003
,
0001
1000
0000
0000
0000
0000
1000
0000
0000
0100
0000
0000
,
0010
0100
1000
0010
,
0100
0000
0000
0100
0000
0002
0000
0000
0000
0013
0000
0000
,
0000
0001
0010
0001
,
0000
1000
0100
1000
,
0000
0000
0000
0010
0000
0100
0000
0010
0000
0100
0000
0010
,
0000
0010
1000
1100
,
0010
0001
0101
0010
,
0100
0101
1000
0100
,
0010
0001
0100
0010
,
0010
0000
2000
0000
0000
0000
3100
0000
0000
0010
0000
0001
,
0010
0000
0000
0100
0000
0000
1000
0000
0010
1000
0000
0000
,
0001
0000
0000
0010
0000
0100
0010
0000
0000
0001
0000
0000
,
0100
0000
0000
0010
0000
0000
1000
0000
0000
0002
0000
2000
,
0003
0000
0000
3000
0000
0000
0101
0000
0000
0000
0000
0000
0000
0000
0000
0000
0022
0000
0000
0000
0000
0000
0000
0000
,
0033
0000
0000
1100
0000
0000
1010
0000
0000
0000
0000
0220
,
0000
0000
0000
0330
0000
1000
0000
0000
0100
0000
0000
0100
,
0010
0000
0000
0010
0000
0002
0000
0000
0000
0003
0000
0000
,
0010
0000
0000
0001
0000
0010
0200
0000
0000
0300
0000
0000
,
0100
0000
0000
1000
0000
0100
0020
0000
0000
0030
0000
0000
,
0010
0001
1000
0010
,
0200
0010
0010
0301
,
0010
0000
0000
0100
0000
0000
1000
0000
0000
0000
0000
1000
,
0010
0001
0100
0010
,
1000
0000
0000
0100
0000
0000
0000
0000
0100
0010
0000
0000
,
0000
0010
0001
0020
,
0001
0130
0200
1000
,
1300
2000
0010
3001
,
0002
0013
0100
1001
,
0010
0000
1000
0010
1000
0000
0100
1000
,
0010
1000
0100
1000
0100
1000
0001
1000
,
0001
0100
0010
0100
0010
1000
0001
1000
,
0010
0100
0010
0100
0001
0010
0001
0000
,
1000
0010
0100
0001
0100
0010
1000
0000
,
0001
0010
0100
1000
0100
0010
0001
0010
,
0001
0100
0010
0100
0010
1000
0001
1000
,
0100
0010
0001
0100
1000
0100
0001
0010
,
0100
0000
0100
1000
0100
0000
1010
0000
,
0100
0010
0100
0000
0001
0000
1001
0000
,
0001
1000
0010
0000
0010
1000
0100
0000
,
0100
0010
0001
0010
0100
0010
0001
0000
,
0100
0010
1000
0010
1000
0001
1000
0100
,
0010
0100
0010
0001
0010
0100
1000
0000
,
1000
0000
0001
0100
0100
0000
0010
0000
,
1000
0001
0001
0010
0100
0000
0000
0000
,
0100
0000
1000
0000
0000
1000
0010
0000
0000
1000
0000
0000
,
0001
0100
0000
0001
,
1000
0010
0100
0001
,
0010
0000
0100
0010
,
0001
1000
0100
0001
,
0100
1000
0010
1000
,
0001
0000
0000
0010
0000
0200
0000
0000
0000
0000
0000
0000
,
0000
1300
0000
0101
,
0000
0110
0000
1000
,
0001
0100
0010
1000
,
0100
0000
0000
1000
0000
0000
0001
0000
0000
0010
0000
0001
,
0000
0002
0100
0103
,
0010
0200
0310
0002
,
1003
0010
1000
0100
,
0010
0000
0000
0000
0000
0000
0020
0000
0000
0000
0200
0000
0030
0000
0000
0300
0000
0000
1010
0000
0000
0000
0000
0000
,
0000
0000
2200
0000
0000
0000
3300
0000
0000
0011
0000
0000
,
0110
0000
0000
0000
0000
0202
0000
0000
0000
0303
0000
0000
,
0001
0000
1000
0000
0000
1000
0001
0000
0000
0001
0000
0200
,
0000
0000
0000
0000
0000
0000
0310
0000
0000
1000
0000
0100
,
0020
0000
0000
0000
0000
0000
0031
0000
0000
0100
0000
0010
,
2000
0000
3010
1000
,
0100
0010
0001
0100
,
0010
1000
0001
1000
,
0200
0000
0000
0000
,
0000
0000
0000
0000
,
0300
0000
0000
0000
;

//---------------dance-single - ----------------
#NOTES:
     dance-single:
     :
     Easy:
     8:
     0.264199,0.415462,0.052096,0.260478,0.043413,213.000000,207.000000,6.000000,30.000000,0.000000,0.000000,0.264199,0.415462,0.052096,0.260478,0.043413,213.000000,207.000000,6.000000,30.000000,0.000000,0.000000:
0000
0000
0000
0000
,
0000
0000
0000
0000
,
0000
0000
0000
0000
,
0000
0000
0000
0000
,
0000
0000
0000
0000
,
0000
0000
0000
0000
,
0000
0000
0000
0000
,
0000
0000
0000
0000
,
0000
0000
0000
0000
,
2000
0000
0000
3000
,
0020
0000
0000
0030
,
0200
0300
0020
0030
,
2000
3000
0002
0003
,
0020
0000
0000
0030
,
0200
0000
0000
0300
,
2000
0000
0000
3000
,
0002
0000
0000
0003
,
0000
0000
0100
0000
,
0010
0100
0010
0000
,
1000
0000
0000
0000
0000
0001
0000
0000
0000
1000
0000
0000
,
0000
1000
0001
1000
,
0000
0010
0100
0010
,
0000
0000
0000
1000
0000
0001
0000
1000
0000
0001
0000
0000
,
0000
0000
0000
0010
,
0000
0100
0100
0000
,
0001
0001
0000
1000
,
0010
1000
0000
0100
,
0000
0000
0001
0000
0000
0000
0010
0000
0000
0100
0000
0000
,
0000
1000
0000
0010
,
0000
0100
0000
0001
,
0010
0100
1000
2002
,
0000
0000
3003
0010
0000
0000
0000
0000
2000
0000
0000
0000
,
0000
0000
0000
3001
0000
0000
0100
0000
0000
0000
0000
0002
,
0000
0000
0013
0000
,
0010
0000
0000
0000
0000
0100
0000
0000
0000
0000
0000
0000
,
1000
0001
1000
0000
,
0010
0100
0010
0000
,
1000
0100
1000
0000
,
0001
0010
0001
0010
,
0001
0000
0100
0000
,
0110
0010
0000
1000
,
0000
0010
0000
0101
,
0000
0010
1000
0010
,
0000
1000
1000
0000
,
0001
0001
0000
0010
,
0010
0000
0100
1100
,
1000
0000
0001
0000
0100
0000
0010
0100
,
0010
1000
0001
0100
,
0010
1000
1000
0100
,
0010
0000
0100
0000
0100
0000
0010
0001
,
0010
0001
0100
0010
,
1000
0001
1000
0100
,
0010
0001
0100
0010
,
1000
0000
0001
0000
0100
0001
0100
0000
,
0020
1030
1000
0010
,
0100
0001
0001
1000
,
0200
0310
0020
0031
,
0002
1003
2000
3100
,
0010
0100
0100
0100
,
0010
0001
0001
0001
,
1000
0010
1000
1000
,
0100
0010
0001
0000
,
0000
0001
0000
1000
,
0001
1000
0000
0000
,
0100
0000
0010
0100
,
0010
0020
0000
0230
,
0000
2300
0000
3002
,
0000
0013
0000
1000
,
0001
2000
0000
0000
,
0000
3001
0000
0001
,
0000
1001
0000
1000
,
0000
0010
0000
0100
,
0000
0010
1000
0010
,
0000
1000
0000
0001
,
0000
0010
0000
0100
,
0000
1000
0000
0001
,
0000
0000
0000
0220
0000
0000
0000
0000
0330
0001
0000
0000
,
0000
0000
2000
0000
0000
0000
0000
0000
0000
3100
0000
0000
,
0010
0000
0000
0000
0000
0002
0000
0000
0000
0000
0000
0000
,
0103
0000
0000
0000
0000
0000
0100
0000
0000
0000
0000
0020
,
0000
0000
1030
0100
,
1000
0000
0001
0010
,
0001
0000
1000
0001
,
1000
0001
0100
0010
,
0100
0010
2000
0000
,
0000
0000
0000
0000
,
0000
0000
0000
0000
,
3000
0000
0000
0000
;

//---------------dance-single - ----------------
#NOTES:
     dance-single:
     :
     Beginner:
     5:
     0.171171,0.339923,0.112874,0.043413,0.000000,138.000000,125.000000,13.000000,5.000000,0.000000,0.000000,0.171171,0.339923,0.112874,0.043413,0.000000,138.000000,125.000000,13.000000,5.000000,0.000000,0.000000:
// measure 0
0000
0000
0000
0000
,  // measure 1
0000
0000
0000
0000
,  // measure 2
0000
0000
0000
0000
,  // measure 3
0000
0000
0000
0000
,  // measure 4
0000
0000
0000
0000
,  // measure 5
0000
0000
0000
0000
,  // measure 6
0000
0000
0000
0000
,  // measure 7
0000
0000
0000
0000
,  // measure 8
0000
0000
0000
0000
,  // measure 9
0010
0000
0000
0000
,  // measure 10
1000
0000
0000
0000
,  // measure 11
0001
0000
0001
0000
,  // measure 12
1000
0000
1000
0000
,  // measure 13
0100
0000
0000
0000
,  // measure 14
0010
0000
0000
0000
,  // measure 15
0100
0000
0000
0000
,  // measure 16
1001
0000
0000
0000
,  // measure 17
0010
0000
0000
0000
,  // measure 18
1000
0000
0000
0000
,  // measure 19
0001
0000
0000
0000
,  // measure 20
0000
0000
0000
0100
,  // measure 21
0000
0000
0000
0010
,  // measure 22
0000
0010
0000
0010
,  // measure 23
0000
0000
0000
1000
,  // measure 24
0000
0000
0001
0000
,  // measure 25
0000
1000
0000
0000
,  // measure 26
0010
0000
0000
0100
,  // measure 27
0000
0010
0000
0000
,  // measure 28
0000
1000
0000
0001
,  // measure 29
0000
1000
0000
0100
,  // measure 30
0000
0000
0000
0010
,  // measure 31
0000
0002
0000
0000
,  // measure 32
0000
1003
2000
0000
,  // measure 33
0000
0000
3010
0000
,  // measure 34
0010
0000
0000
0000
,  // measure 35
0100
0000
0000
0000
,  // measure 36
0010
0000
0000
0000
,  // measure 37
1100
0000
0000
0000
,  // measure 38
0011
0000
0000
0000
,  // measure 39
0100
0000
0010
0000
,  // measure 40
0100
0000
0000
1000
,  // measure 41
0000
0001
0000
1000
,  // measure 42
0000
0000
0000
0010
,  // measure 43
0000
0000
1000
0000
,  // measure 44
0000
0110
0000
0000
,  // measure 45
0101
0000
0000
1010
,  // measure 46
0010
0000
0000
0000
,  // measure 47
1000
0001
1000
0100
,  // measure 48
0010
0000
0010
0001
,  // measure 49
1000
0000
1000
0010
,  // measure 50
0100
0000
0100
0001
,  // measure 51
1000
0000
1000
0100
,  // measure 52
0010
0000
0010
0001
,  // measure 53
0010
0100
0100
0100
,  // measure 54
1100
0000
0010
0000
,  // measure 55
0101
0000
1000
0000
,  // measure 56
0010
0000
1010
0000
,  // measure 57
1100
0000
0011
0000
,  // measure 58
1000
0000
0001
1000
,  // measure 59
0010
0000
0010
0100
,  // measure 60
0010
0000
0100
0000
,  // measure 61
0100
0010
0100
0010
,  // measure 62
0000
1000
0000
0001
,  // measure 63
0000
1000
0000
0000
,  // measure 64
0001
0000
0010
0000
,  // measure 65
0001
0000
0000
0100
,  // measure 66
0000
0010
0000
0100
,  // measure 67
0000
0010
0000
0000
,  // measure 68
0000
0001
0000
0000
,  // measure 69
0000
1000
0000
1000
,  // measure 70
0000
0001
0000
0000
,  // measure 71
0000
1000
0000
0100
,  // measure 72
0000
0010
0000
0000
,  // measure 73
0000
0010
0000
0001
,  // measure 74
0000
1000
0000
0000
,  // measure 75
0000
1000
0000
0000
,  // measure 76
0000
0010
0000
0200
,  // measure 77
0000
0000
0000
0310
,  // measure 78
0002
0000
0000
0000
,  // measure 79
1003
0000
1000
0000
,  // measure 80
0000
0000
0100
0000
,  // measure 81
0000
0000
0011
0000
,  // measure 82
0000
0000
1001
0000
,  // measure 83
0000
0000
1000
0000
,  // measure 84
0010
0000
0200
0000
,  // measure 85
0000
0000
0000
0000
,  // measure 86
0000
0000
0000
0000
,  // measure 87
0300
0000
0000
0000
;
