#TITLE:Lighthouse;
#SUBTITLE:;
#ARTIST:Ookay x Fox Stevenson;
#TITLETRANSLIT:;
#SUBTITLETRANSLIT:;
#ARTISTTRANSLIT:;
#GENRE:;
#CREDIT:;
#BANNER:Lighthouse.png;
#BACKGROUND:Lighthouse-bg.png;
#LYRICSPATH:;
#CDTITLE:;
#MUSIC:Lighthouse.ogg;
#OFFSET:1.081090;
#SAMPLESTART:38.912224;
#SAMPLELENGTH:12.799999;
#LASTBEATHINT:0.124483;
#SELECTABLE:YES;
#BPMS:0.000000=150.000000
;
#STOPS:
;
#BGCHANGES:;
#KEYSOUNDS:;
#ATTACKS:;

//---------------dance-single - ----------------
#NOTES:
     dance-single:
     :
     Hard:
     11:
     0.469727,0.583195,0.193417,0.151370,0.012614,391.000000,368.000000,23.000000,18.000000,0.000000,0.000000,0.469727,0.583195,0.193417,0.151370,0.012614,391.000000,368.000000,23.000000,18.000000,0.000000,0.000000:
// measure 0
0000
0000
0000
0000
,  // measure 1
0000
0000
0000
0000
,  // measure 2
0000
0000
0000
0000
,  // measure 3
0000
0000
0000
0000
,  // measure 4
0000
0000
0000
0000
,  // measure 5
0000
0000
0000
0000
,  // measure 6
0000
0000
0000
0000
,  // measure 7
0000
0000
0000
0000
,  // measure 8
0000
0000
0000
0000
,  // measure 9
0020
0000
1000
1000
,  // measure 10
0000
0000
0100
0130
,  // measure 11
0002
0000
0010
1000
,  // measure 12
1003
0000
1010
0000
0000
0110
0000
0000
,  // measure 13
0102
0000
0000
1003
0100
1000
0100
0010
,  // measure 14
0002
0010
0013
0000
,  // measure 15
2000
0000
0000
3001
0100
0001
0100
0010
,  // measure 16
1000
0000
0011
0000
0010
0100
0010
0100
,  // measure 17
1000
0000
0010
1000
0001
1000
0000
0100
,  // measure 18
0000
0010
0100
0010
0000
0001
0010
0001
,  // measure 19
0100
0000
0001
0100
0010
0100
0000
0010
,  // measure 20
0000
1000
0010
0100
0000
0001
0100
0010
,  // measure 21
1000
0010
1000
0100
0010
0001
0100
0001
,  // measure 22
0010
0100
0010
0001
1000
0010
0100
0010
,  // measure 23
1000
0100
0010
0100
1000
0010
0100
0001
,  // measure 24
1000
0001
1000
0001
1000
0001
0100
0010
,  // measure 25
1010
0000
0000
0010
0010
1000
1000
0010
,  // measure 26
0010
1000
0100
0100
0100
0010
0001
0100
,  // measure 27
0101
0000
0000
0001
0001
0100
0001
0001
,  // measure 28
0001
0010
0100
1000
0010
0100
0001
0010
,  // measure 29
0110
0000
0000
1000
1000
0100
0100
1000
,  // measure 30
1000
0010
1000
1000
1000
0001
0100
0010
,  // measure 31
1010
0000
0000
0100
0100
0010
0100
0100
,  // measure 32
0100
0000
0001
0010
0001
0000
0010
0000
0100
0000
1000
0100
1000
0000
0001
0000
,  // measure 33
0101
0000
0000
0010
0010
0001
0001
0010
,  // measure 34
0010
0100
0010
0010
0010
0001
0100
0001
,  // measure 35
1001
0000
0000
0100
0100
0010
1000
1000
,  // measure 36
1000
0010
1000
0100
0010
0100
1000
0001
,  // measure 37
0011
0000
0000
0100
0100
1000
1000
0001
,  // measure 38
0001
0010
0001
0001
0001
1000
0001
0010
,  // measure 39
0110
0000
0000
0100
1000
0000
0010
1000
,  // measure 40
0010
0100
0000
0100
0001
0010
0100
1000
,  // measure 41
2200
3300
0000
0010
0010
1000
0010
0010
,  // measure 42
0010
1000
0010
0010
0010
0100
0001
0001
,  // measure 43
0001
0000
0000
0010
0010
0100
0010
0010
,  // measure 44
0010
0001
0100
0010
1000
0100
0010
0001
,  // measure 45
0100
0000
0000
0010
0010
0100
0010
0010
,  // measure 46
0010
1000
0001
0001
0001
0010
0100
0100
,  // measure 47
0100
0000
0000
0100
1000
0010
1000
0001
,  // measure 48
0100
0000
0010
0000
0100
0000
0001
0000
1000
0000
0010
0100
0010
0000
0100
0000
,  // measure 49
0002
0003
0000
1000
1000
1000
1000
1000
,  // measure 50
1000
0010
1000
1000
1000
0100
0010
0010
,  // measure 51
0110
0000
0000
0100
0100
0010
0100
0100
,  // measure 52
0100
1000
0001
0010
0001
0100
0010
1000
,  // measure 53
0100
0000
0000
0001
0001
0001
0001
0001
,  // measure 54
0001
0010
0001
0001
0001
0010
0100
0100
,  // measure 55
0100
0000
0000
1000
0010
0100
0010
1000
,  // measure 56
0001
0010
0100
1000
0100
0010
0001
0000
,  // measure 57
2010
0000
0000
0100
0000
0000
3001
0000
,  // measure 58
0001
0100
0010
0100
0010
1000
0000
0000
,  // measure 59
0012
0010
1000
0013
,  // measure 60
0010
0001
0100
0000
0010
0000
1010
0000
,  // measure 61
1002
0000
0000
0010
0000
0000
1003
0000
,  // measure 62
1000
0010
0100
0010
0100
0001
0000
0000
,  // measure 63
0021
0100
0031
0010
,  // measure 64
0100
0010
0100
0000
1100
0000
1000
0000
,  // measure 65
0020
0000
0000
2030
0000
0000
3002
0000
,  // measure 66
0000
0000
0010
0000
0000
0100
0000
0000
,  // measure 67
0100
0000
0000
0100
0000
0000
0103
0000
,  // measure 68
0000
0000
0011
0000
0000
1100
0000
0000
,  // measure 69
2010
0000
0000
0001
0000
0000
0100
0000
,  // measure 70
0000
0000
0100
0000
0000
0010
0000
0000
,  // measure 71
0010
0000
0000
0001
0000
0000
0001
0000
,  // measure 72
3000
0000
0002
0000
0003
2000
0000
0000
,  // measure 73
3000
0000
0000
0000
;

//---------------dance-single - ----------------
#NOTES:
     dance-single:
     :
     Medium:
     8:
     0.327968,0.427515,0.159779,0.109323,0.000000,273.000000,254.000000,19.000000,13.000000,0.000000,0.000000,0.327968,0.427515,0.159779,0.109323,0.000000,273.000000,254.000000,19.000000,13.000000,0.000000,0.000000:
0000
0000
0000
0000
,
0000
0000
0000
0000
,
0000
0000
0000
0000
,
0000
0000
0000
0000
,
0000
0000
0000
0000
,
0000
0000
0000
0000
,
0000
0000
0000
0000
,
0000
0000
0000
0000
,
0000
0000
0000
0000
,
0000
1000
0100
0000
,
0000
0100
0010
0000
,
0000
0010
0001
0100
,
0020
0000
0030
0000
,
0000
0000
0010
1000
0010
1000
0010
0000
,
0100
0100
0000
0000
,
0000
0000
0010
0001
0010
0001
0010
0000
,
0001
1000
0000
0000
,
0100
1000
0010
0100
,
0010
0000
1000
0000
0001
1000
0001
0000
,
0010
0100
1000
0010
,
1000
0000
0001
0000
0100
0001
0100
0000
,
0010
0100
0001
0101
,
0001
1000
0010
1010
,
1000
0100
0010
0001
,
1000
0010
1000
0010
0100
0001
0010
0000
,
1001
0000
0000
1000
1000
0000
1000
1000
,
1000
0000
1000
1000
1000
0000
0001
0000
,
1001
0000
0000
0001
0001
0000
0001
0001
,
0001
0010
0100
1000
,
1001
0000
0000
0100
0100
0000
0100
0100
,
0100
0000
0100
0100
0100
0000
0010
0000
,
0011
0000
0010
0001
,
0100
0000
0010
0000
1000
0100
0010
0000
,
0011
0000
0000
0010
0010
0000
0010
0010
,
0010
0000
0010
0010
0010
0000
0100
0010
,
0100
0000
0000
1000
1000
0000
0001
0001
,
0001
1010
1100
0011
,
2002
3003
0000
0001
0001
0000
0100
0100
,
0100
0000
0001
0001
0001
0000
1000
0000
,
1010
0010
0100
0001
,
1000
0000
0100
0000
0010
0001
1000
0100
,
0010
0000
0000
0100
0100
0000
0100
0100
,
0100
0000
0100
0100
0100
0000
0010
0010
,
0010
0000
0000
0001
0001
0000
0001
0001
,
0001
1000
0001
0100
,
0110
0000
0000
0010
0010
0000
0010
0010
,
0010
0000
0010
0010
0010
0000
1000
0000
,
1001
0000
0010
0100
,
0010
0000
0001
0000
0100
0001
0100
0000
,
0110
0000
0000
1000
1000
0000
0010
0010
,
0010
0000
0100
0100
0100
0000
0001
0001
,
0001
0000
0000
0010
0010
0000
0001
0001
,
0001
0110
1100
1010
,
0101
0000
0000
0100
0100
0000
0010
0010
,
0010
0000
0100
0100
0100
0000
0001
0001
,
0001
0000
0000
0010
0010
0000
0100
0000
,
1000
0010
0100
0001
,
2000
0000
0000
3200
0000
0000
0310
0000
,
0001
0010
0100
0010
,
0001
0100
1000
0100
,
0001
0000
1000
0000
0010
1000
0010
0000
,
2000
0000
0000
3002
0000
0000
0013
0000
,
0100
1000
0010
1000
,
0100
0001
0100
1000
,
0010
0100
0001
0010
,
0002
0000
0000
0023
0000
0000
0230
0000
,
0000
0000
0000
0000
,
0000
0000
0000
0000
,
0000
0000
0010
0000
0000
1300
0000
0000
,
2000
0000
0000
3020
0000
0000
0230
0000
,
0000
0000
0000
0000
,
0000
0000
0000
0000
,
0000
0000
0010
0000
0000
0301
0000
0000
;

//---------------dance-single - ----------------
#NOTES:
     dance-single:
     :
     Easy:
     5:
     0.200625,0.276250,0.033638,0.100913,0.000000,167.000000,163.000000,4.000000,12.000000,0.000000,0.000000,0.200625,0.276250,0.033638,0.100913,0.000000,167.000000,163.000000,4.000000,12.000000,0.000000,0.000000:
0000
0000
0000
0000
,
0000
0000
0000
0000
,
0000
0000
0000
0000
,
0000
0000
0000
0000
,
0000
0000
0000
0000
,
0000
0000
0000
0000
,
0000
0000
0000
0000
,
0000
0000
0000
0000
,
0000
0000
0000
0000
,
0000
0000
1000
0010
,
0000
0000
0010
0100
,
0000
0000
0100
0001
,
0100
0001
0000
0000
,
0000
0000
1000
0001
,
1000
1000
1000
0000
,
0000
0000
0001
1000
,
0001
0001
0001
0000
,
0010
0000
0100
0000
,
1000
0010
1000
0000
,
0001
0000
0100
0000
,
0010
0100
0001
0000
,
1000
0000
0001
0001
,
0000
0000
1000
1000
,
0000
0000
0010
0100
,
0010
0100
0000
0000
,
1001
0000
1000
0010
,
0010
1000
1000
0010
,
0100
0000
0001
0010
,
0010
0001
0010
0100
,
1000
0000
0010
1000
,
1000
0010
0010
0100
,
0001
0000
1000
0000
,
0001
0000
0010
0000
,
1001
0000
0100
0001
,
0001
0100
0100
0010
,
1000
0000
0001
0010
,
0010
0100
0010
0001
,
1000
0000
0001
1000
,
1000
0010
0010
1000
,
0100
0000
0010
0000
,
0100
0100
0000
0000
,
1001
0000
0010
0010
,
0010
1000
1000
0001
,
0001
0000
0100
0100
,
0100
0010
0100
0001
,
1000
0000
0001
0010
,
0010
0100
0100
1000
,
1000
0000
0001
0000
,
1000
0000
0010
0000
,
0110
0000
0001
0001
,
0001
0100
0100
0010
,
0010
0000
1000
0100
,
0100
1000
0010
1000
,
0001
0000
0100
0100
,
0100
0010
0010
1000
,
0001
0000
1000
0000
,
0001
0000
1000
0000
,
0020
0000
1030
0000
,
2000
0001
3001
0000
,
0002
0000
0013
0000
,
0020
0100
0130
1000
,
0020
0000
1030
0000
,
2000
0100
3100
0000
,
0200
0000
0310
0000
,
0020
0001
0031
0010
,
0200
0000
0000
0000
,
0000
0000
0000
0000
,
0000
0000
0000
0000
,
0300
2000
0000
0000
,
3020
0000
0000
0000
,
0000
0000
0000
0000
,
0000
0000
0000
0000
,
0000
0230
0000
0000
,
0300
0000
0000
0000
;

//---------------dance-single - ----------------
#NOTES:
     dance-single:
     :
     Beginner:
     2:
     0.130947,0.167768,0.067276,0.000000,0.000000,109.000000,101.000000,8.000000,0.000000,0.000000,0.000000,0.130947,0.167768,0.067276,0.000000,0.000000,109.000000,101.000000,8.000000,0.000000,0.000000,0.000000:
0000
0000
0000
0000
,
0000
0000
0000
0000
,
0000
0000
0000
0000
,
0000
0000
0000
0000
,
0000
0000
0000
0000
,
0000
0000
0000
0000
,
0000
0000
0000
0000
,
0000
0000
0000
0000
,
0000
0000
0000
0000
,
1000
0000
0000
0010
,
0000
0000
0100
0100
,
0000
0000
0001
0000
,
0000
0010
0000
0000
,
0100
0000
0000
0010
,
0000
0001
0001
0000
,
1000
0000
0010
0000
,
0000
1001
0000
0000
,
0001
0000
0001
0000
,
0010
0000
0010
0000
,
0100
0000
0100
0000
,
1000
0000
1000
0000
,
0010
0000
1000
1000
,
0000
0000
0001
0001
,
0000
0000
1000
1000
,
1000
1000
0000
0000
,
1001
0000
0010
0000
,
0100
0000
0010
0000
,
0001
0000
0100
0000
,
0010
0000
1000
0000
,
1001
0000
1000
0000
,
0010
0000
0100
0000
,
0010
0000
0010
0000
,
1000
0000
0001
0000
,
1001
0000
0001
0000
,
0001
0000
0001
0000
,
0010
0000
0100
0000
,
0010
0000
0100
0000
,
1000
0000
0010
0000
,
1000
0000
0001
0000
,
0010
0000
0100
0000
,
0010
0000
0001
0000
,
1001
0000
1000
0000
,
0010
0000
0100
0100
,
0100
0000
0010
0000
,
1000
1000
1000
0000
,
1001
0000
0010
0000
,
0001
0000
0010
0010
,
0010
0000
0100
0000
,
1000
0000
0010
0000
,
1000
0000
0001
0000
,
0001
0000
0001
0001
,
0001
0000
1000
0000
,
0010
0010
0010
0000
,
0110
0000
0100
0000
,
0001
0000
1000
1000
,
1000
0000
0010
0000
,
1000
0000
0001
0000
,
1001
0000
0000
0000
;
