#TITLE:Krab Borg;
#SUBTITLE:;
#ARTIST:Chris Kogos;
#TITLETRANSLIT:;
#SUBTITLETRANSLIT:;
#ARTISTTRANSLIT:;
#GENRE:;
#CREDIT:;
#BANNER:;
#BACKGROUND:;
#LYRICSPATH:;
#CDTITLE:;
#MUSIC:Krab Borg Remix.ogg;
#OFFSET:0.283085;
#SAMPLESTART:151.269531;
#SAMPLELENGTH:18.669113;
#SELECTABLE:YES;
#BPMS:0.000000=93.000000
,43.500000=128.000000
,63.000000=151.000000
,67.000000=159.000000
,99.000000=158.800003
,131.500000=158.500000
,163.500000=187.000000
,219.500000=135.000000
,249.500000=100.000000
,267.000000=105.000000
,288.000000=85.000000
;
#STOPS:27.500000=1.320000,
43.500000=7.500000,
53.000000=1.500000,
99.000000=1.150000,
163.500000=7.220000,
187.500000=1.100000,
243.000000=1.270000,
267.000000=1.170000,
288.000000=7.375000
;
#BGCHANGES:0.500=Krab Borg Remix Compilation.avi=1.000=0=0=1=====,
99999=-nosongbg-=1.000=0=0=0 // don't automatically add -songbackground-
;
#KEYSOUNDS:;
#ATTACKS:;

//---------------dance-single - ----------------
#NOTES:
     dance-single:
     :
     Challenge:
     1:
     0.540298,0.694975,0.303957,0.143294,0.542780,871.000000,801.000000,70.000000,33.000000,0.000000,0.000000,0.540298,0.694975,0.303957,0.143294,0.542780,871.000000,801.000000,70.000000,33.000000,0.000000,0.000000:
// measure 0
0000
0000
0000
0000
,  // measure 1
0000
0000
0000
0000
,  // measure 2
0000
0000
0000
0000
0000
0000
0000
0000
0000
0000
0000
0000
0000
0000
0000
0000
0000
0000
0000
0000
0000
0000
0000
0000
0000
0000
0000
0000
0000
0000
0000
0000
0000
0000
0000
0000
0000
0000
0000
0000
0000
0000
0000
0000
0000
0000
0000
0000
0000
0000
0000
0000
0000
0000
0000
0000
0000
0000
0000
0000
0000
0000
0000
1001
,  // measure 3
0000
0000
0000
0000
0000
0000
0000
0000
0000
0000
0000
1000
0000
0000
0000
0010
0000
0000
0000
1000
0000
0000
0000
0000
0000
0000
0000
1000
0000
0000
0000
0100
0000
0000
0000
0000
0000
0000
0000
0010
0000
0000
0000
0000
0000
0000
0000
0011
0000
0000
0000
0000
0000
0000
0000
0001
0000
0000
0000
0010
0000
0000
0000
0100
,  // measure 4
0000
0000
0000
1000
0000
0000
0000
0010
0000
0000
0000
1000
0000
0000
0000
0100
0000
0000
0000
0010
0000
0000
0000
0001
0000
0000
0000
0100
0000
0000
0000
0010
0000
0000
0000
0100
0000
0000
0000
0001
0000
0000
0000
1000
0000
0000
0000
0001
0000
0000
0000
0010
0000
0000
0000
0100
0000
0000
0000
0000
0000
0000
0000
1100
,  // measure 5
0000
0000
0000
0000
0000
0000
0000
0000
0000
0000
0000
0001
0000
0000
0000
0010
0000
0000
0000
0001
0000
0000
0000
0000
0000
0000
0000
0001
0000
0000
0000
0100
0000
0000
0000
0000
0000
0000
0000
0010
0000
0000
0000
0000
0000
0000
0000
1010
0000
0000
0000
0000
0000
0000
0000
1000
0000
0000
0000
0010
0000
0000
0000
0100
,  // measure 6
0000
0000
0000
0001
0000
0000
0000
0010
0000
0000
0000
0001
0000
0000
0000
0100
0000
0000
0000
0010
0000
0000
0000
1000
0000
0000
0000
0100
0000
0000
0000
0010
0000
0000
0000
0100
0000
0000
0000
1000
0000
0000
0000
0010
0000
0000
0000
0100
0000
0000
0000
0001
0000
0000
0000
0010
0000
0000
0000
0000
0000
0000
0000
0000
,  // measure 7
1001
0000
0010
1000
0100
0000
0100
0020
0000
0000
0031
0100
0000
0001
1000
0000
,  // measure 8
0010
0000
0000
0000
1100
0000
0001
0002
0000
0000
0000
0010
0000
0000
1003
0000
,  // measure 9
0100
0000
1000
0000
0010
1000
0010
0100
0010
0000
1000
0001
0000
0010
0000
0020
,  // measure 10
0000
0000
0030
0100
1000
0001
0000
0002
0000
0000
0003
1000
0100
0000
1000
0000
,  // measure 11
0010
0000
1001
0000
0010
0001
1000
0100
,  // measure 12
1000
0020
0000
1030
0100
0010
0002
0000
,  // measure 13
0013
0100
1000
0001
0100
1000
0100
0001
,  // measure 14
1000
0010
0001
1000
0100
0001
0010
0100
,  // measure 15
1000
0001
0010
0001
0100
0010
0000
0000
,  // measure 16
0000
0000
0000
0000
0000
0000
0001
1000
,  // measure 17
0001
0000
1000
0010
1000
0000
0100
0010
,  // measure 18
0001
0010
0100
1000
0010
0000
1000
0001
,  // measure 19
1000
0000
0100
1000
0010
0000
2000
3020
,  // measure 20
0230
0000
0302
0000
0023
0000
0230
0000
2300
0000
3020
0000
0130
0001
0100
0010
,  // measure 21
1000
0100
0010
0000
0100
1000
0100
0010
0001
0100
0010
0000
1000
0001
0100
0010
,  // measure 22
0000
0100
0001
0000
1000
0001
0010
0100
0000
1000
0001
0000
0100
0010
0100
0001
,  // measure 23
0010
0100
1000
0000
0100
0010
0100
1000
0010
0100
0001
0000
1000
0010
0000
0010
,  // measure 24
0100
0000
0100
0000
0001
0010
0000
0010
0100
0010
0100
0010
0000
0000
1001
0000
,  // measure 25
0000
1010
0000
0110
0000
0101
0011
0000
,  // measure 26
1001
0000
0000
0000
0010
0000
0001
0000
0010
0000
0100
1000
0100
0010
0001
0000
,  // measure 27
0100
0010
1000
0001
1000
0010
0100
0010
,  // measure 28
1000
0100
0010
1001
0000
0101
0000
1010
,  // measure 29
0000
1100
0000
0110
0000
0110
1001
0000
,  // measure 30
0101
0000
1000
0010
1000
0001
0200
0000
,  // measure 31
0010
0310
1000
2100
0000
0010
3001
0000
,  // measure 32
0000
0000
0001
0100
0010
1000
0100
0010
0001
1000
0010
1000
0100
0010
0001
0000
,  // measure 33
0000
1010
0000
1100
0000
0011
0101
0000
,  // measure 34
1001
0000
0000
0000
0100
0000
0010
0000
0100
0000
0001
0010
0001
0010
0100
0000
,  // measure 35
1000
0010
1000
0001
0010
0001
1000
0010
,  // measure 36
1000
0001
1000
0110
0000
0101
0000
1010
,  // measure 37
0000
1010
0000
0110
0000
0011
1100
0000
,  // measure 38
1001
0000
1000
0100
0010
0001
0200
0000
,  // measure 39
1000
0010
1000
0301
0000
0000
1020
0000
,  // measure 40
0100
0001
0100
1030
0000
0000
0000
0000
,  // measure 41
1001
0000
0001
0010
0100
1000
0010
0000
,  // measure 42
1000
0001
0100
0010
1000
0000
0000
0000
,  // measure 43
0012
1003
2100
3001
,  // measure 44
0110
1010
1001
0010
,  // measure 45
1100
0110
0011
0110
,  // measure 46
1001
0110
1001
0000
,  // measure 47
0010
0000
0000
1000
0100
1000
0100
0000
0000
0010
0000
0000
0001
0000
0000
0001
0000
0000
0100
0000
0000
0010
0000
0000
,  // measure 48
1000
0000
0000
0000
0000
0000
0001
0000
0100
0000
0001
0000
0100
0000
0000
0000
0000
0000
0010
0000
0000
0000
0000
0000
2000
0000
0000
0000
0000
0000
0000
0000
0000
0000
0000
0000
3000
0000
0000
0000
0000
0000
0001
0000
0000
0010
0000
0000
,  // measure 49
0100
0000
0000
0010
0100
0010
0001
0000
0000
1000
0000
0000
0100
0000
0000
0100
0000
0000
1000
0000
0000
0010
0000
0000
,  // measure 50
0100
0000
0000
0000
0000
0000
0001
0000
1000
0000
0001
0000
1000
0000
0000
0000
0000
0000
0100
0000
0000
0000
0000
0000
0020
0000
0000
0000
0000
0000
0000
0000
0000
0000
0000
0000
0030
0000
0000
0000
0000
0000
0001
0000
0000
1000
0000
0000
,  // measure 51
0100
0000
0000
1000
0010
1000
0010
0000
0000
0100
0000
0000
0001
0000
0000
0100
0001
0100
0001
0000
0000
0010
0000
0000
,  // measure 52
0100
0000
0000
1000
0100
0010
0001
0000
0000
1000
0000
0000
0020
0000
0000
0000
0000
0000
2030
0000
0000
0000
0000
0000
,  // measure 53
3001
0000
0000
0100
0010
0100
0010
0000
0000
1000
0000
0000
0001
0000
0000
0010
0001
1000
0100
0000
0000
1000
0000
0000
,  // measure 54
0010
0000
0000
0100
0001
0100
0010
0000
0000
1000
0000
0000
0002
0000
0000
0000
0000
0000
0003
0000
0000
0000
0000
0000
,  // measure 55
0000
0000
0010
0000
0000
0010
1000
0000
0100
0000
1000
0000
0000
0001
0000
0000
,  // measure 56
0001
0000
1000
0000
0000
0010
0100
0000
0010
0000
1000
0000
0000
0100
0000
0000
,  // measure 57
0100
0000
0010
0000
0000
0010
0001
0000
1000
0000
0001
0000
0000
0100
0000
0000
,  // measure 58
0100
0000
0000
0000
0001
0000
0000
0000
0000
1000
0000
0000
0010
0000
0000
0000
0000
0010
0000
0000
1000
0000
0000
0000
0000
0000
0000
0000
0000
0000
0000
0000
,  // measure 59
0000
0000
0000
0010
0000
0000
1000
0000
0000
0000
0000
0000
0001
0000
0000
0000
0000
0000
0100
0000
0010
0000
0100
0000
0010
0000
0100
0000
0010
0000
0001
0000
0000
0000
0000
0000
0000
0000
0000
0000
0000
0000
0000
0000
0000
0000
0000
0000
,  // measure 60
0000
0000
0011
0000
0010
0000
0110
0000
1100
0000
1001
0000
0000
0000
0001
1000
,  // measure 61
0001
0000
0100
0000
0010
0000
0000
0000
0000
0000
0000
0010
1000
0010
0000
1000
,  // measure 62
0000
0100
0000
0000
0000
1001
0000
0000
0000
0000
0100
0000
0001
0001
1000
0000
,  // measure 63
0001
0000
0010
0000
0100
0000
1001
0000
1001
0000
0100
0000
1000
1000
0010
0000
,  // measure 64
1000
0000
0100
0000
0010
0000
0011
0000
0011
0000
0100
0000
0010
0010
0100
0000
,  // measure 65
0001
1000
0010
1000
1000
0011
1000
0101
,  // measure 66
0010
1100
0010
1001
0100
1010
0001
1000
,  // measure 67
0001
0000
0010
0000
0001
0000
0010
0000
0000
0000
0000
0000
0100
0000
1000
0000
0100
0000
1000
0000
0000
0000
0010
0000
0000
0000
0010
0000
0000
0000
2000
0000
0000
0000
0000
0000
3010
0000
0000
0100
0000
0000
0001
0000
1000
0000
0010
0000
,  // measure 68
1000
0000
0100
0000
0010
0000
0001
0000
0000
0000
0000
0000
0100
0000
0001
0000
1000
0000
0010
0000
0000
0000
0000
0000
1000
0000
0010
0000
1000
0000
0001
0000
0000
0100
0000
0000
0001
0000
0000
0100
0000
0000
0010
0000
0000
0000
0000
0000
,  // measure 69
1000
0000
0001
0000
1000
0000
0100
0000
0000
0000
0000
0000
1000
0000
0010
0000
0100
0000
0001
0000
0000
0000
0010
0000
0000
0000
0010
0000
0000
0000
0200
0000
0000
0000
0000
0000
1300
0000
0000
0001
0000
0000
1000
0000
0000
0000
0000
0000
,  // measure 70
0010
0000
1000
0000
0001
0000
0100
0000
0000
0000
0000
0000
0001
0000
0100
0000
0010
0000
1000
0000
0000
0100
0000
0000
2000
0000
0000
3000
0000
0000
0200
0000
0000
0300
0000
0000
0020
0000
0000
0030
0000
0000
1001
0000
0000
0000
0000
0000
,  // measure 71
0100
1010
0001
1100
0010
0101
1000
1001
,  // measure 72
0000
0000
2001
0000
0000
0001
0000
0000
0001
0000
0100
0000
0000
0100
0000
0000
,  // measure 73
0010
0000
0000
0010
0000
0000
0010
0000
0000
0010
0000
0000
0010
0000
0000
3010
,  // measure 74
0000
0000
0102
0000
0000
0100
0000
0000
0100
0000
1000
0000
0000
1000
0000
0000
,  // measure 75
0010
0000
0000
0010
0000
0000
0010
0000
0000
0010
0000
0000
0013
0000
0100
1000
,  // measure 76
0000
1000
0010
0000
1000
0001
1000
0000
0100
0000
0010
0000
0001
1000
0100
0000
,  // measure 77
0010
0000
0100
1000
0001
0000
0100
0000
0001
1000
0010
0000
0100
0000
0001
1000
,  // measure 78
0100
0000
0010
0000
0100
1000
0100
0000
0010
0000
0001
0000
0100
0001
0100
0000
,  // measure 79
0010
0000
1000
0001
1000
0000
0010
0000
0100
0010
0100
0000
0001
0000
0010
0100
,  // measure 80
0010
0000
0000
0000
1000
0000
0001
1000
0001
1000
0010
0000
0001
0000
0010
0000
,  // measure 81
1000
0000
0100
0000
0100
0000
0010
0001
1000
0100
1000
0001
0010
0100
1000
0010
,  // measure 82
0100
0001
0000
0000
0001
0000
0100
0001
0100
0001
0010
0000
1000
0000
0010
0000
,  // measure 83
0001
0000
0100
0000
0100
0000
0010
1000
0001
1000
0100
0010
0001
0010
0100
1000
,  // measure 84
0010
0100
0001
0000
0100
0000
0010
0000
0100
0001
0000
0001
1000
0000
0010
0000
,  // measure 85
1000
0000
0100
0000
0100
0000
0010
0001
1000
0001
0010
0100
0010
0001
0100
0010
,  // measure 86
1000
0001
0100
0000
0010
0000
1000
0000
0100
0010
0000
0010
0100
0000
1000
0000
,  // measure 87
0010
0000
0100
0000
0100
0000
0001
1000
0100
1000
0001
0010
0100
1000
0010
1000
,  // measure 88
0001
0100
0010
0000
1000
0000
0001
0000
1000
0100
0000
0100
1000
0000
0010
0000
,  // measure 89
0100
0000
0001
0000
0001
0000
0010
0100
1000
0100
0001
0100
1000
0010
0100
0001
,  // measure 90
0010
0100
1000
0000
0010
1000
0010
0000
0100
0001
0000
0001
1000
0000
0100
0000
,  // measure 91
1000
0000
0010
0000
0010
0000
0100
0001
0010
1000
0010
0001
0100
0001
1000
0010
,  // measure 92
1000
0100
0010
0000
0001
0000
0100
0000
0010
1000
0000
1000
0001
0000
1000
0000
,  // measure 93
0100
0000
0010
0000
0100
0000
0010
0000
0001
1000
0000
0001
0010
0000
0100
0000
,  // measure 94
1000
0000
0010
0000
0100
0000
0010
0000
1000
0001
0000
0001
1000
0000
0100
0000
,  // measure 95
0010
0000
0001
0000
0100
0000
0010
0000
1000
0001
0000
0010
0100
0000
1000
0000
,  // measure 96
0002
0000
0000
0000
,  // measure 97
0003
0000
0000
0000
;
