#TITLE:Kingdoms & Castles;
#SUBTITLE:;
#ARTIST:Virtual Riot feat. Tribes;
#TITLETRANSLIT:;
#SUBTITLETRANSLIT:;
#ARTISTTRANSLIT:;
#GENRE:;
#CREDIT:;
#BANNER:Kingdoms and Castles.png;
#BACKGROUND:Kingdoms and Castles-bg.png;
#LYRICSPATH:;
#CDTITLE:;
#MUSIC:Kingdoms and Castles.ogg;
#OFFSET:-0.221341;
#SAMPLESTART:62.126804;
#SAMPLELENGTH:12.387096;
#SELECTABLE:YES;
#BPMS:0.000000=155.000000
;
#STOPS:
;
#BGCHANGES:;
#KEYSOUNDS:;
#ATTACKS:;

//---------------dance-single - ----------------
#NOTES:
     dance-single:
     :
     Challenge:
     16:
     0.691265,0.860579,0.462416,0.082574,0.544991,586.000000,530.000000,56.000000,10.000000,0.000000,0.000000,0.691265,0.860579,0.462416,0.082574,0.544991,586.000000,530.000000,56.000000,10.000000,0.000000,0.000000:
0000
0000
0000
0000
,
0000
0000
0000
0000
,
0000
0000
0000
0000
,
0000
0000
0000
0000
,
0000
0000
0000
0000
,
0000
0000
0000
0000
,
0000
0000
0000
0000
,
0000
0000
0000
0000
,
0010
1000
1000
0001
0101
0000
0010
1000
,
0001
1000
0100
0010
0100
0010
0001
1000
,
0010
0100
0100
0010
1010
0000
0100
0010
,
0100
0000
0000
0001
0000
0000
1000
0000
1000
0000
0010
0000
0000
0000
0110
0000
,
0000
1000
0001
0100
1000
0100
0001
0010
,
0001
1000
0100
0010
0001
0000
1010
0000
,
1000
0001
1000
0010
0100
0000
0100
0010
,
1000
0100
0010
0000
0001
0010
0000
0011
,
1000
0001
0001
0100
0010
0001
0010
1000
,
0100
0010
0001
1000
0100
0100
1000
0000
,
0011
0100
0010
1000
0100
0000
0100
0010
,
0100
0000
0100
1000
0010
1010
0100
0110
,
0000
0010
1000
0001
0100
0010
1000
0000
,
1000
0000
0000
0010
0000
0000
0100
0000
0100
0000
0000
0001
0000
0000
1000
0000
,
1010
0110
0001
0100
,
1010
0000
0110
1001
0010
0011
0100
1000
,
2000
0000
0000
0000
0000
3000
0010
0100
,
0020
0000
0100
0100
2030
0000
0000
3000
,
0000
0000
0010
0100
0010
0000
0001
0000
,
0002
0000
0000
0000
0100
2000
3003
0000
,
0012
0000
0010
0000
0010
0000
0103
0010
,
0100
0000
0010
1000
0010
0000
1000
0000
,
1000
0000
0000
0000
0000
0000
0101
0000
0001
0000
0000
0001
0000
0000
0010
0000
,
0020
0000
0000
0100
0100
0001
0031
0000
,
1100
0000
1000
0010
2000
0000
3010
0100
,
0102
0000
0010
1000
1000
0000
1003
0000
,
1010
0000
1000
0010
0100
0000
1010
0000
,
0110
0100
0001
0000
1000
0001
0001
0010
,
0001
1000
0001
0100
0010
0100
0010
1000
,
0001
1000
0100
1000
0100
0010
0001
1000
,
0010
1000
0010
0100
0001
0010
0001
0010
0100
0010
0100
1000
0010
0100
0001
0100
,
0000
0000
0000
0000
0000
0000
0001
0000
1000
0000
0010
0100
0001
0000
1000
0000
,
1010
0000
1000
0100
0000
0100
0010
0000
0011
0000
0000
0000
1001
0000
0001
0100
,
0000
0100
0010
0000
1000
0010
0000
0000
0100
0010
0100
0010
1000
0010
0100
0001
,
0010
0000
0001
0010
0000
0010
0100
0000
1100
0000
0000
0000
1010
0000
0010
0100
,
0000
0100
0001
0000
0010
0001
0000
0000
0100
0001
0100
0001
0100
0010
1000
0100
,
0010
0000
0100
1000
0000
1000
0001
0000
1001
0000
0000
0000
0101
0000
0100
0010
,
0000
0010
1000
0000
1000
0001
0000
0000
0010
0001
0010
0001
0010
0100
1000
0001
,
0010
0000
0100
0010
0000
0010
0001
0000
1001
0000
0000
0101
0000
0000
0110
0000
,
1001
0000
0100
0000
0001
0100
0001
0000
1000
0010
1000
0010
1000
0100
0010
0001
,
1000
0000
0100
1000
0100
0010
0100
0000
0110
0000
0010
0001
0010
0000
0001
0010
,
0100
1000
0100
0000
1000
0010
1000
0000
0010
0100
0010
0100
0001
1000
0100
0010
,
0001
0000
0010
0100
0010
0001
0010
0000
0011
0000
0010
0100
1000
0000
0010
1000
,
0010
0100
0001
0000
1000
0001
1000
0000
0100
1000
0100
1000
0001
0010
0001
0010
,
0100
0000
1000
0001
0100
0010
0100
0000
0101
0000
0100
0010
1000
0000
0010
1000
,
0010
0100
0001
0000
0010
0001
0010
0000
0100
1000
0100
0010
0001
1000
0100
0010
,
0100
0000
1000
0100
1000
0010
0100
0000
1001
0000
0010
1000
0100
0000
0010
0100
,
1000
0100
0010
0000
0001
0010
0100
0000
1000
0010
1000
0100
0010
0100
0010
0001
,
1000
0000
0010
0100
0010
0000
1000
0000
0101
0000
0000
0000
0011
0000
0010
0100
,
0000
0100
1000
0000
1000
0001
0000
0000
0100
0001
0100
0001
0100
0010
1000
0100
,
0010
0000
0001
1000
0001
0000
0010
0000
0110
0000
0000
0000
1100
0000
1000
0001
,
0000
0001
0100
0000
0100
0010
0000
0000
1000
0010
1000
0010
0100
0001
0010
0100
,
1000
0000
0010
1000
0010
0000
1000
0000
0101
0000
0000
0000
0010
0000
0001
1000
,
0000
1000
0010
0000
0010
1000
0000
0000
0010
1000
0100
0010
0001
0010
0100
1000
,
0010
0000
1000
0001
1000
0000
0010
0000
1020
0000
0000
0000
1000
0000
0030
1000
,
0001
0000
0010
0001
0010
0100
0010
0000
0001
1000
0001
1000
0001
1000
0001
1000
,
0010
0000
0000
0010
1000
0000
0001
0000
0101
0000
0000
0000
0010
0000
0000
1000
,
0010
0000
0100
0000
0001
0010
0000
0000
0110
0000
0000
0000
1000
0000
0000
0000
,
0010
0000
0000
1000
0001
0000
0010
0000
1001
0000
0000
0000
0010
0000
0000
1000
,
0010
0000
0100
0000
0001
0010
0000
0000
1100
0000
0000
0000
0001
0000
0000
0000
,
1010
0000
0000
1000
0100
0000
0010
0000
0110
0000
0000
0000
0001
0000
0001
1000
,
0010
0000
0100
0000
0010
0100
0010
0000
1010
0000
0000
0000
1000
0000
0000
0000
,
1100
0000
0000
0010
0000
0000
0100
0000
0110
0000
0000
0101
0000
0000
1001
0000
,
0011
0000
0010
0000
0100
0000
1000
0000
1010
0000
0010
0100
0010
0000
1010
0000
;

//---------------dance-single - ----------------
#NOTES:
     dance-single:
     :
     Beginner:
     5:
     0.161610,0.236988,0.074317,0.000000,0.000000,137.000000,128.000000,9.000000,0.000000,0.000000,0.000000,0.161610,0.236988,0.074317,0.000000,0.000000,137.000000,128.000000,9.000000,0.000000,0.000000,0.000000:
// measure 0
0000
0000
0000
0000
,  // measure 1
0000
0000
0000
0000
,  // measure 2
0000
0000
0000
0000
,  // measure 3
0000
0000
0000
0000
,  // measure 4
0000
0000
0000
0000
,  // measure 5
0000
0000
0000
0000
,  // measure 6
0000
0000
0000
0000
,  // measure 7
0000
0000
0000
0000
,  // measure 8
0010
0000
1000
0000
,  // measure 9
0000
0000
1000
0000
,  // measure 10
0001
0000
0001
0000
,  // measure 11
0000
0000
0010
0000
,  // measure 12
0100
0000
0100
0000
,  // measure 13
0000
0000
0100
0000
,  // measure 14
1000
0000
1000
0000
,  // measure 15
0000
0000
1001
0000
,  // measure 16
0010
0000
0000
0000
,  // measure 17
0100
0000
0010
0000
,  // measure 18
0010
0000
0000
0000
,  // measure 19
1000
0000
0001
0000
,  // measure 20
1000
0000
0000
0000
,  // measure 21
1000
0000
0100
0000
,  // measure 22
0010
0000
0000
0000
,  // measure 23
0001
0000
1001
0000
,  // measure 24
0001
0000
0000
1000
,  // measure 25
0000
0000
0000
0000
,  // measure 26
0010
0000
0000
0100
,  // measure 27
0000
0000
0000
0000
,  // measure 28
1000
0000
0000
0100
,  // measure 29
0000
0000
0000
0000
,  // measure 30
0010
0000
0000
0001
,  // measure 31
0000
0000
0000
0000
,  // measure 32
1000
0000
1000
0000
,  // measure 33
0001
0000
0001
0000
,  // measure 34
0010
0000
0010
0000
,  // measure 35
0001
0000
1000
0000
,  // measure 36
0100
0000
0100
0000
,  // measure 37
1000
0000
0010
0000
,  // measure 38
1000
0000
0001
0001
,  // measure 39
0001
0000
1000
0000
,  // measure 40
1001
0000
1000
1000
,  // measure 41
0000
0010
0010
0000
,  // measure 42
0100
0000
0010
0010
,  // measure 43
0000
1000
1000
0000
,  // measure 44
0100
0000
0010
0010
,  // measure 45
0000
0001
0001
0000
,  // measure 46
1000
0000
0010
0010
,  // measure 47
0010
0000
0100
0100
,  // measure 48
0100
0000
0010
0010
,  // measure 49
0000
1000
1000
0000
,  // measure 50
0001
0000
0001
0010
,  // measure 51
0000
0010
0100
0000
,  // measure 52
0010
0000
0010
1000
,  // measure 53
0000
1000
0001
0000
,  // measure 54
1000
0000
1000
0100
,  // measure 55
0000
0100
0010
0000
,  // measure 56
0001
0000
1001
0000
,  // measure 57
1000
1000
1000
0000
,  // measure 58
0010
0000
0110
0000
,  // measure 59
0100
0100
0100
0000
,  // measure 60
0001
0000
1001
0000
,  // measure 61
0001
0001
0001
0000
,  // measure 62
1000
1000
1000
0000
,  // measure 63
0001
0001
0001
0000
,  // measure 64
0010
0000
0110
0000
,  // measure 65
0100
0000
0100
0000
,  // measure 66
1000
0000
1001
0000
,  // measure 67
1000
0000
1000
0000
,  // measure 68
0001
0000
1001
0000
,  // measure 69
0010
0000
0010
0000
,  // measure 70
0100
0000
0010
0000
,  // measure 71
1000
0000
0001
0001
;

//---------------dance-single - ----------------
#NOTES:
     dance-single:
     :
     Easy:
     7:
     0.232388,0.296235,0.123862,0.090832,0.000000,197.000000,182.000000,15.000000,11.000000,0.000000,0.000000,0.232388,0.296235,0.123862,0.090832,0.000000,197.000000,182.000000,15.000000,11.000000,0.000000,0.000000:
0000
0000
0000
0000
,
0000
0000
0000
0000
,
0000
0000
0000
0000
,
0000
0000
0000
0000
,
0000
0000
0000
0000
,
0000
0000
0000
0000
,
0000
0000
0000
0000
,
0000
0000
0000
0000
,
0010
0000
1000
0000
,
0100
1000
0100
0000
,
0010
0000
0001
0000
,
1000
0001
1000
0000
,
0010
0000
1000
0000
,
0100
0100
1000
0000
,
0010
0000
1000
0000
,
0001
0001
0010
0000
,
1001
0000
0100
0000
,
0010
0010
1000
0000
,
0100
0000
0010
0000
,
0001
0001
1000
0000
,
1000
0000
0010
0000
,
1000
0010
1000
0000
,
0100
0000
0010
0000
,
0001
1000
0001
0000
,
1000
0000
0000
0010
,
0020
0100
0130
0000
,
0100
0000
0000
0001
0000
0000
1000
0000
,
0000
0000
0001
0010
,
0002
0000
0000
0010
,
0023
0100
0130
0000
,
1000
0000
0000
1000
0000
0000
0010
0000
,
0100
0000
0010
0010
,
1000
0000
0001
0010
,
0010
0100
0100
1000
,
0010
0000
1000
0001
,
1000
0000
0100
0010
,
0001
0000
1000
0001
,
0100
0010
0100
0000
,
0001
0000
1000
0010
,
1000
0000
0001
1001
,
1000
0000
0000
0010
0000
0000
1000
0000
,
0000
0100
0000
0000
0010
0000
0110
0000
,
0010
0000
0000
0001
0000
0000
0100
0000
,
0000
0010
0000
0000
1001
0000
1000
0000
,
0010
0000
0000
1000
0000
0000
0100
0000
,
0000
0010
0000
0000
0011
0000
0001
0000
,
1000
0000
0000
0010
0000
0000
1000
0000
,
0000
0100
0000
0000
1100
0000
1000
0000
,
0010
0000
0000
1000
0000
0000
0001
0000
,
0000
1000
0000
0000
1001
0000
1001
0000
,
0100
0000
0000
0010
0000
0000
0100
0000
,
0000
0001
0000
0000
0011
0000
0011
0000
,
0010
0000
0000
0100
0000
0000
0010
0000
,
0000
0001
0000
0000
1100
0000
1100
0000
,
0010
0000
0000
1000
0000
0000
0001
0000
,
0000
0100
0000
0000
1001
0000
1001
0000
,
1000
0000
0010
0100
,
0100
0010
0020
0000
,
1030
0000
0001
1000
,
1000
0001
0200
0000
,
0310
0000
1000
0100
,
0100
0010
0002
0000
,
1003
0001
0002
0000
,
0013
0100
0200
0000
,
1300
0000
0010
1000
,
1000
0100
0200
0000
,
0310
0000
0001
1000
,
1000
0001
0002
0000
,
0103
0000
0010
1000
,
1000
0001
2000
0000
,
3100
0000
0010
0010
,
0010
0000
0001
1001
;

//---------------dance-single - ----------------
#NOTES:
     dance-single:
     :
     Medium:
     10:
     0.368046,0.414730,0.165149,0.206436,0.004129,312.000000,292.000000,20.000000,25.000000,0.000000,0.000000,0.368046,0.414730,0.165149,0.206436,0.004129,312.000000,292.000000,20.000000,25.000000,0.000000,0.000000:
0000
0000
0000
0000
,
0000
0000
0000
0000
,
0000
0000
0000
0000
,
0000
0000
0000
0000
,
0000
0000
0000
0000
,
0000
0000
0000
0000
,
0000
0000
0000
0000
,
0000
0000
0000
0000
,
0010
0000
1000
0001
,
0001
0010
0100
0010
,
0001
1000
0001
1000
,
0000
0000
1000
0000
0010
0100
0000
0100
,
0001
1000
0010
1000
,
0100
0010
0001
0000
,
0100
0001
1000
0010
,
0010
0000
1000
0000
0001
0100
0000
0100
,
0010
1000
0001
1000
,
0100
0010
0001
0000
,
1000
0001
0100
0010
,
0100
0000
0001
0000
1000
0100
0000
0100
,
1000
0010
1000
0001
,
0100
0010
0110
0010
,
1000
1001
0000
1000
,
0100
0000
0010
0000
0001
1000
0001
1000
,
0001
0000
0000
0000
0100
0000
0010
1000
,
0020
0000
0130
0001
0200
0000
0300
0000
,
0000
0000
1000
0010
1000
0000
0001
0000
,
0002
0000
0000
0000
1000
0003
1000
0000
,
1200
0000
0000
0000
0000
0300
0010
0001
,
0020
0000
0130
0010
0200
0000
0000
0000
,
0300
0000
0000
1000
0010
0000
1000
0001
,
0100
0000
0000
0001
1000
0000
1000
0000
,
1002
0000
0000
0000
0103
0000
0010
0100
,
0010
0000
1000
0010
1000
0000
0100
0000
,
0020
0000
0031
1000
0001
0000
0100
0000
,
0010
0000
1000
0000
0001
1000
0100
0010
,
0001
0000
0001
1000
0010
0000
1000
0000
,
0100
0000
0010
0100
0010
0000
0001
0000
,
1000
0000
0010
0100
0001
0000
1000
0000
,
0001
0000
0101
1010
,
1000
0010
0000
0010
0100
0000
0100
0001
,
0000
0001
1000
0000
0101
0000
1100
0000
,
0010
1000
0000
1000
0001
0000
1000
0100
,
0000
0100
0010
0000
0001
0010
0100
0000
,
1000
0010
0000
0010
1000
0000
0001
0100
,
0000
0100
0010
0000
1010
0000
0101
0000
,
1000
0001
0000
0001
0010
0000
0001
0100
,
0000
0100
0010
0000
1000
0010
0100
0000
,
1000
0010
1000
0001
1000
0000
0100
0010
,
0100
0000
0010
0001
0010
0000
0001
0000
,
0100
0001
0100
0010
0100
0000
0001
0000
,
0100
0000
0010
0000
1000
0001
1000
0000
,
1000
0100
0010
0100
0010
0000
0010
0001
,
0010
0000
0001
0100
0001
0000
1000
0000
,
0010
1000
0001
1000
0100
0000
0010
0001
,
0010
0000
0001
0000
0100
0001
0100
0000
,
1000
0010
1001
0100
,
0001
0100
0010
0000
2002
0000
0000
3003
,
1000
0000
0100
0010
0100
0000
0010
0000
,
0010
0001
0010
0000
2020
0000
0000
3030
,
0001
0000
0100
0001
0100
0000
0010
0000
,
1000
0010
0100
0000
2200
0000
0000
3300
,
0010
0001
0010
0000
0202
0000
0303
0000
,
0010
1000
0010
0000
2002
0000
3003
0000
,
1000
0010
1000
0000
0001
0000
1100
0000
,
1000
0100
0010
0000
0220
0000
0330
0000
,
0010
0001
0010
0000
0100
0000
1001
0000
,
1000
0010
0100
0000
2002
0000
0000
3003
,
0001
0100
0010
0000
1000
0000
0010
0100
,
0002
0000
0013
0100
2000
0000
3000
0000
,
0000
0000
0000
0000
0000
0000
0010
0000
0100
0000
0000
0100
0000
0000
0001
0000
,
0002
0000
0000
1003
1000
1000
0010
0000
;

//---------------dance-single - ----------------
#NOTES:
     dance-single:
     :
     Hard:
     14:
     0.543811,0.710965,0.280753,0.107347,0.330297,461.000000,427.000000,34.000000,13.000000,0.000000,0.000000,0.543811,0.710965,0.280753,0.107347,0.330297,461.000000,427.000000,34.000000,13.000000,0.000000,0.000000:
0000
0000
0000
0000
,
0000
0000
0000
0000
,
0000
0000
0000
0000
,
0000
0000
0000
0000
,
0000
0000
0000
0000
,
0000
0000
0000
0000
,
0000
0000
0000
0000
,
0000
0000
0000
0000
,
0100
0001
0010
0100
1000
0000
0010
1000
,
0010
0000
0000
1000
0000
0000
0001
0000
1000
0000
0000
0100
0000
0000
0010
0000
,
0001
0100
0001
1000
0010
0000
1000
0100
,
0010
0000
0000
0010
0000
0000
0001
0000
0001
0000
0000
0000
0000
0000
0000
0000
,
0100
1000
0100
0010
0001
0000
1001
0000
,
0001
0000
0000
0100
0000
0000
0010
0000
0100
0000
0000
0010
0000
0000
1000
0000
,
0100
1000
0010
0100
0001
0000
1100
0000
,
0010
0000
1000
0000
0001
0010
0001
0000
,
0010
0100
1000
0001
0100
0000
0010
0000
,
1000
0000
0000
0001
0000
0000
0100
0000
0010
0000
0000
0100
0000
0000
0001
0000
,
0010
1000
0010
0001
1000
0000
1001
0000
,
0010
0000
0010
0100
0000
0001
0100
0000
,
1000
0100
0001
1000
0010
0000
1010
0000
,
0010
0000
0000
1000
0000
0000
0010
0000
0010
0000
0000
0100
0000
0000
0010
0000
,
1000
0100
1100
0010
,
0100
0010
0001
0000
0010
0100
0010
0000
,
0012
0000
0000
0000
0003
0000
1000
0001
,
0010
0000
0010
0100
2000
0000
0000
0000
,
3000
0000
0100
1000
0100
0000
0010
0000
,
0020
0000
0000
0000
0031
2000
0000
0000
,
3020
0000
0000
0000
0030
0000
0100
0001
,
0010
0000
0001
0010
0200
0000
0000
0000
,
0300
0000
0000
0000
0000
0000
0100
0000
0010
0000
0000
0010
0000
0000
0001
0000
,
0002
0000
0003
1000
0010
1000
0001
0000
,
1000
0000
0010
1000
0010
0000
0100
0001
,
0100
0000
0010
1000
0001
0000
1000
0000
,
0110
0000
0010
0100
1000
0000
0011
0000
,
0001
1000
0001
0000
0100
0001
1000
0000
,
0010
1000
0001
0100
0010
0100
0001
0010
,
0100
1000
0001
0010
1000
0010
0001
0100
,
0010
1000
0001
0100
1000
0100
0001
1000
,
0000
0000
0000
0000
0000
0000
0001
0000
1000
0000
0010
1000
0001
0000
0000
0000
,
1000
0000
0100
1000
0000
1000
0010
0000
0100
0000
0000
0000
0001
0000
1000
0001
,
0000
0001
0010
0000
0001
0100
0000
0000
0010
1000
0010
1000
0010
1000
0010
1000
,
0010
0000
1000
0100
0000
0100
1000
0000
0010
0000
0000
0000
1000
0000
0010
0100
,
0000
0100
0010
0000
0100
0001
0000
0000
0010
0001
0010
0001
0010
0001
0010
0001
,
0010
0000
0001
0100
0000
0100
0001
0000
1000
0000
0000
0000
0001
0000
1000
0100
,
0000
0100
1000
0000
0010
1000
0000
0000
0001
0100
0001
0100
0001
0100
0001
0100
,
0001
0000
1000
0010
0000
0010
1000
0000
0002
0000
0000
1003
0000
0000
2000
0000
,
3100
0000
0000
0100
0100
1000
0001
0000
,
0010
0011
0001
1000
1100
0000
0010
1001
,
1000
0000
0010
0000
0110
0000
0000
0000
0001
1000
0001
1000
0001
1000
0001
1000
,
0001
0101
0100
0010
1010
0000
0100
1001
,
1000
0000
0100
0000
0011
0000
0000
0000
0100
0010
0100
0010
0100
0010
0100
0010
,
0100
1100
1000
0010
1010
0000
1000
0101
,
0001
0000
1000
0000
1100
0000
0000
0000
0010
0001
0010
0001
0010
0001
0010
0001
,
0010
0000
0110
0000
0100
0000
1000
0000
0010
0000
0000
1000
0000
0000
0001
0000
,
0002
0000
0000
1003
1000
0010
0100
0000
,
0010
0001
1000
0000
0101
0000
1001
0000
,
0010
0000
1000
0000
0001
0000
0000
0000
1000
0100
1000
0100
0010
0001
0010
0001
,
1000
0010
1000
0000
0110
0000
1001
0000
,
0100
0000
0001
0000
0010
0000
0000
0000
0001
0010
0001
0010
0100
1000
0100
1000
,
0001
0100
0010
0000
1010
0000
1100
0000
,
0100
0000
0010
0000
0001
0000
0000
0000
1000
0010
1000
0010
0100
0001
0100
0001
,
1000
0010
0100
0000
0110
0000
1001
0000
,
0100
0000
0001
0000
1000
0000
0000
0000
0001
0100
0001
0100
0010
1000
0010
1000
,
0001
0000
0000
0001
0100
0000
0010
0000
1010
0000
0000
0000
0010
0000
0000
0010
,
1000
0000
0001
0000
1000
0001
0000
0000
0101
0000
0000
0000
0010
0000
0000
0000
,
0100
0000
0000
0100
1000
0000
0010
0000
1010
0000
0000
0000
1001
0000
0000
0001
,
0100
0000
0010
0000
1000
0010
0000
0000
0101
0000
0000
0000
1000
0000
0000
0000
,
0001
0000
0000
0010
0000
0000
0010
0000
0100
0000
0000
0000
0010
0000
0100
0000
,
2000
0000
3010
0100
0002
0000
0000
0000
,
1003
0000
0000
1000
0000
0000
0010
0000
0100
0000
0000
0100
0000
0000
0001
0000
,
0002
0000
0000
0000
0003
0000
1000
0000
0010
0000
1000
0001
0100
0000
0000
0000
;
