#TITLE:If We Were Alone;
#SUBTITLE:;
#ARTIST:Kap Slap;
#TITLETRANSLIT:;
#SUBTITLETRANSLIT:;
#ARTISTTRANSLIT:;
#GENRE:;
#CREDIT:;
#BANNER:If We Were Alone.png;
#BACKGROUND:If We Were Alone-bg.png;
#LYRICSPATH:;
#CDTITLE:;
#MUSIC:If We Were Alone.ogg;
#OFFSET:-0.218613;
#SAMPLESTART:35.618256;
#SAMPLELENGTH:10.909092;
#SELECTABLE:YES;
#BPMS:0.000000=176.000000
,232.000000=44.000000
,240.000000=176.000000
;
#STOPS:
;
#BGCHANGES:;
#KEYSOUNDS:;
#ATTACKS:;

//---------------dance-single - ----------------
#NOTES:
     dance-single:
     :
     Hard:
     12:
     0.544369,1.347069,0.343640,0.129820,0.080183,499.000000,454.000000,45.000000,17.000000,0.000000,0.000000,0.544369,1.347069,0.343640,0.129820,0.080183,499.000000,454.000000,45.000000,17.000000,0.000000,0.000000:
0000
0000
0000
0000
,
0000
0000
0000
0000
,
0010
0100
0000
0010
0100
0000
0010
0000
,
0001
1000
0000
0001
1000
0000
0010
0000
,
0100
0001
0000
0100
0001
0000
0010
0000
,
0100
0010
0000
0100
0010
0000
0001
0000
,
1000
0100
0000
1000
0100
0000
0010
0000
,
0100
1000
0000
0100
1000
0000
0010
0000
,
0100
0001
0000
0100
0001
0000
0010
0000
,
0101
0000
0000
0110
0000
0000
0010
0100
,
0010
1000
0010
1000
0100
0000
1000
0100
,
0001
0100
0000
1000
0100
0010
0001
0010
,
1000
0010
1000
0010
0001
0000
0100
0000
,
0010
1000
0000
0010
1000
0000
0010
0100
,
0010
0101
0110
1000
,
0100
0010
0000
0100
0010
0001
0010
0100
,
1000
0010
1000
0000
1010
0000
0100
0010
,
0100
0001
0000
0100
0010
0000
1000
0000
,
0020
1000
1030
0100
,
0020
0000
0000
0130
0000
0000
0010
0001
,
0100
0010
1000
0100
0010
0000
0100
0000
,
0002
0000
0000
0103
0000
0000
1000
0000
,
2020
0000
0000
3030
0110
0000
2002
0000
,
0000
3003
0011
0000
0220
0000
0000
0330
,
0000
1000
1000
0010
,
1000
0100
1001
0000
,
0010
1000
0100
1000
0100
0000
0010
0001
,
0010
0100
1000
0000
0001
0100
0010
1000
,
0100
0010
0001
0000
0010
0100
0000
0010
,
0001
0010
0000
0100
1000
0010
0100
0001
,
0100
0010
0100
0010
1000
0000
1000
0001
,
1000
0001
0010
0000
0100
0010
0001
1000
,
0100
1000
0100
0000
0001
0100
0000
1000
,
0100
0010
0000
0100
1100
0000
1001
0000
,
0101
0000
0110
0000
0010
1000
0001
0000
,
0100
0000
0001
0000
1000
0000
0000
0000
0001
0010
0000
0000
0100
0000
0000
1000
,
0001
0100
0001
0100
0010
0100
0010
0000
,
1000
0100
1000
0000
1010
0000
0101
0000
,
0100
0001
0100
0010
1000
0000
0100
1000
,
0100
0010
0001
0000
0010
0100
0100
0010
,
0001
0100
0010
1000
0010
0100
0001
0010
,
0001
0010
0100
1000
0001
0000
0100
0000
,
0020
0000
0000
0000
0000
0000
0000
0030
,
2000
0000
0000
0000
0000
0000
0000
3000
,
0002
0000
0000
0000
0000
0000
0000
0003
,
0020
0000
0000
0000
0000
0000
0000
0030
,
0200
0000
0000
0000
0000
0000
0000
0300
,
2000
0000
0000
0000
0010
0000
3010
0200
,
0000
0000
0301
0020
0030
0100
1000
0000
,
0010
0100
0001
0000
,
0011
0000
0000
0100
0000
0000
1000
0000
,
0010
0000
0000
1000
0001
1000
0000
0100
,
0010
0000
0010
0001
0010
1000
0010
0000
,
0100
1000
0000
0100
1000
0000
0010
0100
,
0010
1000
0000
0100
1000
0000
0010
0000
,
0100
0001
1000
0100
1000
0000
0010
1000
,
0010
1000
0100
0010
0001
1000
0010
0100
,
0001
0010
0001
0000
0100
0000
0000
0000
,
1001
0000
0010
0000
1000
0000
0011
0000
0000
0000
0110
0000
0100
0000
1000
0000
1100
0000
0000
0011
0000
0000
1001
0000
0100
0000
0101
0000
0010
0000
0100
0000
,
1010
0000
0100
0000
0001
0000
0011
0000
0000
0000
0101
0000
0010
0000
1000
0000
0011
0000
0000
0110
0000
0000
1001
0000
0000
0000
0000
0000
0010
1000
0100
0010
,
0001
0100
0001
0000
1001
0000
1000
0010
,
1000
0000
0000
0000
0100
0000
0000
0000
0010
0001
0000
0000
0010
0000
0000
0100
,
1000
0100
1000
0100
0010
0100
0010
0001
,
0010
0001
0100
0010
1000
0000
0001
0000
,
0110
0000
1001
0000
1000
0000
0001
1000
,
0001
0000
0100
0000
0001
0100
0010
1000
,
0100
0010
0001
0000
0010
0100
0000
1000
,
0100
0010
0000
0001
1000
0000
0000
0000
,
0010
1000
0010
0000
0110
0000
0100
0001
,
0010
0000
1100
0000
0100
0010
0001
0010
,
0100
1000
0100
0000
0010
0001
0000
0100
,
0001
1000
0000
0100
0010
0000
0011
0000
,
0010
0001
0010
0100
0010
0000
0011
0000
,
1000
0000
0100
1000
0010
0100
0100
0001
,
1000
0010
1000
0000
0010
0100
0000
0010
,
0100
0001
0000
0010
0001
0000
0101
0000
,
0110
1001
0010
1100
,
1000
0000
0001
0100
0001
0100
0010
1000
,
0001
0100
0001
0100
0010
0100
0010
1000
,
0100
0010
0100
1000
0010
0000
0110
0000
,
0101
0000
1010
0000
1000
0000
0100
0010
,
0100
0000
1000
0000
0100
0010
0001
0100
,
0010
0100
0010
0001
0010
1000
0100
0010
,
0100
1000
0001
0010
1000
0010
0001
0100
,
0010
0000
0000
0000
;

//---------------dance-single - ----------------
#NOTES:
     dance-single:
     :
     Medium:
     9:
     0.358913,0.843827,0.229093,0.099274,0.034364,329.000000,299.000000,30.000000,13.000000,0.000000,0.000000,0.358913,0.843827,0.229093,0.099274,0.034364,329.000000,299.000000,30.000000,13.000000,0.000000,0.000000:
0000
0000
0000
0000
,
0000
0000
0000
0000
,
1000
0000
0000
0010
0000
0000
1000
0000
,
0001
0000
0000
0010
0000
0000
0100
0000
,
0100
0000
0000
1000
0000
0000
0010
0000
,
1000
0000
0000
0001
0000
0000
0001
0000
,
0010
0000
0000
0001
0000
0000
0100
0000
,
0010
0000
0000
0100
0000
0000
0010
0000
,
1000
0000
0000
0001
0000
0000
0100
0000
,
0110
0000
0000
0110
0000
0000
0010
0000
,
1000
0010
1000
0010
1000
0000
0001
0100
,
0001
0010
0100
0000
,
0010
0010
0010
0100
,
1000
0001
1001
0000
,
1000
0100
0110
0100
,
1000
0000
0000
0000
0100
0001
0100
0001
,
0100
0010
1000
0100
,
0010
0000
0001
1000
,
1001
0001
0100
1000
,
0100
0000
0000
0001
0000
0000
0010
0001
,
0010
0100
0010
0100
,
1000
0000
0000
0010
0000
0000
1000
0000
,
2000
0000
0010
3020
,
0000
0100
0230
0000
,
0301
1000
0001
0010
,
0100
1000
0001
0000
,
1001
1000
0010
0110
,
0100
0000
0001
0000
0010
0100
1000
0000
,
1000
0000
0010
0100
0000
0010
1000
0000
,
0001
0100
0010
1000
,
0100
0010
0100
1100
,
0000
0000
1001
0000
0010
0100
0001
0000
,
0001
0000
0100
0010
0000
0010
1000
0000
,
0100
1000
0010
0100
,
0110
0110
0010
0100
,
0001
1000
0010
0100
,
1000
0000
1000
0001
0000
1000
0001
0000
,
0010
0001
0100
0010
,
1000
1000
0010
0110
,
0000
0000
0100
0000
0001
0010
0001
0010
,
0001
0000
0000
0010
0000
0000
0100
0000
,
0010
1000
0010
0001
,
2000
0000
0000
0000
,
3020
0000
0000
0000
,
2030
0000
0000
0000
,
3002
0000
0000
0000
,
0023
0000
0000
0000
,
0230
0000
0000
0000
,
2300
0000
0000
0000
,
3020
0000
0000
0000
,
0130
0000
0100
0100
,
0010
1000
0010
0000
,
1000
0000
0001
0001
,
0010
0001
0010
0000
,
0100
0010
0000
0100
0010
0000
0100
0000
,
1000
0010
0000
1000
0010
0000
0100
0000
,
0001
1000
0000
0001
1000
0000
0010
0000
,
0010
1000
0010
0000
0200
0000
0000
0000
,
0310
0000
0000
0000
0000
0000
0101
0000
0000
0000
0101
0000
0000
0000
0000
0000
1100
0000
0000
1100
0000
0000
1010
0000
0000
0000
1010
0000
0000
0000
0000
0000
,
1001
0000
0000
0000
0000
0000
0011
0000
0000
0000
0011
0000
0000
0000
0000
0000
0110
0000
0000
0110
0000
0000
1100
0000
0000
0000
0000
0000
0000
0000
0000
0000
,
1000
0001
1000
0010
,
1000
0000
0001
0010
,
0100
0010
0000
0100
0010
0000
0001
0000
,
1000
0010
1000
0000
,
1001
0010
0001
0101
,
0000
0000
1000
0000
0100
1000
0100
1000
,
0100
0000
0000
0010
0000
0000
0001
0000
,
1000
0010
1000
0000
,
0101
0101
0010
1000
,
0000
0001
1000
0100
,
0010
0000
0001
1000
0000
0001
1000
0000
,
0010
1000
0100
0010
,
0000
0010
0001
0100
,
0000
0000
0100
0000
0010
1000
0010
0000
,
1000
0000
0000
0001
0000
0000
1000
0000
,
0010
0100
0001
1000
,
1100
1100
0010
0001
,
0100
0000
0001
0000
1000
0010
1000
0010
,
1000
0000
1000
0001
0000
1000
0001
0000
,
0010
0001
0100
0010
,
0010
0010
1000
0001
,
0000
0000
0010
0000
0100
1000
0100
1000
,
0100
0000
0000
0010
0000
0000
0001
0000
,
0100
0010
1000
0002
,
0000
0000
0000
0000
,
0003
0000
0000
0000
;

//---------------dance-single - ----------------
#NOTES:
     dance-single:
     :
     Easy:
     6:
     0.232366,0.671530,0.076364,0.076364,0.049637,213.000000,203.000000,10.000000,10.000000,0.000000,0.000000,0.232366,0.671530,0.076364,0.076364,0.049637,213.000000,203.000000,10.000000,10.000000,0.000000,0.000000:
0000
0000
0000
0000
,
0000
0000
0000
0000
,
1000
0000
0010
1000
,
0010
0000
0100
0000
,
0001
0000
1000
0001
,
0010
0000
0001
0000
,
0100
0000
0010
1000
,
0010
0000
0100
0000
,
0001
0000
1000
0100
,
0010
0000
0000
0010
0000
0000
0000
0000
,
0010
0001
0010
0001
,
0001
0000
1000
0000
,
0010
0010
0010
0000
,
1000
0000
1100
0000
,
0100
0000
0010
1000
,
0001
0000
1000
0000
,
0010
0001
0001
0000
,
0100
0000
1001
0000
,
0001
0000
0100
0000
,
0010
0000
0000
0010
0000
0000
0010
0000
,
1000
0000
0001
0000
,
0100
0000
0000
0100
0000
0000
0100
0000
,
0100
0000
0010
0010
,
0000
1000
1000
0000
,
0001
0000
1000
0000
,
0001
0010
0001
0000
,
0100
0010
0000
1010
,
0000
1001
0000
0101
,
0001
0000
0000
1000
0000
0000
0001
0000
,
0000
0010
0000
0000
,
0110
0000
0000
1000
,
0000
0010
1000
0000
,
0001
0000
0000
1000
0000
0000
0001
0000
,
0000
1000
0000
0000
,
1000
0000
0100
0000
,
0010
0000
0010
0001
,
0100
0000
0001
1000
,
0000
1000
0010
0000
,
0100
0010
0000
1001
,
0000
0101
0000
1010
,
0000
0000
0000
1000
,
0001
0010
0100
0000
,
0002
0000
0000
0000
,
2003
0000
0000
0000
,
3020
0000
0000
0000
,
0230
0000
0000
0000
,
0320
0000
0000
0000
,
2030
0000
0000
0000
,
3200
0000
0000
0000
,
0320
0000
0000
0000
0000
0000
0000
0030
,
0001
0000
0100
0000
,
1000
0000
0100
0000
,
0001
0000
0010
0000
,
1000
0000
0010
0000
,
0001
1000
0001
0000
,
1000
0100
1000
0000
,
0100
0010
0100
0000
,
0010
0001
1000
0000
,
1000
0001
0000
0100
0000
0010
0000
0020
0000
0000
0030
1000
0001
0010
0100
1000
,
0000
1000
0001
1000
0000
0010
1000
0002
0000
0000
0003
0100
0010
0100
0001
0000
,
1000
0000
0001
0000
,
0010
0000
0001
1000
,
0100
0000
0000
0010
0000
0000
0100
0000
,
0000
0010
0000
0000
,
0001
0001
0000
1000
,
0000
0010
0000
0000
,
1000
0000
0000
0001
0000
0000
0100
0000
,
0000
0100
0000
0000
,
0010
0000
1000
0000
,
0001
1000
0001
0000
,
0010
0000
0000
0100
0000
0000
1000
0000
,
0000
1000
0001
0000
,
1000
0000
0010
0000
,
0100
0010
0100
0000
,
0001
0000
0000
1000
0000
0000
0001
0000
,
0000
0100
0010
0000
,
1000
0000
1001
0000
,
0001
0010
0001
0000
,
0100
0000
0000
0001
0000
0000
0100
0000
,
0000
0010
0000
0000
,
1000
1000
0001
1000
,
0000
0100
0010
0000
,
0001
0000
0000
0100
0000
0000
0001
0000
,
0000
1000
0100
0010
;

//---------------dance-single - ----------------
#NOTES:
     dance-single:
     :
     Beginner:
     2:
     0.112365,0.285221,0.015273,0.000000,0.000000,103.000000,101.000000,2.000000,0.000000,0.000000,0.000000,0.112365,0.285221,0.015273,0.000000,0.000000,103.000000,101.000000,2.000000,0.000000,0.000000,0.000000:
// measure 0
0000
0000
0000
0000
,  // measure 1
0000
0000
0000
0000
,  // measure 2
0010
0000
0000
0000
,  // measure 3
1000
0000
0000
0000
,  // measure 4
1000
0000
0000
0000
,  // measure 5
0001
0000
0000
0000
,  // measure 6
0010
0000
0000
0000
,  // measure 7
0001
0000
0000
0000
,  // measure 8
0100
0000
0000
0000
,  // measure 9
0010
0000
0000
0000
,  // measure 10
0010
0000
0010
0000
,  // measure 11
0010
0000
0000
0000
,  // measure 12
0100
0000
0100
0000
,  // measure 13
0100
0000
0000
0000
,  // measure 14
0001
0000
0001
0000
,  // measure 15
0001
0000
0000
0000
,  // measure 16
1000
0000
1000
0000
,  // measure 17
1000
0000
0000
0000
,  // measure 18
1001
0000
0000
0000
,  // measure 19
1000
0000
0000
0000
,  // measure 20
0010
0000
0000
0000
,  // measure 21
1000
0000
0000
0000
,  // measure 22
0100
0000
0000
0100
,  // measure 23
0000
0000
0100
0000
,  // measure 24
0000
0000
0010
0000
,  // measure 25
0010
0000
0000
0000
,  // measure 26
0001
0000
0000
0000
,  // measure 27
1000
0000
0000
0000
,  // measure 28
0010
0000
0000
0000
,  // measure 29
1000
0000
1000
0000
,  // measure 30
0001
0000
0000
0000
,  // measure 31
0010
0000
0000
0000
,  // measure 32
0001
0000
0000
0000
,  // measure 33
0100
0000
0100
0000
,  // measure 34
0010
0000
0000
0000
,  // measure 35
1000
0000
0000
0000
,  // measure 36
1000
0000
0000
0000
,  // measure 37
0001
0000
0001
0000
,  // measure 38
0010
0000
0000
0000
,  // measure 39
0100
0000
0000
0000
,  // measure 40
1000
0000
0000
0000
,  // measure 41
0010
0000
0000
0000
,  // measure 42
1000
0000
0000
0000
,  // measure 43
0001
0000
0000
0000
,  // measure 44
1000
0000
0000
0000
,  // measure 45
0000
0000
0000
0000
,  // measure 46
0010
0000
0000
0000
,  // measure 47
0100
0000
0000
0000
,  // measure 48
0010
0000
0000
0000
,  // measure 49
0000
0000
0000
0000
,  // measure 50
0100
0000
0000
0000
,  // measure 51
0100
0000
0000
0000
,  // measure 52
0010
0000
0000
0000
,  // measure 53
0010
0000
0000
0000
,  // measure 54
1000
0000
0000
0000
,  // measure 55
0001
0000
0000
0000
,  // measure 56
0010
0000
0001
0000
,  // measure 57
1000
0000
0000
0000
,  // measure 58
1000
0010
0100
0001
,  // measure 59
0010
0001
1000
0100
,  // measure 60
0010
0000
0000
0000
,  // measure 61
0001
0000
0000
0000
,  // measure 62
1000
0000
1000
0000
,  // measure 63
1000
0000
0000
0000
,  // measure 64
0001
0000
0000
0000
,  // measure 65
0100
0000
0000
0000
,  // measure 66
0010
0000
0010
0000
,  // measure 67
0010
0000
0000
0000
,  // measure 68
0110
0000
0000
0000
,  // measure 69
1000
0000
0000
0000
,  // measure 70
0001
0000
0001
0000
,  // measure 71
0001
0000
0000
0000
,  // measure 72
1000
0000
0000
0000
,  // measure 73
0100
0000
0000
0000
,  // measure 74
0010
0000
0010
0000
,  // measure 75
0010
0000
0000
0000
,  // measure 76
0001
0000
0000
0000
,  // measure 77
0100
0000
0000
0000
,  // measure 78
0001
0000
0001
0000
,  // measure 79
0001
0000
0000
0000
,  // measure 80
1000
0000
0000
0000
,  // measure 81
0100
0000
0000
0000
,  // measure 82
0010
0000
0010
0000
,  // measure 83
0010
0000
0000
0000
;
