#TITLE:I Miss You;
#SUBTITLE:;
#ARTIST:Grey feat. Bahari;
#TITLETRANSLIT:;
#SUBTITLETRANSLIT:;
#ARTISTTRANSLIT:;
#GENRE:;
#CREDIT:;
#BANNER:I Miss You.png;
#BACKGROUND:I Miss You-bg.png;
#LYRICSPATH:;
#CDTITLE:;
#MUSIC:I Miss You.ogg;
#OFFSET:2.043335;
#SAMPLESTART:56.114750;
#SAMPLELENGTH:18.823524;
#LASTBEATHINT:1.720465;
#SELECTABLE:YES;
#DISPLAYBPM:102.000000;
#BPMS:0.000000=102.000000
,96.000000=25.500000
,96.250000=51.000000
,96.375000=102.000000
,96.500000=204.000000
,97.250000=102.000000
;
#STOPS:97.250000=0.588000
;
#BGCHANGES:;
#KEYSOUNDS:;
#ATTACKS:;

//---------------dance-single - ----------------
#NOTES:
     dance-single:
     :
     Hard:
     14:
     0.563087,0.743718,0.085316,0.315670,0.853162,462.000000,452.000000,10.000000,37.000000,0.000000,0.000000,0.563087,0.743718,0.085316,0.315670,0.853162,462.000000,452.000000,10.000000,37.000000,0.000000,0.000000:
0000
0000
0000
0000
,
0000
0000
0000
0000
,
0000
0000
0000
0000
,
0000
0000
0000
0000
,
0000
0000
0000
0000
0000
0000
0000
0000
0000
0000
0000
1000
0000
0010
1000
0001
,
0100
0000
0000
0001
0000
0001
0010
0000
0100
0000
0000
1000
0000
0100
0010
0001
,
0100
0000
0000
0010
0000
0010
1000
0000
0001
0000
0000
1000
0001
0010
0001
0100
,
0010
0000
0000
0100
0000
0010
0100
0000
1000
0000
0001
1000
0000
0001
0010
0000
,
0200
0000
0000
1000
0000
0000
1300
0000
1000
0010
0000
0010
1000
0001
0100
0000
,
0001
0010
0001
0010
0001
0010
0100
0000
0100
1000
0000
1000
,
0010
1000
0010
1000
0010
1000
0100
0000
0100
0010
0000
0010
,
0002
0000
0000
0100
0003
0000
0001
0000
2000
0000
0000
0100
3000
0000
1000
0010
,
1000
0000
0000
0001
0000
0000
0010
0000
0001
0100
0000
0100
0001
0010
0100
0000
,
1000
0100
1000
0100
1000
0100
1000
0000
1000
0010
0000
0010
,
0100
0000
0001
0000
0100
0000
0001
0000
0100
0000
0001
0000
0010
0000
0000
0000
0010
0000
0001
0000
0000
1000
0000
0000
,
1000
0000
0000
0100
0000
0100
0001
0000
0200
0000
0000
1000
0300
0000
1000
0010
,
1000
0000
0000
0010
0000
0010
0001
0000
0010
0000
0000
1000
0001
1000
0100
0000
,
0020
0001
0000
0032
,
0103
0000
0000
0000
0000
0000
0100
0010
,
0100
0001
0010
0100
1000
0010
1000
0100
,
0100
0001
0100
1000
0010
0000
0010
0001
,
0020
0000
0000
0000
0000
0000
1000
0000
0000
0000
0000
0000
1030
0000
0000
0000
0100
0000
0000
0000
0000
0000
0010
0100
0010
0000
0000
0000
0001
0010
0001
0010
,
0002
0000
0000
0000
0000
0000
0100
0000
0000
0000
0000
0000
1003
0000
0000
0000
0010
0000
1000
0000
0000
0000
1000
0000
0001
0000
0010
0000
0100
1000
0100
1000
,
0200
0000
0000
0000
0000
0000
0310
0000
0000
0000
0010
0000
0001
0000
1000
0000
0001
0000
0000
0000
0100
0000
0001
0000
0100
0000
0010
0000
1000
0001
1000
0001
,
2000
0000
0000
0000
0000
3000
1100
0011
0000
1010
0101
0000
1001
0000
1000
0001
,
0010
0001
1000
0100
1000
0010
0100
0001
0100
0010
1000
0100
0010
0001
1000
0010
,
1000
0000
0100
0000
0010
0000
0001
0000
0001
0000
0100
0000
0010
0000
0100
0000
0001
0000
1000
0100
1000
0000
0000
0000
1001
0000
0000
0000
0100
0000
1000
0000
,
0010
1000
0100
0010
0001
0100
0010
0100
0010
0001
0010
1000
0001
1000
0100
0001
,
0100
0000
1000
0000
0010
0000
1000
0000
0001
0000
0100
0000
0010
0000
1000
0000
2200
3300
0000
0000
0010
0000
0000
0000
0101
0000
0000
0000
0010
0000
1000
0000
,
0001
0100
0010
0100
0001
0010
0100
1000
0001
1000
0100
1000
0001
0010
0001
1000
,
0010
0000
0100
0000
0001
0000
1000
0000
1000
0000
0001
0000
1000
0000
0010
0000
0100
0000
0001
0010
0001
0000
0000
0000
1000
0000
0001
0000
1000
0000
0000
0000
,
0100
0010
0100
0000
0010
0001
0010
0100
1000
0001
1000
0000
0010
1000
0001
0000
,
1000
0001
0100
0001
0100
0010
1000
0000
0001
0000
1001
0000
0010
0000
2000
0000
,
3100
0010
0002
0000
1003
0010
0200
0000
0301
1000
0020
0000
1030
0100
0002
0000
,
0103
0000
1000
0000
0010
0000
0100
0000
0100
0000
0010
0000
0100
0000
0001
0000
1000
0000
0001
1000
0010
0000
1000
0000
0100
0000
0010
0000
0002
0000
0000
0000
,
0103
0010
0200
0000
0301
1000
0020
0000
1030
0001
0100
0010
1000
0001
1000
0010
,
0001
0000
0010
0000
1000
0000
0100
0000
1000
0000
0001
0000
1000
0000
0100
0000
0220
0330
0000
0000
0010
0000
0000
0000
0100
0000
1000
0000
0002
0000
0000
0000
,
1003
0100
0020
0000
0031
1000
0200
0000
0310
0001
2000
0000
3001
0010
0200
0000
,
0310
0000
0010
0000
0001
0000
1000
0000
1000
0000
0001
0000
0100
0000
0010
0000
0100
0000
0001
1000
0010
0000
0000
0000
0100
0000
0001
0000
0100
0000
0000
0000
,
0010
1000
0100
0000
1000
0100
1000
0010
0100
0001
1000
0000
0001
0010
0001
0000
,
0100
0010
0100
0001
0100
0010
1000
0001
1000
0000
0010
0000
0000
1000
0000
1000
,
0100
0000
1000
0000
0010
0100
0000
0100
0001
0000
0010
0000
0000
0001
0000
0001
,
0100
0000
0000
0000
0000
0000
0001
0000
0000
0000
0000
0000
0010
0000
0000
1000
0000
0000
0000
0000
0000
0010
0000
0000
0001
0000
0000
0000
0000
0000
0000
0000
0000
0000
0001
0000
0000
0000
0100
0000
0000
0000
0010
0000
0000
0000
1000
0000
,
0000
0010
0000
0200
0000
0000
0000
0000
0000
0300
0000
0010
0000
0100
0000
0001
0000
0010
0000
0001
0000
2000
0000
0000
,
0000
3000
0000
0010
1000
0200
0000
2300
,
0000
0000
3010
0000
0000
1000
0100
0000
0000
0010
0002
0000
0000
0100
0000
0000
,
0103
0000
0020
0000
0000
1000
0000
0000
0130
0000
0002
0000
0000
0000
2003
0000
,
0000
0000
3001
0000
0000
0100
0000
0000
0001
0000
1000
0000
0000
0010
0000
2000
,
0200
0000
0000
0000
,
0000
0000
0000
0000
0000
0000
0000
0000
0000
0000
0000
0000
0000
3300
0000
0000
;

//---------------dance-single - ----------------
#NOTES:
     dance-single:
     :
     Medium:
     10:
     0.342484,0.446231,0.034126,0.153569,0.196227,281.000000,277.000000,4.000000,18.000000,0.000000,0.000000,0.342484,0.446231,0.034126,0.153569,0.196227,281.000000,277.000000,4.000000,18.000000,0.000000,0.000000:
0000
0000
0000
0000
,
0000
0000
0000
0000
,
0000
0000
0000
0000
,
0000
0000
0000
0000
,
0000
0000
0000
0000
,
0010
0000
0000
0001
0000
0000
1000
0000
0100
0000
1000
0000
0010
0000
1000
0000
,
1000
0000
0000
0010
0000
0000
0100
0000
0010
0000
1000
0000
0001
0000
0010
0000
,
0010
0000
0000
0001
0000
0000
1000
0000
0010
0000
1000
0000
0001
0000
0010
0000
,
0100
0000
0000
2000
0000
0000
3000
0000
0010
0100
0000
0001
0000
0001
1000
0000
,
0010
0000
0000
1000
0000
0000
0100
0000
0001
0000
0100
0000
2000
0000
3000
0000
,
0011
0000
0100
0000
0010
1000
0010
0100
,
0001
0000
0000
1000
0000
0000
1000
0000
0001
0000
0000
0010
0000
0000
0000
0000
,
0100
0000
0000
0010
0000
0000
0010
0000
0100
1000
0000
0010
0000
0010
1000
0000
,
0001
0000
0000
1000
0000
0000
0010
0000
0001
0000
0010
0000
2000
0000
3000
0000
,
0101
0000
0000
0010
0000
0000
0100
0000
0010
0000
0001
0000
0100
0000
0010
0000
,
1000
0000
0000
0010
0000
0000
0010
0000
0100
0000
0000
0001
0000
0000
0000
0000
,
0010
0000
0000
0001
0000
0000
0001
0000
1000
0000
0100
0000
1000
0000
0010
0000
,
2000
0000
0000
3020
,
0130
0000
0000
0000
0000
0000
0100
0100
,
0100
0001
0010
0100
1000
0010
1000
0100
,
0100
1000
0010
0100
0001
0000
1000
0001
,
0200
0000
0000
0320
,
1030
0000
0000
0000
0000
0000
0010
0010
,
0010
1000
0001
0100
0010
0100
0001
0010
,
0020
0000
0000
0000
0000
0030
1000
0001
0000
1000
0100
0000
1000
0000
0010
0000
,
1000
0001
1000
0000
0000
0001
0100
0000
0001
0100
0001
0000
0000
1000
0010
0000
,
1000
0010
1000
0000
0100
0000
0001
0000
0000
0000
0010
0000
0001
0000
1000
0000
,
0100
1000
0100
0000
0000
1000
0010
0000
1000
0010
1000
0000
0000
0001
0100
0000
,
0001
0100
0001
0000
0010
0000
0000
0010
0001
0000
1001
0000
0000
0000
1000
0000
,
0100
0010
0100
0000
0000
0010
0001
0000
0100
0010
0100
0000
0000
0010
1000
0000
,
0100
0010
0100
0000
0000
0000
1000
0000
1000
0000
1000
0000
0001
0000
0100
0000
,
0010
0100
0001
0010
0100
0010
0001
0010
,
0100
1000
0010
1010
0000
0001
0100
0001
,
0000
0001
0010
0000
0100
0000
0010
0000
0000
0010
0001
0000
1000
0000
0100
0000
,
0000
0100
1000
0000
0010
0000
0100
0000
0000
0000
0010
0000
1000
0000
0001
0000
,
0000
0001
0100
0000
0010
0000
1000
0000
0100
0000
0100
0000
0010
0000
0100
0000
,
1000
0000
0010
0000
1000
0000
0000
1000
0001
0000
0010
0000
0001
0000
0010
0000
,
0000
0010
0100
0000
1000
0000
0100
0000
0000
0100
1000
0000
0010
0000
1000
0000
,
0000
1000
0001
0000
0010
0000
0001
0000
0001
0000
0001
0000
0100
0000
0010
0000
,
1000
0001
1000
0100
0010
0010
0001
0100
,
1000
0100
0000
0000
0000
0001
0000
1000
,
0100
0010
0100
1000
0000
0010
0000
1000
,
0001
1000
0010
1000
0000
0001
0000
0010
,
0010
0020
0000
0130
0000
0100
0100
2000
,
0000
3010
0000
0010
0100
0002
0000
0000
,
0000
2003
0000
3020
0000
0230
0000
0000
,
0000
0000
0000
0300
0010
0200
0000
0000
,
0000
0000
0000
0000
0000
0000
0302
0000
0000
0000
2003
0000
0000
0010
0000
0000
,
0002
0000
0000
0000
,
0000
0000
0000
0000
0000
0000
0000
0000
0000
0000
0000
0000
0000
3003
0000
0000
;

//---------------dance-single - ----------------
#NOTES:
     dance-single:
     :
     Easy:
     6:
     0.232791,0.325055,0.153569,0.127974,0.000000,191.000000,173.000000,18.000000,15.000000,0.000000,0.000000,0.232791,0.325055,0.153569,0.127974,0.000000,191.000000,173.000000,18.000000,15.000000,0.000000,0.000000:
0000
0000
0000
0000
,
0000
0000
0000
0000
,
0000
0000
0000
0000
,
0000
0000
0000
0000
,
0000
0000
0000
0000
,
0010
1000
0001
0010
,
0010
0001
0100
0010
,
1000
0001
1000
0100
,
0200
0000
0300
0110
,
0010
0001
0001
1000
,
0010
0100
0100
0100
,
0010
0000
0000
0000
1000
0000
0000
0001
,
1000
0000
0000
1000
0100
0000
0010
0000
,
0002
1000
1003
2000
,
3010
0000
0010
0000
0100
0000
0001
0100
,
0001
0000
1000
0000
0010
0000
0000
0010
,
1000
0000
0000
0000
1000
0000
0000
0010
,
0002
2003
0000
0010
,
3010
0000
0000
0010
,
1000
0000
0001
0100
0001
0000
0010
0000
,
0001
0000
1000
0100
1000
0000
0010
0000
,
2000
0000
3010
0002
,
1003
0000
1000
0000
,
0010
0000
1000
0001
1000
0000
0100
0000
,
0010
0000
0000
1001
0000
0001
0000
1000
,
0001
1000
0000
0010
1000
0010
0000
0100
,
0010
0100
0000
0001
0000
1000
0000
0100
,
0010
0100
0000
0010
0001
0010
0000
0001
,
0100
0001
0000
1000
0000
0001
0000
1000
,
0010
1000
0000
0100
0010
0100
0000
0010
,
0001
0010
0000
0100
0000
1000
0000
1000
,
0010
1000
0000
0001
0000
0100
0000
0001
,
1000
0001
0000
0010
0000
0001
0000
1010
,
0000
0101
0000
1100
0000
0011
0000
1001
,
0000
0001
1000
0001
0000
1000
0000
1010
,
0000
1001
0000
0101
0000
1010
0000
1100
,
0000
0010
0001
0010
0000
0001
0000
1100
,
0000
0101
0000
1010
0000
1100
0000
0110
,
0000
1001
0000
1000
0000
0010
0000
0100
,
0010
0100
0000
0001
0000
0001
0000
1000
,
0001
1000
0000
0000
0000
0020
0000
0000
,
0000
1030
0000
0001
0000
2000
0000
0000
,
0000
3100
0000
0010
0000
0002
0000
1000
,
0000
1003
0000
0000
0001
2000
0000
3001
,
0000
0000
0000
0010
0001
0020
0000
0130
,
0000
0000
0000
0200
0000
1300
0000
0000
,
0000
0000
0000
0000
1000
0002
0000
1003
,
0000
0000
0000
2000
0000
3010
0000
0000
;

//---------------dance-single - ----------------
#NOTES:
     dance-single:
     :
     Beginner:
     2:
     0.110911,0.162527,0.025595,0.000000,0.000000,91.000000,88.000000,3.000000,0.000000,0.000000,0.000000,0.110911,0.162527,0.025595,0.000000,0.000000,91.000000,88.000000,3.000000,0.000000,0.000000,0.000000:
// measure 0
0000
0000
0000
0000
,  // measure 1
0000
0000
0000
0000
,  // measure 2
0000
0000
0000
0000
,  // measure 3
0000
0000
0000
0000
,  // measure 4
0000
0000
0000
0000
,  // measure 5
1000
0000
0010
0000
,  // measure 6
0100
0000
0000
0010
,  // measure 7
0010
0000
1000
0000
,  // measure 8
0001
0000
0000
0000
,  // measure 9
1000
0000
0001
0001
,  // measure 10
0001
0000
0010
0000
,  // measure 11
0100
0000
0000
0000
,  // measure 12
0100
0000
0000
0000
,  // measure 13
1000
0000
0010
0010
,  // measure 14
0010
0000
1000
0000
,  // measure 15
0001
0000
0000
0000
,  // measure 16
1000
0000
0010
0000
,  // measure 17
1000
0000
0000
0001
,  // measure 18
0001
0000
0000
0000
,  // measure 19
0010
0000
0100
0000
,  // measure 20
0010
0000
0001
0000
,  // measure 21
0001
0000
0000
0000
,  // measure 22
1000
0000
0000
0000
,  // measure 23
1000
0000
0010
0000
,  // measure 24
0100
0000
0000
0000
0000
1000
0000
0000
,  // measure 25
0000
0010
0000
0010
0000
0010
0000
0000
,  // measure 26
0000
1000
0000
1000
0000
1000
0000
0000
,  // measure 27
0000
0001
0000
0001
0000
0001
0000
0000
,  // measure 28
0000
0010
0000
0010
0000
0010
0000
0000
,  // measure 29
0000
0001
0000
0000
0000
1000
0000
0000
,  // measure 30
0000
0010
0000
0000
0000
1000
0000
0000
,  // measure 31
0000
1000
0000
0000
0000
0001
0000
0001
,  // measure 32
0000
0001
0000
0000
0000
1001
0000
0000
,  // measure 33
0000
0100
0000
0100
0000
0100
0000
0000
,  // measure 34
0000
0010
0000
0010
0000
0010
0000
0000
,  // measure 35
0000
1000
0000
1000
0000
1000
0000
0000
,  // measure 36
0000
0001
0000
0000
0000
0110
0000
0000
,  // measure 37
0000
1000
0000
1000
0000
1000
0000
0000
,  // measure 38
0000
0100
0000
0000
0000
0010
0000
0000
,  // measure 39
0000
0010
0000
0000
0000
1000
0000
0000
,  // measure 40
0000
0001
0000
0000
0000
1001
0000
0000
,  // measure 41
0000
0000
0000
1000
0000
1000
0000
0000
,  // measure 42
0000
0000
0000
0000
0000
0010
0000
0000
,  // measure 43
0000
0000
0000
0100
0000
0100
0000
0100
,  // measure 44
0000
0000
0000
0010
0000
0000
0000
0000
,  // measure 45
0000
0000
0000
0001
0000
0001
0000
0000
,  // measure 46
0000
0000
0000
0000
0000
1000
0000
0000
,  // measure 47
0000
0000
0000
1000
0000
0001
0000
0000
;
