#VERSION:0.83;
#TITLE:I Miss You;
#SUBTITLE:(Oliver Remix);
#ARTIST:Grey feat. Bahari;
#TITLETRANSLIT:;
#SUBTITLETRANSLIT:;
#ARTISTTRANSLIT:;
#GENRE:;
#ORIGIN:;
#CREDIT:;
#BANNER:banner.png;
#BACKGROUND:background.png;
#PREVIEWVID:;
#JACKET:jacket.png;
#CDIMAGE:;
#DISCIMAGE:;
#LYRICSPATH:;
#CDTITLE:;
#MUSIC:I Miss You (Oliver Remix).ogg;
#OFFSET:-0.231669;
#SAMPLESTART:75.503929;
#SAMPLELENGTH:18.823532;
#SELECTABLE:YES;
#BPMS:0.000=102.000;
#STOPS:;
#DELAYS:;
#WARPS:;
#TIMESIGNATURES:0.000=4=4;
#TICKCOUNTS:0.000=4;
#COMBOS:0.000=1;
#SPEEDS:0.000=1.000=0.000=0;
#SCROLLS:0.000=1.000;
#FAKES:;
#LABELS:0.000=Song Start;
#BGCHANGES:;
#KEYSOUNDS:;
#ATTACKS:
;

//---------------dance-single - ----------------
#NOTEDATA:;
#CHARTNAME:;
#STEPSTYPE:dance-single;
#DESCRIPTION:;
#CHARTSTYLE:;
#DIFFICULTY:Challenge;
#METER:13;
#RADARVALUES:0.444910,0.578986,0.312281,0.320721,0.510622,369.000000,332.000000,37.000000,38.000000,0.000000,0.000000,0.000000,0.000000,0.000000,0.444910,0.578986,0.312281,0.320721,0.510622,369.000000,332.000000,37.000000,38.000000,0.000000,0.000000,0.000000,0.000000,0.000000;
#CREDIT:Daniel Van Eden;
#NOTES:
// measure 0
0000
0000
0000
0000
,  // measure 1
0000
0000
0000
0000
,  // measure 2
0000
0000
0000
0000
,  // measure 3
0000
0000
0000
0000
,  // measure 4
0000
0000
0000
0000
,  // measure 5
0000
0000
0000
0000
,  // measure 6
0000
0000
0000
0000
,  // measure 7
0000
0000
0000
0000
,  // measure 8
1001
0000
0000
0000
0000
0000
0000
0000
0000
0000
0000
0000
0001
0000
0000
0000
0010
0000
0000
0000
0100
0000
0000
0000
1000
0000
0000
0000
0000
0000
0100
0000
0000
0000
0000
0000
1000
0000
0000
0000
0000
0000
0000
0000
0000
0010
0000
0000
,  // measure 9
0100
0000
0000
0000
0000
0000
0000
0000
0000
0100
0000
0000
0010
0000
0000
0000
1000
0000
0000
0000
0100
0000
0000
0000
0010
0000
0000
0000
0000
0000
0000
0000
0001
0000
0000
0000
0010
0000
0000
0000
0000
0000
0000
0000
0000
0000
0000
0000
,  // measure 10
1100
0000
0000
0000
0000
0000
0000
0000
0000
0100
0000
0000
1000
0000
0000
0000
0010
0000
0000
0000
0100
0000
0000
0000
0001
0000
0000
0000
0000
0000
0000
0000
0001
0000
0000
0000
1000
0000
0000
0000
0010
0000
0000
0000
0000
0000
0000
0000
,  // measure 11
0110
0000
0010
1000
0010
0100
0001
0000
0010
0001
0010
0100
1000
0010
0100
0000
,  // measure 12
1001
0000
0000
0000
0000
0000
0000
0000
0000
0000
0000
0000
0100
0000
0000
0000
0001
0000
0000
0000
1000
0000
0000
0000
0010
0000
0000
0000
0000
0000
1000
0000
0000
0000
0000
0000
1100
0000
0000
0000
0000
0000
0000
0000
0000
0100
0000
0000
,  // measure 13
1000
0000
0000
0000
0000
0000
0000
0000
0000
1000
0000
0000
0001
0000
0000
0000
0010
0000
0000
0000
0100
0000
0000
0000
0010
0000
0000
0000
0000
0000
0001
0000
0000
0000
0000
0000
0011
0000
0000
0000
0000
0000
0000
0000
0000
1000
0000
0000
,  // measure 14
0001
0000
0000
0000
0000
0000
0000
0000
0000
0001
0000
0000
0100
0000
0000
0000
0010
0000
0000
0000
0100
0000
0000
0000
0010
0000
0000
0000
0000
0000
1000
0000
0000
0001
0000
0000
0100
0000
0000
0000
0000
0000
0010
0000
0000
1000
0000
0000
,  // measure 15
0100
0000
0000
0000
0010
0000
0100
0000
0000
0000
0010
0000
0001
0000
0000
0000
0000
0000
0010
0100
1000
0000
0010
0000
0100
0000
0002
0000
0000
0000
0000
0000
,  // measure 16
1003
0010
1000
0010
1000
0100
0010
0000
0010
0011
0000
0001
,  // measure 17
0100
0000
0000
0000
0001
0000
0000
0000
0100
0000
0000
0000
0001
0000
0000
0000
0100
0000
0000
0000
0010
0000
0000
0000
1000
0000
0000
0000
0000
0000
0000
0000
1000
0000
0000
0000
0001
0000
0000
0000
0000
0000
1000
0000
0000
0100
0000
0000
,  // measure 18
0010
0000
0000
0001
0100
0000
1010
0000
0000
0000
0010
0100
0001
1000
0001
0100
,  // measure 19
0010
0000
0000
0000
0010
0000
1000
0000
0000
0000
1000
0000
0100
0000
0000
0000
0100
0000
0010
0000
0001
0000
0010
0000
0100
0000
1000
0100
1000
0000
0001
0000
,  // measure 20
0100
0001
1000
0010
0100
0001
1000
0000
1000
1100
0000
0100
,  // measure 21
0010
0000
0100
0000
1000
0000
0001
0000
0010
0000
0100
0000
1000
0000
0000
0000
1000
0000
0010
0000
0000
0100
0000
0000
,  // measure 22
0101
0000
0000
0001
1000
0010
1000
0001
0000
0000
0010
0100
1000
0000
1010
0000
,  // measure 23
0120
0030
1000
0002
0013
0000
2100
3000
0100
0010
0001
0010
0100
0000
1000
0000
,  // measure 24
2010
0000
0010
0001
0000
0000
0001
3200
,  // measure 25
0020
0000
0000
0000
0330
0000
0010
0001
,  // measure 26
0001
1000
0100
0010
0001
0100
0010
1000
,  // measure 27
1000
0001
0100
0010
1000
0000
0001
1000
,  // measure 28
0102
0000
0100
1000
0000
0000
1000
0023
,  // measure 29
0200
0000
0000
0000
0330
0000
1000
0001
,  // measure 30
1000
0010
0100
0001
0010
0100
1000
0001
,  // measure 31
1001
0000
0000
1100
0000
0000
1010
0000
0100
0001
0010
1000
0010
0001
0100
0000
,  // measure 32
1010
0000
1000
0000
0011
0000
0010
0100
2000
0000
3000
0010
0100
0000
0001
0100
,  // measure 33
0020
0000
1030
0001
1000
0000
0100
0010
0001
0000
0110
0000
0011
0000
1100
0000
,  // measure 34
1001
0000
0001
0000
1010
0000
1000
0001
0200
0000
0300
0001
0010
0000
0100
1000
,  // measure 35
0001
0000
1000
0100
0001
0100
2000
0000
3000
0000
0010
0100
1001
0000
1000
0000
,  // measure 36
1010
0000
0100
0000
0001
0000
0010
0100
2000
0000
3000
0100
0010
0000
0100
1000
,  // measure 37
0002
0000
0013
0100
1000
0000
0100
0010
0001
0000
0101
0000
1010
0000
1100
0000
,  // measure 38
1001
0000
0100
0000
0101
0000
0010
0100
2000
0000
3000
0010
0100
0000
0001
1000
,  // measure 39
0202
0303
0000
0022
0033
0000
0220
0330
0000
0000
0100
0100
1000
0001
0010
0000
,  // measure 40
0000
1000
0100
0010
0100
0010
0001
0000
0001
1000
0000
0000
,  // measure 41
0000
0001
0100
0010
0100
0010
1000
0000
1000
0001
0000
0000
,  // measure 42
0000
0001
0010
0100
0100
0100
2000
0000
0000
3000
0010
1000
,  // measure 43
0001
0000
0001
0000
0001
0000
0200
0000
0000
0020
0000
0000
0300
0000
0000
0030
0000
0000
2001
0000
0000
3010
0000
0000
,  // measure 44
0201
0020
0000
0030
,  // measure 45
0002
0000
0300
0023
,  // measure 46
0200
0000
0300
0032
,  // measure 47
2003
0000
0000
0020
3000
0000
0200
0000
0000
0000
0030
0000
0002
0000
0300
0000
,  // measure 48
2000
0000
0000
0000
,  // measure 49
3003
0000
0000
0000
;
