#VERSION:0.83;
#TITLE:Hot Right Now;
#SUBTITLE:;
#ARTIST:DJ Fresh feat. Rita Ora;
#TITLETRANSLIT:;
#SUBTITLETRANSLIT:;
#ARTISTTRANSLIT:;
#GENRE:;
#ORIGIN:;
#CREDIT:;
#BANNER:banner.png;
#BACKGROUND:background.png;
#PREVIEWVID:;
#JACKET:jacket.png;
#CDIMAGE:;
#DISCIMAGE:;
#LYRICSPATH:;
#CDTITLE:;
#MUSIC:Hot Right Now.ogg;
#OFFSET:-0.393808;
#SAMPLESTART:33.115093;
#SAMPLELENGTH:11.657143;
#SELECTABLE:YES;
#BPMS:0.000=87.500,
48.000=175.000;
#STOPS:;
#DELAYS:;
#WARPS:;
#TIMESIGNATURES:0.000=4=4;
#TICKCOUNTS:0.000=4;
#COMBOS:0.000=1;
#SPEEDS:0.000=1.000=0.000=0;
#SCROLLS:0.000=1.000;
#FAKES:;
#LABELS:0.000=Song Start;
#LASTSECONDHINT:106.006516;
#BGCHANGES:;
#KEYSOUNDS:;
#ATTACKS:
;

//---------------dance-single - ----------------
#NOTEDATA:;
#CHARTNAME:;
#STEPSTYPE:dance-single;
#DESCRIPTION:;
#CHARTSTYLE:;
#DIFFICULTY:Hard;
#METER:14;
#RADARVALUES:0.649980,1.031621,0.378386,0.000000,0.281482,493.000000,452.000000,41.000000,0.000000,0.000000,0.000000,0.000000,0.000000,0.000000,0.649980,1.031621,0.378386,0.000000,0.281482,493.000000,452.000000,41.000000,0.000000,0.000000,0.000000,0.000000,0.000000,0.000000;
#CREDIT:Daniel Van Eden;
#NOTES:
0000
0000
0000
0000
,
0000
0000
0000
0000
,
0000
0000
0000
0000
,
0000
0000
0000
0000
,
0000
0000
0010
0100
0010
1000
0100
0010
0001
0000
0001
0000
0100
0000
0001
0000
,
0000
0000
0100
0001
0100
0010
0100
0001
1000
0000
0100
0000
1000
0000
0001
0100
,
0000
0000
0010
1000
0000
0010
1000
0000
0000
0000
0100
0000
0000
0000
0010
0000
,
0000
0000
0001
1000
0000
0001
1000
0000
0000
0000
0100
0001
0010
0000
0100
0000
,
0000
0000
0001
1000
0100
0010
0100
1000
0010
0000
0010
0000
0100
0000
0001
0000
,
0000
0000
0010
0001
0010
0001
0100
0010
1000
0000
0001
0000
0010
0000
0100
0000
,
1000
0000
0010
1000
0100
0010
0001
0000
0100
0000
1010
0000
1000
0000
0101
0000
,
0010
0000
0100
0000
0001
0000
0010
0000
0100
0000
1000
0000
0010
0000
0100
0000
0001
0010
0001
0010
0100
1000
0100
1000
0010
0100
0010
0100
0001
0000
1000
0000
,
0100
0010
0001
1000
0001
0100
0001
0100
,
0010
0000
0011
0000
0001
0100
1010
0000
,
0100
0000
1100
0000
1000
0001
1000
0100
,
0010
0000
0000
0000
0011
0000
0000
0010
0100
0000
1000
0000
1001
0000
0001
0000
,
0010
0100
0100
0010
0001
0100
1000
0100
,
0001
0010
0100
0000
1000
0001
0110
0000
,
1010
0000
0001
1000
0010
0100
0001
0000
,
1100
0000
0000
0000
0011
0000
0000
0001
1000
0000
0010
0000
0110
0000
1000
0000
,
1000
0001
0010
0100
0001
0100
1000
0010
,
0100
0000
1001
0000
0010
1000
0110
0000
,
1000
0000
0011
0000
0010
1000
0010
0100
,
0001
0000
0000
0000
1010
0000
0000
0100
0000
0000
0001
0000
0010
0000
0100
0000
,
0010
0001
0010
0100
1000
0010
0100
0010
,
1000
0001
0010
0000
0100
1000
0011
0000
,
0010
0000
1000
0100
0010
0100
1000
0000
,
0010
0000
0000
0000
1010
0000
0000
1000
0100
0000
0010
0000
0011
0000
0000
0000
,
1001
0000
0010
0001
0010
0100
1000
0000
,
0010
0000
1000
0001
0100
0010
1000
0000
,
0100
0000
0010
0001
0010
0100
1000
0000
,
0010
0000
1000
0000
0010
0000
0100
0010
0100
0000
0001
0000
0010
0000
0100
0000
,
1000
0010
1000
0100
0010
0001
0010
0100
,
1000
0001
0010
0100
1000
0001
1000
0000
,
0010
0100
0001
0010
0001
1000
0010
0100
,
0001
0000
0010
0000
0001
0000
1000
0100
1000
0000
0010
0000
0100
0000
0000
0000
,
0011
0000
0010
0001
1000
0001
0010
0000
,
0100
0000
0110
0000
1000
0100
0011
0000
,
1001
0000
0100
0010
1000
0001
0100
0000
,
0110
0000
0000
0000
0001
0000
1000
0010
1000
0000
0100
0000
0010
0000
0000
0000
,
0100
1000
0010
0100
0001
0010
1000
0010
,
0001
0100
0010
0000
1000
0010
0101
0000
,
0010
0100
0001
1000
0100
1000
0010
0100
,
0001
0000
0010
0000
0100
0000
1000
0010
1000
0000
0001
0000
0010
0000
0100
0000
,
1000
0000
1000
0001
0100
0010
1000
0000
,
0100
0000
1001
0000
0010
0000
0001
0100
,
0010
1000
0010
1000
0100
1000
0100
1000
,
0010
1000
0010
1000
0001
0100
0001
0100
0010
0100
0010
0100
0010
0000
1000
0000
,
1000
0000
0010
0000
0010
0000
0100
0000
0010
1000
0100
0000
0010
0000
0001
0000
,
0100
0000
0011
0000
0001
0100
1010
0000
,
0100
0000
0000
0000
1001
0000
0000
0000
0100
0001
1000
0000
0010
0000
1000
0000
,
0010
0000
0000
0000
0110
0000
0000
1000
0001
0000
0100
0000
0010
0000
0010
0000
,
0010
0000
1000
0000
1000
0000
0001
0000
0001
1000
0100
0000
1000
0000
0100
0000
,
0010
0010
0001
0000
0001
1000
0110
0000
,
0001
0000
0000
0000
0100
0000
0001
0100
0001
0100
0001
0000
1000
0000
0000
0000
,
0101
0000
0000
0000
0011
0000
0000
0001
1000
0000
0100
0000
1000
0000
0010
0000
,
0010
0000
1000
0000
1000
0000
0100
0000
0010
0001
0100
0000
0010
0000
1000
0000
,
0001
0000
0011
0000
0001
0010
1100
0000
,
0010
0000
0000
0000
1010
0000
0000
0000
0100
0010
0100
0000
0010
0000
1000
0000
,
0001
0000
0000
0000
0101
0000
0000
0010
0100
0000
0001
0000
0010
0000
0010
0000
,
0010
0100
0100
0001
0100
1000
0010
0100
,
0010
0010
1000
0000
0001
1000
0110
0000
,
0001
0000
0000
0000
0010
0000
0100
1000
0100
1000
0100
0000
1000
0000
0000
0000
,
0100
0000
0000
0000
1001
0000
0000
1000
0010
0000
0100
0000
0011
0000
1000
0000
;

//---------------dance-single - ----------------
#NOTEDATA:;
#CHARTNAME:;
#STEPSTYPE:dance-single;
#DESCRIPTION:;
#CHARTSTYLE:;
#DIFFICULTY:Beginner;
#METER:4;
#RADARVALUES:0.209628,0.295326,0.046145,0.000000,0.000000,159.000000,154.000000,5.000000,0.000000,0.000000,0.000000,0.000000,0.000000,0.000000,0.209628,0.295326,0.046145,0.000000,0.000000,159.000000,154.000000,5.000000,0.000000,0.000000,0.000000,0.000000,0.000000,0.000000;
#CREDIT:Daniel Van Eden;
#NOTES:
// measure 0
0000
0000
0000
0000
,  // measure 1
0000
0000
0000
0000
,  // measure 2
0000
0000
0000
0000
,  // measure 3
0000
0000
0000
0000
,  // measure 4
0000
0010
0010
0010
,  // measure 5
0000
1000
0001
1000
,  // measure 6
0000
0100
0000
0010
,  // measure 7
0000
1000
0010
0001
,  // measure 8
0000
0001
0100
0010
,  // measure 9
0000
0010
1000
0100
,  // measure 10
0010
0010
0100
0100
,  // measure 11
0001
1000
0001
1001
,  // measure 12
1000
0000
0001
0000
,  // measure 13
0010
0010
0010
0000
,  // measure 14
0100
0100
0100
0000
,  // measure 15
0010
0010
0010
0000
,  // measure 16
0001
0000
1000
0000
,  // measure 17
0100
0100
0100
0000
,  // measure 18
0010
0000
1000
0000
,  // measure 19
0001
0001
0001
0000
,  // measure 20
0010
0000
0100
0000
,  // measure 21
1000
1000
1000
0000
,  // measure 22
0010
0010
0010
0000
,  // measure 23
0100
0100
0100
0000
,  // measure 24
0001
0000
0010
0000
,  // measure 25
0001
0001
0001
0000
,  // measure 26
1000
0000
0010
0000
,  // measure 27
1000
0000
1001
0000
,  // measure 28
0001
0000
0001
0001
,  // measure 29
0000
0000
1000
1000
,  // measure 30
0000
0000
0010
0010
,  // measure 31
0000
0100
0100
0100
,  // measure 32
0000
0010
0000
1000
,  // measure 33
0000
0100
0000
0010
,  // measure 34
0000
0001
0000
1000
,  // measure 35
0000
0010
0000
1000
,  // measure 36
0000
0100
0000
0100
,  // measure 37
0000
0010
0000
0010
,  // measure 38
0000
0100
0000
0100
,  // measure 39
0000
0001
0001
0001
,  // measure 40
0000
1000
0000
0010
,  // measure 41
0000
1000
0000
0001
,  // measure 42
0000
0010
0000
0100
,  // measure 43
0000
0010
0000
0001
,  // measure 44
1000
0000
1000
0000
,  // measure 45
0001
0000
0001
0000
,  // measure 46
1000
1000
0001
0001
,  // measure 47
1000
0001
1000
0001
,  // measure 48
1000
0000
0010
0000
,  // measure 49
0100
0100
0100
0000
,  // measure 50
0010
0010
0010
0000
,  // measure 51
1000
1000
1000
0000
,  // measure 52
0001
0000
0010
0000
,  // measure 53
0100
0100
0100
0000
,  // measure 54
0010
0000
1000
0000
,  // measure 55
0001
0000
1001
0000
,  // measure 56
1000
0000
0010
0000
,  // measure 57
0100
0100
0100
0000
,  // measure 58
0001
0001
0001
0000
,  // measure 59
1000
1000
1000
0000
,  // measure 60
0010
0000
1000
0000
,  // measure 61
0100
0100
0100
0000
,  // measure 62
0010
0000
0001
0000
,  // measure 63
1000
0000
0110
0000
,  // measure 64
1001
0000
0000
0000
;

//---------------dance-single - ----------------
#NOTEDATA:;
#CHARTNAME:;
#STEPSTYPE:dance-single;
#DESCRIPTION:;
#CHARTSTYLE:;
#DIFFICULTY:Easy;
#METER:6;
#RADARVALUES:0.296644,0.383923,0.073831,0.000000,0.000000,225.000000,217.000000,8.000000,0.000000,0.000000,0.000000,0.000000,0.000000,0.000000,0.296644,0.383923,0.073831,0.000000,0.000000,225.000000,217.000000,8.000000,0.000000,0.000000,0.000000,0.000000,0.000000,0.000000;
#CREDIT:Daniel Van Eden;
#NOTES:
0000
0000
0000
0000
,
0000
0000
0000
0000
,
0000
0000
0000
0000
,
0000
0000
0000
0000
,
1000
0000
0010
0000
0100
0010
0100
0000
,
0001
0000
0010
0000
0001
1000
0001
0000
,
1000
0000
0010
0000
1000
0001
0000
0001
,
1000
0100
0010
0100
,
0010
0000
0001
0000
0100
0001
0100
0000
,
0010
0000
1000
0000
0001
1000
0001
0000
,
1000
0100
0010
0001
,
1000
0001
1000
0001
0010
0100
0010
0001
,
1000
0001
0100
0010
,
1000
1000
1000
0000
,
0001
0001
0001
0100
,
0010
0010
0010
1000
,
0001
0010
0100
1000
,
0001
0001
0010
0000
,
0100
0000
1000
0000
,
0010
1000
1001
0000
,
1000
0001
1000
0010
,
0100
0100
0100
0000
,
0010
0010
0010
0100
,
1000
1000
1000
0001
,
0010
0100
0010
0001
,
1000
1000
1000
0000
,
0001
0000
0101
0000
,
0010
1000
1010
0000
,
0010
0100
0100
0100
,
0000
0001
0001
0001
,
0000
1000
1000
1000
,
0010
0100
0001
0010
,
0100
0010
0001
0000
,
1000
0001
0100
0010
,
1000
0001
1000
0000
,
0100
0010
0001
0010
,
0100
0010
0000
0010
,
0100
0001
0000
0001
,
0100
1000
0000
1000
,
0010
0100
0001
1000
,
0000
0010
1000
0001
,
1000
0100
0001
0100
,
0000
1000
0001
0010
,
0100
1000
0100
0010
,
1000
0000
0001
0000
,
1000
0000
0001
0000
,
0100
0010
1000
0010
,
0100
0001
0010
0100
,
0001
0100
1000
0100
,
0010
0010
0010
0000
,
0100
0100
0100
0001
,
0100
0100
0100
0010
,
1000
0001
1000
0010
,
1000
1000
1000
0000
,
0100
0000
0110
0000
,
0010
0001
1001
0000
,
0001
0001
0100
0100
,
0010
1000
0010
0000
,
0100
0001
0100
0001
,
0010
0100
0010
0100
,
0100
1000
1000
0010
,
1000
0001
0100
0000
,
0010
0000
1001
0000
,
1000
0100
0110
0000
,
1001
0000
0000
0000
;

//---------------dance-single - ----------------
#NOTEDATA:;
#CHARTNAME:;
#STEPSTYPE:dance-single;
#DESCRIPTION:;
#CHARTSTYLE:;
#DIFFICULTY:Medium;
#METER:11;
#RADARVALUES:0.446944,0.749850,0.323012,0.046145,0.059988,339.000000,304.000000,35.000000,5.000000,0.000000,0.000000,0.000000,0.000000,0.000000,0.446944,0.749850,0.323012,0.046145,0.059988,339.000000,304.000000,35.000000,5.000000,0.000000,0.000000,0.000000,0.000000,0.000000;
#CREDIT:Daniel Van Eden;
#NOTES:
0000
0000
0000
0000
,
0000
0000
0000
0000
,
0000
0000
0000
0000
,
0000
0000
0000
0000
,
0000
0010
1000
0010
0100
0100
0010
0100
,
0000
0100
0001
0100
0010
0010
1000
0001
,
0000
0000
0001
1000
0000
0001
2000
0000
0000
0000
0001
0000
0000
0000
3001
0000
,
0000
0000
0100
0010
0000
0100
0010
0000
0200
0000
0000
0302
0000
0000
0013
0000
,
0000
0100
0010
0001
0010
0100
1000
0010
,
0000
0010
1000
0010
0100
0001
0010
0100
,
0010
0001
0010
0100
1000
0100
0001
0100
,
1000
0010
1000
0010
0100
0010
0100
0001
0010
0001
0010
0100
1000
0001
0010
0001
,
1000
0000
0010
0000
0100
0001
0100
0000
,
0101
0110
1010
0000
,
1001
0000
1100
0000
0110
0000
0010
0001
,
0010
0000
1001
0000
0101
0000
0010
0100
,
0010
0000
1000
0010
1000
0000
0100
0000
,
0010
0001
1000
0000
0010
0000
1010
0000
,
0100
0000
0001
0100
0000
0010
1000
0000
,
0010
1000
0100
0011
,
0001
0000
0100
0000
0010
0100
0001
0000
,
0011
0110
1100
0000
,
1001
0000
1010
0000
0110
0000
0010
0100
,
0010
0000
1010
0000
1100
0000
0010
0001
,
0010
0000
0100
1000
0100
0000
0010
0000
,
0001
1000
0001
0000
0100
0000
0010
0000
,
0100
0000
0010
1000
0000
1000
0010
0000
,
0100
0001
0010
0000
,
1000
0000
0010
1000
0010
0000
0100
0000
,
0000
0000
0100
0010
0100
0000
0001
0000
,
0000
0000
0001
0010
0001
0000
1000
0000
,
0100
1000
0100
1000
0100
0000
0100
0000
,
0010
0001
1000
0010
,
0100
0010
0100
0000
0010
0000
1000
0000
,
0000
1000
0100
0000
0010
0000
0100
0000
,
1000
0010
0100
0101
,
0200
0000
0001
0001
0000
0010
0310
0000
,
1000
1010
0001
0101
,
0000
0000
0010
0100
0000
0010
0100
0000
,
0000
1000
0001
0010
,
0000
0010
0100
1000
,
0001
1000
0001
0000
1000
0000
0010
0000
,
0000
0010
0100
0000
0010
0000
1000
0000
,
0001
0000
0010
0000
0010
0001
0010
0000
,
0100
1000
0001
1000
,
0001
0010
0100
0010
,
0100
0000
1000
0100
1000
0100
0010
0001
,
0010
0001
1000
0100
0010
0001
0010
0100
,
1000
0000
0010
0000
0100
0010
0100
0000
,
0101
0110
0101
0000
,
1001
0000
1100
0000
1001
0000
1000
0001
,
1000
0000
1001
0000
0011
0000
0001
0010
,
0001
0000
0010
0100
0010
0000
0100
0000
,
0010
0100
0010
0000
1000
0000
0010
0000
,
1000
0000
0010
0100
0000
0010
0100
0000
,
0010
1000
0001
0000
,
1000
0000
0010
0000
1000
0100
1000
0000
,
0010
0011
0101
0000
,
0010
0000
1010
0000
1001
0000
1000
0100
,
1000
0000
1100
0000
0110
0000
0010
0001
,
0010
0000
0001
0100
0001
0000
0100
0000
,
0010
1000
0010
0000
0100
0000
0010
0000
,
0100
0000
0001
1000
0000
0001
1000
0000
,
0010
1000
0100
0010
,
0002
0000
0000
0000
,
0003
0000
0000
0000
;
