#TITLE:Hide and Seek;
#SUBTITLE:;
#ARTIST:Steve Void & BEAUZ feat. Carly Paige;
#TITLETRANSLIT:;
#SUBTITLETRANSLIT:;
#ARTISTTRANSLIT:;
#GENRE:EDM;
#CREDIT:;
#BANNER:banner.png;
#BACKGROUND:background.png;
#LYRICSPATH:;
#CDTITLE:;
#MUSIC:Hide and Seek.ogg;
#OFFSET:-0.170173;
#SAMPLESTART:64.546021;
#SAMPLELENGTH:14.845360;
#SELECTABLE:YES;
#BPMS:0.000000=97.000000
,160.500000=83.000000
,161.000000=72.750000
,161.500000=48.500000
,162.000000=40.000000
,162.500000=24.000000
;
#STOPS:
;
#BGCHANGES:;
#KEYSOUNDS:;
#ATTACKS:;

//---------------dance-single - ----------------
#NOTES:
     dance-single:
     :
     Challenge:
     14:
     0.506925,0.691242,0.229230,0.110030,0.522643,387.000000,362.000000,25.000000,12.000000,0.000000,0.000000,0.506925,0.691242,0.229230,0.110030,0.522643,387.000000,362.000000,25.000000,12.000000,0.000000,0.000000:
0000
0000
0000
0000
,
0000
0000
0000
0000
,
0000
0000
0000
0000
,
0000
0000
0000
0000
,
2000
0010
0001
0000
0010
0001
0010
3200
,
0020
0000
0000
0330
,
0102
0010
1000
0100
0100
0010
1000
0203
,
0020
0000
0000
0000
0000
0000
0000
0000
0300
0000
0030
1000
0001
0000
1000
0000
,
1100
0000
0100
0000
0001
0000
0010
0001
0010
0000
0100
0000
1000
0000
0001
1000
,
0001
0000
0000
0000
0110
0000
0000
0000
0000
0000
0100
0010
1000
0010
0100
0001
,
0010
0000
0001
0000
1000
0000
0010
1000
0010
0000
0100
0000
0001
0000
0100
0010
,
1000
0000
0000
0000
0110
0000
0000
0000
0001
0000
0100
1000
0100
0000
0011
0000
,
1010
0000
0000
0100
0010
0000
0100
0010
1000
0000
0000
0001
0100
0000
0010
0100
,
0010
0000
0000
0000
1001
0000
0001
1000
0001
0000
0100
0000
0010
0000
0100
0010
,
1000
0000
0000
0000
0110
0000
1000
0100
1000
0000
0001
0000
0100
0000
1000
0100
,
0001
0000
0000
0000
1010
0000
0001
0000
0001
0010
1000
0010
0010
0001
0100
0000
,
0110
0000
0000
0100
0001
0000
0100
0010
0100
0000
0000
0010
1000
0000
0001
0100
,
0010
0000
0000
1000
0100
0000
0010
0100
1000
0000
0100
0000
0011
0000
0000
1000
,
0001
0000
0000
0001
0100
0000
0100
0001
0010
0000
0100
0000
0110
0000
0000
0100
,
1000
0000
0000
0000
0010
0000
1000
0000
0010
0000
0000
0000
0100
0000
0000
0000
0001
0000
1000
0000
0010
0000
0100
0001
0010
0000
0100
0000
1000
0000
0001
0000
,
0010
0000
0010
0000
0010
0000
0010
0100
1000
0000
1000
0000
1000
0000
1000
0001
,
0100
0000
0100
0000
0100
0000
0010
1000
0010
0000
0010
1000
0100
0010
0001
1000
,
0100
0000
0100
0000
0100
0000
0100
0010
0100
0000
0100
0000
0100
0000
0100
0010
,
0001
0000
0001
0000
0001
0000
1000
0001
1000
0000
1000
0000
0010
0000
1000
0000
,
1001
0000
0000
0100
0001
0000
0010
0001
0010
0000
0100
0000
0010
0000
1001
0000
,
0101
0000
0000
0000
0010
0000
1000
0010
0100
0000
0000
0000
0010
0000
0100
0010
,
1000
0000
0000
0000
0100
0000
1000
0000
0100
0000
0000
0000
0010
0000
0001
0000
0010
0000
0000
0000
0100
0000
0010
0000
0100
0000
0010
0000
0001
0100
0010
1000
,
0010
0000
1000
0000
0010
0000
1000
0000
0100
0000
0010
0000
0001
0010
0001
0010
0100
0010
0100
1000
0100
0010
0001
0100
0020
0000
0000
0000
0030
0000
0000
0000
,
1100
0000
0000
0000
0000
0000
0000
0000
0000
0100
0000
0000
0010
0000
0000
0000
0000
0000
0001
0000
0010
0000
0100
0000
0010
0000
0000
0000
0000
0000
0001
0000
0000
0100
0000
0000
0010
0000
0000
0000
0000
0000
0010
0000
0000
1000
0000
0000
,
0010
0000
0000
0000
0000
0000
1100
0000
0000
0000
0000
0000
0110
0000
0000
0000
0000
0000
1000
0000
0001
0000
1000
0000
0010
0000
0000
0000
0000
0000
0100
0000
0000
0001
0000
0000
1000
0000
0000
0000
0000
0000
0100
0000
0000
0000
0000
0000
,
1001
0000
0000
0000
0000
0000
0000
0000
0000
0100
0000
0000
0001
0000
0000
0000
0000
0000
0100
0000
0001
0000
0100
0000
0010
0000
0000
0000
0000
0000
1000
0000
0000
0010
0000
0000
0100
0000
0000
0000
0000
0000
0010
0000
0000
0100
0000
0000
,
0001
0000
0000
0000
0000
0000
0000
0000
0000
0000
0000
0000
0000
0000
0000
0000
0000
0000
0000
0000
0000
0000
0000
0000
0011
0000
0000
0000
0000
0000
0000
0000
0000
0000
0000
0000
0000
0000
0000
0000
0000
0000
0000
0000
0000
0000
0000
0000
0110
0000
0000
0000
0000
0000
0000
0000
0000
0000
0000
0000
0000
0000
0000
0000
0000
0000
0000
0000
0000
0000
0000
0000
1000
0000
0000
0000
0000
0000
0000
0000
0100
0000
0000
0000
0000
0000
0000
0000
0010
0000
0000
0000
0000
0000
0000
0000
0001
0000
0000
0000
0000
0000
0000
0000
0000
0000
0000
0000
0000
0000
0000
0000
0000
0000
0000
0000
0000
0000
0000
0000
0010
0000
0000
0000
0000
0000
0000
0000
0000
0000
0000
0000
0001
0000
0000
0000
0000
0000
0010
0000
0000
0000
0000
0000
0100
0000
0000
0000
0000
0000
0000
0000
0000
0000
0000
0000
0000
0000
0000
0000
0000
0000
0000
0000
0000
0000
0000
0000
1000
0000
0000
0000
0000
0000
0000
0000
0000
0000
0000
0000
0000
0000
0000
0000
0000
0000
0000
0000
0000
0000
0000
0000
,
1010
0000
0000
0000
0000
0000
0010
0000
0000
0100
0000
0000
0010
0000
0000
0000
0000
0000
1000
0000
0010
0000
1000
0000
0010
0000
0000
0000
0000
0000
0100
0000
0000
0001
0000
0000
1000
0000
0000
0000
0000
0000
0100
0000
0000
0010
0000
0000
,
0100
0000
0100
1000
0011
0000
0001
0100
0010
0000
1000
0001
1000
0010
1000
0100
,
0010
0000
0000
0000
0000
0000
0001
0000
0000
0010
0000
0000
0001
0000
0000
0000
0000
0000
0100
0000
0010
0000
1000
0000
0001
0000
0000
0000
0000
0000
0100
0000
0000
0001
0000
0000
0100
0000
0000
0000
0000
0000
0010
0000
0000
1000
0000
0000
,
0010
0000
0000
0000
0110
0000
0000
0000
0101
0000
0000
0000
1000
0000
0000
0000
0100
0000
0000
0000
0010
0000
0100
0010
0001
0000
0000
0000
0100
0000
0000
0000
,
0020
0000
0030
0000
1000
0000
0010
0100
0000
0000
0001
0000
0100
0000
0010
1000
,
0200
0000
0000
0000
0000
0000
0010
0000
0310
0000
0000
0001
0000
0100
1000
0010
,
0100
0000
0000
0000
0000
0000
0000
0000
0010
1000
0010
1000
0100
0000
0010
0000
0000
0000
0000
0000
0100
0000
0000
0000
0010
0000
0000
0000
0010
0000
0100
0000
,
0002
0000
0000
0000
0000
0000
0010
0000
0013
0000
0000
0200
0000
0000
1300
0000
,
0100
0010
0001
0000
1000
0000
0100
0000
0010
0000
0002
0000
1003
0000
0000
0000
;

//---------------dance-single - ----------------
#NOTES:
     dance-single:
     :
     Medium:
     7:
     0.252807,0.293414,0.091692,0.110030,0.000000,193.000000,183.000000,10.000000,12.000000,0.000000,0.000000,0.252807,0.293414,0.091692,0.110030,0.000000,193.000000,183.000000,10.000000,12.000000,0.000000,0.000000:
0000
0000
0000
0000
,
0000
0000
0000
0000
,
0000
0000
0000
0000
,
0000
0000
0000
0000
,
0010
1000
0000
1000
0010
1000
0000
0100
,
0020
0000
0000
0030
,
0001
0100
0000
0100
0010
0100
0000
0001
,
1000
1000
0000
1001
,
0100
0000
0001
0100
0010
0100
0010
1000
,
0001
0000
1100
0000
0000
0100
0110
0000
,
0010
0001
0010
0000
1000
0100
1000
0010
,
0100
0000
0010
0000
0000
0000
1000
1100
,
0100
0000
0010
0001
1000
0000
0100
1000
,
0010
0000
0100
0000
0010
1000
0001
1000
,
0001
0000
0010
0001
0010
0000
0100
0010
,
0100
0000
1100
0000
1000
0010
0000
0000
,
0101
0000
0100
0001
0100
0000
0010
1000
,
0001
0000
0010
0000
0001
0100
0001
1000
,
0001
0000
0010
0100
0010
0000
1000
0000
,
0001
0100
0010
0010
1000
0001
1000
1000
,
0010
0000
1000
0000
0001
1000
0001
1000
,
0010
0100
0010
0001
,
1000
0000
0010
0000
0100
0001
0010
0001
,
1000
0000
0000
0000
0000
0000
0001
0010
,
0100
0000
0010
0100
1000
0000
0010
1000
,
0001
0000
0100
0001
1000
0000
0100
1000
,
0200
0300
2000
3000
0020
0030
2000
3000
,
0001
1000
0001
1000
0001
1000
0020
0000
,
0130
0000
0001
1000
0000
1000
1001
0000
,
1000
0001
0010
1000
0010
0001
0000
1000
,
0010
0000
0100
0010
0000
0010
1010
0000
,
1000
0010
0100
0010
1000
0100
0010
0001
,
1000
0000
0100
0010
0000
0010
0011
0000
,
0001
1000
0010
1000
0100
0010
0000
0001
,
1000
0000
0001
0100
0000
0100
0101
0000
,
0001
1000
0010
0100
0001
0100
1000
0100
,
0002
0000
2003
0000
,
3020
0000
0000
0000
0000
0000
0000
0030
,
0200
0000
0320
0000
,
2030
0000
0000
0000
,
3000
0000
0000
0000
;

//---------------dance-single - ----------------
#NOTES:
     dance-single:
     :
     Easy:
     3:
     0.140157,0.183384,0.045846,0.000000,0.000000,107.000000,102.000000,5.000000,0.000000,0.000000,0.000000,0.140157,0.183384,0.045846,0.000000,0.000000,107.000000,102.000000,5.000000,0.000000,0.000000,0.000000:
0000
0000
0000
0000
,
0000
0000
0000
0000
,
0000
0000
0000
0000
,
0000
0000
0000
0000
,
0010
0000
1000
0100
,
0010
0000
0000
0001
,
0001
1000
0010
1000
,
0001
0000
0000
0000
,
0100
0010
0000
0010
,
0100
0001
0000
1000
,
0010
1000
0000
0001
,
1000
0000
0010
0010
,
0100
0001
0100
0000
,
0010
0000
1000
0100
,
0010
0000
0001
0000
,
1000
0000
0010
0000
,
1000
0001
1000
0000
,
0100
0010
0001
0000
,
0100
0010
1000
0000
,
1000
0001
1000
0001
,
1000
0010
0000
0010
,
0000
0100
0000
0100
,
0000
0001
0000
0001
,
0000
1000
0000
0010
,
1000
1000
0000
0001
,
0000
0001
0000
1000
,
1000
0010
0000
0010
,
0100
0010
0000
1001
,
1000
0001
0000
0010
,
0100
0010
0001
1000
,
0010
0110
0000
1001
,
1000
0001
0010
0001
,
0100
0010
0000
0010
,
1000
0100
0001
0100
,
1000
1100
0000
0011
,
0001
1000
0010
0100
,
0001
0000
1000
0000
,
0010
0000
0010
0000
,
0001
0000
1000
0000
,
1000
0000
0001
0000
,
0100
0000
0000
0000
;

//---------------dance-single - ----------------
#NOTES:
     dance-single:
     :
     Beginner:
     1:
     0.083833,0.107279,0.027508,0.000000,0.000000,64.000000,61.000000,3.000000,0.000000,0.000000,0.000000,0.083833,0.107279,0.027508,0.000000,0.000000,64.000000,61.000000,3.000000,0.000000,0.000000,0.000000:
// measure 0
0000
0000
0000
0000
,  // measure 1
0000
0000
0000
0000
,  // measure 2
0000
0000
0000
0000
,  // measure 3
0000
0000
0000
0000
,  // measure 4
1000
0000
0001
0000
,  // measure 5
0100
0000
0000
0000
,  // measure 6
0010
0000
0100
0000
,  // measure 7
0001
0000
0000
0000
,  // measure 8
0001
0000
1000
0000
,  // measure 9
1000
0000
0000
0000
,  // measure 10
0010
0000
0100
0000
,  // measure 11
0010
0000
0000
0000
,  // measure 12
0001
0000
1000
0000
,  // measure 13
0001
0000
0100
0100
,  // measure 14
0100
0000
0010
0000
,  // measure 15
0100
0000
0001
0000
,  // measure 16
1000
0000
0001
0000
,  // measure 17
0010
0000
0001
0001
,  // measure 18
0001
0000
0100
0000
,  // measure 19
0010
0000
1000
0000
,  // measure 20
0001
0000
0000
0000
,  // measure 21
1000
0000
0010
0000
,  // measure 22
0100
0000
0000
0000
,  // measure 23
0010
0000
1000
0000
,  // measure 24
0001
0000
0000
1000
,  // measure 25
1000
0000
0000
0010
,  // measure 26
0010
0000
0100
0000
,  // measure 27
0010
0000
0000
1001
,  // measure 28
0000
1000
0000
0000
,  // measure 29
0001
0000
0100
0000
,  // measure 30
0000
0110
0000
0000
,  // measure 31
0001
0000
0010
0000
,  // measure 32
0000
1000
0000
0000
,  // measure 33
0001
0000
1000
0000
,  // measure 34
0000
1001
0000
0000
,  // measure 35
0010
0000
0100
0000
,  // measure 36
0001
0000
0000
0000
,  // measure 37
1000
0000
0000
0000
,  // measure 38
0010
0000
0100
0000
,  // measure 39
0010
0000
0000
0000
;

//---------------dance-single - ----------------
#NOTES:
     dance-single:
     :
     Hard:
     11:
     0.351049,0.467055,0.110030,0.192553,0.261322,268.000000,256.000000,12.000000,21.000000,0.000000,0.000000,0.351049,0.467055,0.110030,0.192553,0.261322,268.000000,256.000000,12.000000,21.000000,0.000000,0.000000:
0000
0000
0000
0000
,
0000
0000
0000
0000
,
0000
0000
0000
0000
,
0000
0000
0000
0000
,
0000
0001
0002
0000
0103
0010
1000
2000
,
0000
0000
0000
3000
,
0100
0010
1000
0100
0100
0010
0001
0200
,
0000
0000
0000
0300
,
0001
0000
0000
0000
0010
0000
0001
1000
0000
0000
0010
0000
1000
0000
1000
0010
,
0200
0000
0000
0000
0010
0000
0000
0000
0000
0000
0000
0000
0301
0000
0010
1000
,
0010
0000
0100
0000
0001
0000
0010
0001
0000
0000
1000
0000
0010
0000
0010
0100
,
0002
0000
0000
0000
0100
0000
0000
0000
0103
0000
0000
0100
0010
0000
0110
0000
,
1000
0000
0000
0010
1000
0000
0001
0000
0100
0000
0000
0010
0100
0000
0001
0000
,
0010
0000
0000
0000
0011
0000
0010
0001
1000
0000
0100
0000
1000
0000
0000
1000
,
0010
0000
0100
0000
0010
0000
1000
0000
0001
0000
0010
0000
0100
0000
0000
0100
,
1000
0000
0000
1000
0010
0000
0100
0000
0010
0000
0000
0010
0100
0000
0001
0000
,
0010
0000
0000
0001
0010
0000
0001
1000
0001
0000
0000
0001
1000
0000
0010
1000
,
0010
0000
0000
1000
0010
0000
0100
0010
0100
0000
0010
0000
1000
0000
0000
1000
,
0001
0000
1000
0100
0001
0100
1000
0010
,
1010
0010
0100
0001
1000
1000
0001
0001
,
0020
0000
0000
0000
0001
0000
0000
0001
0000
0000
0000
0000
0100
0000
0000
0130
,
2000
0000
0000
0000
0010
0000
0000
0010
0000
0000
0000
0000
0001
0000
0000
3001
,
0200
0000
0000
0000
0010
0000
0000
0010
0000
0000
0000
0000
1000
0000
0000
1000
,
0000
0000
0000
0000
0001
0000
0000
0001
0300
0000
0000
0000
0010
0000
0010
0000
,
1010
0000
0000
0010
1000
0000
0000
1000
0001
0000
0000
0000
1001
0000
1001
0000
,
0011
0000
0000
0000
0010
0000
0000
0010
0100
0000
0000
0000
1100
0000
0110
0000
,
0011
1000
0010
1000
0100
0010
0001
1000
,
0010
1000
0010
0100
0010
1000
0001
1000
0100
0010
0001
0010
0000
0000
0000
0000
,
1001
0000
0000
0000
0010
0000
0001
0010
0000
0000
0100
0000
1000
0000
1000
0010
,
0200
0000
0001
0000
0310
0000
1000
0010
0200
0000
0010
0000
0000
0000
0301
0000
,
1100
0000
0000
0000
0010
0000
1000
0010
0000
0000
0100
0000
0010
0000
0010
1000
,
0200
0000
0301
0000
0010
0000
0200
0000
1000
0000
0310
0001
0200
0000
1000
0000
,
0301
0000
0000
0100
0001
0000
0100
0001
0000
0000
0010
0000
0100
0000
0100
0010
,
0002
0000
0010
0000
1003
0000
1000
0010
0100
0000
0100
0010
0100
0010
0100
0010
,
0100
0000
0001
0100
0010
0000
1000
0001
0000
0000
1000
0000
0100
0000
0100
1000
,
0002
0000
0010
0000
1000
0000
0103
0000
0010
0000
1000
0001
0100
0000
0010
0000
,
2000
0000
0000
3010
0020
0000
0000
0130
,
0200
0000
0000
0000
0000
0000
0000
0000
0300
0000
0000
0100
0000
0001
0100
0010
,
1000
0000
0020
0130
0200
0000
0000
0301
,
0002
0000
0000
0003
,
0100
0010
1000
0000
0001
0000
0010
0000
0100
0000
1000
0000
0001
0000
0000
0000
;
