#TITLE:Harbor;
#SUBTITLE:;
#ARTIST:Kap Slap feat. Jake Etheridge;
#TITLETRANSLIT:;
#SUBTITLETRANSLIT:;
#ARTISTTRANSLIT:;
#GENRE:;
#CREDIT:;
#BANNER:Harbor.png;
#BACKGROUND:Harbor-bg.png;
#LYRICSPATH:;
#CDTITLE:;
#MUSIC:Harbor.ogg;
#OFFSET:-0.200228;
#SAMPLESTART:47.359219;
#SAMPLELENGTH:17.142857;
#SELECTABLE:YES;
#BPMS:0.000000=112.000000
;
#STOPS:
;
#BGCHANGES:;
#KEYSOUNDS:;
#ATTACKS:;

//---------------dance-single - ----------------
#NOTES:
     dance-single:
     :
     Hard:
     13:
     0.539174,0.671671,0.251615,0.149105,0.605739,405.000000,378.000000,27.000000,16.000000,0.000000,0.000000,0.539174,0.671671,0.251615,0.149105,0.605739,405.000000,378.000000,27.000000,16.000000,0.000000,0.000000:
// measure 0
0000
0000
0000
0000
,  // measure 1
0000
0000
0000
0000
,  // measure 2
0000
0000
0000
0000
,  // measure 3
0000
0000
0000
0000
,  // measure 4
0010
0000
0000
0000
1000
0000
0000
0010
0000
0010
0000
0000
1000
0000
0001
0000
,  // measure 5
0000
0000
0100
0000
0100
0000
0000
0001
0000
0001
0000
0000
0010
0000
0100
0000
,  // measure 6
0010
0000
0000
0010
0001
0000
1000
0100
0020
0001
0000
0000
0031
0000
0001
0000
,  // measure 7
0000
0000
0001
0000
0100
0000
0001
1000
0020
0100
0000
0000
0130
0000
0001
0000
,  // measure 8
1000
0000
0000
0000
0010
0000
0000
0100
0000
0100
0000
0000
0010
0000
0010
0000
,  // measure 9
0000
0000
1000
0000
0001
0000
0000
0010
0000
0010
0000
0000
0100
0000
1000
0000
,  // measure 10
0100
0000
0000
0100
0010
0000
0001
1000
0200
0010
0000
0000
0010
0000
0310
0000
,  // measure 11
0001
0000
0100
0000
0100
0000
0010
1000
0002
0100
0000
0000
0103
0000
0010
0000
,  // measure 12
1000
0000
0000
0000
0010
0000
0000
0000
1000
0000
0000
0000
0010
0000
0000
0000
0000
0000
0100
0000
0000
0010
0000
0000
0000
0000
0000
0010
0000
0000
0000
0000
0000
1000
0000
0000
0010
0000
0000
0000
0000
0000
0100
0000
0000
0000
0000
0000
,  // measure 13
0001
0000
0000
0000
0100
0000
0000
0000
0001
0000
0000
0000
0100
0000
0000
0010
0000
0000
1000
0000
0000
0000
0000
0000
1000
0000
0000
0000
0000
0000
0001
0000
0000
0000
0000
0000
0101
0000
0000
0000
0000
0000
0010
0000
0000
0000
0000
0000
,  // measure 14
0110
0000
0000
0100
1000
0000
0010
1000
0010
0100
0000
0100
0001
0000
1000
0000
,  // measure 15
1001
0000
0000
0011
0000
0000
0110
0000
1001
0000
1000
0000
0100
0000
1000
0000
,  // measure 16
0021
0000
1000
1000
0000
0000
0100
0100
,  // measure 17
0000
0000
0000
0001
0000
0000
0031
0000
0001
0010
0000
0000
0001
0000
0100
0000
,  // measure 18
1020
0000
0001
0001
0000
0000
0100
0100
,  // measure 19
0000
0000
0000
1000
0000
0000
1030
0000
0100
1000
0100
0010
0000
0000
0010
0000
,  // measure 20
0001
0200
0000
0000
,  // measure 21
0302
0000
0000
0000
0000
0000
0000
0003
0000
0000
0000
0000
0000
0000
0000
0000
,  // measure 22
1001
0000
0000
0001
1000
0000
0100
0000
0000
0100
0000
0010
0100
0000
1100
0000
,  // measure 23
0010
0000
0000
0010
0001
0000
0100
0000
0002
0000
0013
0100
1000
0100
0010
0001
,  // measure 24
0100
0000
0000
0100
0010
0000
1000
0000
0000
1000
0000
0001
0100
0000
0011
0000
,  // measure 25
0100
0000
0000
0100
0010
0000
0001
0000
2000
0000
0000
3020
0000
0000
0130
0000
,  // measure 26
0100
0001
0100
0001
0010
0000
0100
0000
0010
0100
0010
0100
1000
0000
1001
0000
,  // measure 27
1000
0010
1000
0010
0100
0000
0001
0000
0020
0030
0001
0010
0100
1000
0100
0010
,  // measure 28
0001
1000
0001
1000
0010
0000
0100
0000
0001
0100
0001
0100
0010
0000
0110
0000
,  // measure 29
0010
1000
0010
1000
0001
0000
0010
0000
0100
0000
0000
0000
0000
0000
0000
0000
,  // measure 30
1000
0000
0000
0100
1000
0000
0010
0000
1000
0010
0000
0010
0100
0000
1001
0000
,  // measure 31
1000
0000
0000
0001
0010
0000
0001
0000
0100
0001
0000
0001
0010
0000
0100
0000
,  // measure 32
1000
0000
0000
0100
1000
0000
0010
0000
1000
0010
0000
0010
0100
0000
0101
0000
,  // measure 33
1000
0000
0000
0001
1000
0000
0100
0000
0110
0000
0000
0011
0000
0000
0101
0000
,  // measure 34
0100
0000
0000
0010
0100
0000
0001
0000
0100
0010
0000
0010
1000
0000
1001
0000
,  // measure 35
0100
0000
0000
1000
0100
0000
0010
0000
0100
0010
0000
0010
0001
0000
0100
0000
,  // measure 36
0101
0000
0000
0001
0100
0000
0010
0000
0100
0001
0000
0001
1000
0000
0110
0000
,  // measure 37
0010
0000
0000
1000
0010
0000
1000
0000
0200
0000
0310
0000
0010
0100
1000
0001
,  // measure 38
0010
0001
0010
0100
0010
0000
0001
0010
0001
0100
0010
1000
0100
0000
1100
0000
,  // measure 39
1000
0010
1000
0001
1000
0000
0010
1000
0010
0100
0010
1000
0100
0010
0001
1000
,  // measure 40
0100
1000
0100
0010
0100
0000
1000
0100
1000
0010
0100
0001
0010
0000
0011
0000
,  // measure 41
0001
1000
0001
0100
0001
0000
1000
0010
1000
0001
1000
0001
0010
0100
0010
0100
,  // measure 42
1000
0100
1000
0001
1000
0000
0001
0010
0001
0100
0010
1000
0001
0000
0101
0000
,  // measure 43
0100
0010
0100
0001
0100
0000
0010
1000
0001
1000
0010
1000
0100
0010
0001
1000
,  // measure 44
0100
0010
0100
1000
0100
0000
0010
0001
0100
0010
1000
0001
0100
0000
0110
0000
,  // measure 45
0010
1000
0100
0010
0001
0000
1000
0000
1002
0000
0000
0100
0000
0000
1003
0000
,  // measure 46
2020
0000
3030
0000
;

//---------------dance-single - ----------------
#NOTES:
     dance-single:
     :
     Medium:
     10:
     0.367437,0.416096,0.186381,0.186381,0.232976,276.000000,256.000000,20.000000,20.000000,0.000000,0.000000,0.367437,0.416096,0.186381,0.186381,0.232976,276.000000,256.000000,20.000000,20.000000,0.000000,0.000000:
0000
0000
0000
0000
,
0000
0000
0000
0000
,
0000
0000
0000
0000
,
0000
0000
0000
0000
0000
0000
0000
0000
0000
0000
0000
0010
0000
0000
1000
0000
,
0010
0000
0000
0010
0000
0000
0010
0000
1000
0000
0000
1000
0000
0000
1000
0000
,
0100
0000
0000
0100
0000
0000
0100
0000
0010
0000
0000
0001
0000
0000
1000
0000
,
2000
0000
0000
0000
3000
0000
0100
0010
0002
0000
0000
0000
0000
0000
0000
0000
,
0003
0000
0000
0000
0000
0000
0100
0010
2000
0000
0000
0000
3000
0000
0010
0000
,
1000
0000
0000
0001
0000
0000
1000
0000
0010
0000
0000
0100
0000
0000
0010
0000
,
1000
0000
0000
0100
0000
0000
0010
0000
0001
0000
0000
0100
0000
0000
0010
0000
,
2000
0000
0000
0000
3000
0000
0100
0010
0002
0000
0000
0000
0000
0000
0000
0000
,
0003
0000
0000
0000
0000
0000
0010
0100
2000
0000
0000
0000
3000
0000
0000
0000
,
1010
0000
0010
0100
0000
0100
0001
0010
,
0100
0000
0000
1000
0000
0000
0001
0000
0001
0000
0000
0000
0100
0000
0001
0000
,
1000
0000
0010
1000
0100
1000
0010
0100
,
0001
0000
0000
0010
0000
0000
0100
0000
0100
0000
0000
0000
0110
0000
0000
0000
,
0020
0000
0031
0002
0000
0000
0100
0103
,
0000
0000
1010
0000
0000
0000
0101
0000
0000
0000
0000
0000
0010
1000
0000
0000
,
0020
0000
1030
2000
0000
0000
0100
3100
,
0000
0011
0000
1100
0000
0100
0010
0001
,
2002
0000
0000
3003
,
0200
0000
0000
0000
0000
0000
0000
0300
0000
0000
0000
0000
0000
0000
0000
0000
,
0010
0000
0000
1000
0000
0000
0001
0000
0000
1000
0000
0001
1000
0000
1001
0000
,
0001
0000
0000
0100
0000
0000
0010
0000
1000
0000
0100
0000
0010
0000
0001
0000
,
0010
0000
0000
0100
0000
0000
0010
0000
0000
0001
0000
0010
0001
0000
0011
0000
,
0010
0000
0000
0100
0000
0000
1000
0000
0020
0000
0000
1000
0000
0000
1000
0000
,
1030
0000
0000
0100
0000
0000
0010
0000
0000
0001
0000
1000
0001
0000
1001
0000
,
1000
0000
0000
0010
0000
0000
1000
0000
0001
0000
0100
0000
0010
0000
1000
0000
,
0100
0000
0000
1000
0000
0000
0010
0000
0000
0100
0000
0010
0100
0000
0110
0000
,
0100
0000
0000
0001
0000
0000
1000
0000
0001
0000
0000
0000
0000
0000
0000
0000
,
0010
0000
0000
1000
0010
0000
0100
0000
0010
0100
0000
0000
0101
0000
0000
0000
,
0010
0000
0000
0001
0010
0000
0100
0000
0010
0100
0000
0000
0100
0000
1000
0000
,
0001
0000
0000
0100
0001
0000
0010
0000
0001
0010
0000
0000
1100
0000
0000
0000
,
1000
0000
0000
0100
1000
0000
0010
0000
2000
0000
0000
0001
0000
0000
0001
0000
,
3001
0000
0000
1000
0010
0000
0100
0000
0010
0100
0000
0000
0101
0000
0000
0000
,
0010
0000
0000
0001
0010
0000
0100
0000
0010
0100
0000
0000
1000
0000
0010
0000
,
0100
0000
0000
0001
0100
0000
0010
0000
0100
0010
0000
0000
0110
0000
0000
0000
,
0010
0000
0000
1000
0000
0000
0100
0000
0020
0000
0000
0000
0030
0000
0000
0000
,
0010
0001
0100
1000
0100
0001
1000
1001
,
0001
1000
0100
0001
0100
1000
0010
0100
,
0001
0010
1000
0010
0001
0100
0010
0110
,
0100
0000
0001
0000
1000
0000
0100
0000
0020
0000
0000
0001
0000
0000
0100
0000
,
0130
1000
0010
0001
0010
1000
0001
1001
,
1000
0001
0010
1000
0010
0001
0100
0010
,
1000
0001
0100
1000
0100
0001
0010
0110
,
0100
0000
1000
0000
0010
0000
0100
0000
0002
0000
0000
1003
0000
0000
1000
0000
,
2002
0000
0000
0000
,
3003
0000
0000
0000
;

//---------------dance-single - ----------------
#NOTES:
     dance-single:
     :
     Easy:
     6:
     0.230314,0.262797,0.065233,0.102510,0.000000,173.000000,166.000000,7.000000,11.000000,0.000000,0.000000,0.230314,0.262797,0.065233,0.102510,0.000000,173.000000,166.000000,7.000000,11.000000,0.000000,0.000000:
0000
0000
0000
0000
,
0000
0000
0000
0000
,
0000
0000
0000
0000
,
0000
0000
0000
0000
,
0010
1000
0010
0100
,
0001
0010
0100
1000
,
0020
0000
0000
1030
2000
0000
0000
0000
,
3000
0000
0000
0001
0002
0000
0000
0000
,
0013
0001
0010
0100
,
1000
0010
0100
0001
,
0020
0000
0000
0031
0002
0000
0000
0000
,
0003
0000
0000
1000
2000
0000
0000
0000
,
3010
0000
1000
0010
0000
0000
0100
0000
,
0000
0000
0010
0100
0100
0000
0001
0000
,
0010
0000
0001
0010
0000
0000
0100
0000
,
0010
0000
0100
1000
1000
0000
0001
0000
,
1000
0000
0010
0010
0000
0000
0100
0100
,
0000
0001
0000
0001
0000
0000
0010
0000
,
0100
0000
1000
1000
0000
0000
0001
0001
,
0000
1000
0000
0010
0000
0000
1000
0000
,
2002
0000
0000
3003
,
0020
0000
0030
0000
,
1000
0000
0000
1010
0000
0000
0010
0100
,
0010
0000
0000
0101
0000
0000
0001
1000
,
0001
0000
0000
0011
0000
0000
0010
0100
,
0010
0000
0000
1100
0000
0000
1000
0100
,
1000
0000
0010
0000
1000
0010
1000
0000
,
0001
0000
0100
0000
0001
0100
0001
0000
,
0010
0000
0001
0000
0010
0001
0010
0000
,
0100
0010
1001
0000
,
0010
0000
1000
0000
0001
0000
0100
0010
,
0100
0001
0010
0100
,
1000
0000
0010
0000
1000
0000
0001
1000
,
0001
0100
0010
1000
,
0100
0000
0010
0000
0001
0000
0010
0100
,
0010
0001
1000
0100
,
1000
0000
0010
0000
1000
0000
0010
0100
,
0010
1000
0001
0000
,
1000
0000
0100
0000
0010
0000
0001
0010
,
0001
0100
0001
1000
,
0010
0000
1000
0000
0100
0000
0010
0100
,
0010
0001
1000
0100
,
1000
0000
0010
0000
1000
0000
0010
0100
,
0010
1000
0001
1000
,
0100
0000
0010
0000
0001
0000
0010
0100
,
0010
0001
1000
0000
,
2002
0000
0000
0000
,
3003
0000
0000
0000
;

//---------------dance-single - ----------------
#NOTES:
     dance-single:
     :
     Beginner:
     3:
     0.143780,0.171471,0.018638,0.037276,0.000000,108.000000,106.000000,2.000000,4.000000,0.000000,0.000000,0.143780,0.171471,0.018638,0.037276,0.000000,108.000000,106.000000,2.000000,4.000000,0.000000,0.000000:
0000
0000
0000
0000
,
0000
0000
0000
0000
,
0000
0000
0000
0000
,
0000
0000
0000
0000
,
0010
0000
1000
0000
,
0001
0000
1000
0000
,
0100
0000
0020
0000
,
0030
0000
0000
0000
0002
0000
0000
0003
,
1000
0000
0010
0000
,
0100
0000
0010
0000
,
1000
0000
0002
0000
,
0003
0000
0000
0000
2000
0000
0000
3000
,
0000
0001
0001
0000
,
0010
0010
0000
0000
,
1000
0000
0100
0000
,
0010
0000
0001
0000
,
1000
0000
0000
1000
0000
0000
0000
0010
,
0000
0010
0000
0010
0000
0000
0000
0000
,
0100
0000
0000
0001
0000
0000
0000
0001
,
0000
0001
0000
0001
0000
0000
0000
0000
,
1001
0000
0000
0000
,
0001
0000
1000
0000
,
0010
0000
0000
0010
0000
0000
1000
0000
,
1000
0000
0000
0001
0000
0000
0001
0000
,
0001
0000
0000
1000
0000
0000
1000
0000
,
1000
0000
0000
0100
0000
0000
0100
0000
,
0100
0000
0000
0010
0000
0000
0010
0000
,
0010
0000
0000
0001
0000
0000
0001
0000
,
0001
0000
0000
1000
0000
0000
1000
0000
,
1000
0000
0000
0010
0000
0000
0000
0000
,
0010
0010
0010
0000
,
1000
1000
1000
0000
,
0001
0001
0001
0000
,
1000
0000
0100
0000
,
1000
1000
1000
0000
,
0010
0010
0010
0000
,
1000
1000
1000
0000
,
0001
0001
0001
0000
,
1000
0000
0000
1000
0000
0000
0010
0000
,
1000
0000
0000
1000
0000
0000
0001
0000
,
1000
0000
0000
1000
0000
0000
0100
0000
,
1000
0000
0001
0001
,
0001
0000
0000
0010
0000
0000
0001
0000
,
0001
0000
0000
1000
0000
0000
0001
0000
,
0001
0000
0000
0100
0000
0000
0001
0000
,
0001
0000
1000
1000
,
1001
0000
0000
0000
;
