#TITLE:HAT TRICK;
#SUBTITLE:;
#ARTIST:P*Light;
#TITLETRANSLIT:;
#SUBTITLETRANSLIT:;
#ARTISTTRANSLIT:;
#GENRE:;
#CREDIT:;
#BANNER:HAT TRICK.png;
#BACKGROUND:HAT TRICK-bg.png;
#LYRICSPATH:;
#CDTITLE:;
#MUSIC:HAT TRICK.ogg;
#OFFSET:0.523798;
#SAMPLESTART:41.066521;
#SAMPLELENGTH:12.799999;
#SELECTABLE:YES;
#DISPLAYBPM:150.000000;
#BPMS:0.000000=150.000000
,100.000000=300.000000
,103.000000=150.000000
,230.000000=300.000000
,233.000000=150.000000
;
#STOPS:100.000000=0.200000,
101.000000=0.200000,
102.000000=0.200000,
168.000000=1.200000,
213.000000=1.200000,
230.000000=0.200000,
231.000000=0.200000,
232.000000=0.200000
;
#BGCHANGES:2.000=hat trick.avi=1.000=0=0=0=StretchNoLoop====,
99999=-nosongbg-=1.000=0=0=0 // don't automatically add -songbackground-
;
#KEYSOUNDS:;
#ATTACKS:;

//---------------dance-single - ----------------
#NOTES:
     dance-single:
     :
     Challenge:
     16:
     0.760182,0.941216,0.416375,0.149895,1.007628,639.000000,589.000000,50.000000,18.000000,0.000000,0.000000,0.760182,0.941216,0.416375,0.149895,1.007628,639.000000,589.000000,50.000000,18.000000,0.000000,0.000000:
// measure 0
0000
0000
0000
0000
,  // measure 1
0000
0000
0000
0000
,  // measure 2
0000
0000
0000
0000
,  // measure 3
0000
0000
0000
0000
,  // measure 4
0000
0000
0000
0000
,  // measure 5
1010
1000
0001
0011
0001
1000
1100
0100
,  // measure 6
0110
0010
0001
0101
0100
0010
1010
1000
,  // measure 7
0001
0001
0001
0001
0000
0000
1000
1000
1000
1000
0000
0000
,  // measure 8
2002
0000
3003
0000
1000
0001
0110
0000
,  // measure 9
2000
0000
0000
0000
,  // measure 10
3020
0000
0000
0000
,  // measure 11
0230
0000
0000
0000
,  // measure 12
0302
0000
2003
3001
,  // measure 13
0010
1000
0000
0010
0000
0100
0001
0000
1001
0000
0000
0000
0000
0000
0000
0000
,  // measure 14
0010
0001
0000
1000
0000
0100
0010
0000
0011
0000
0000
0000
0000
0000
0000
0000
,  // measure 15
0100
0001
0000
1000
0000
0001
1000
0000
1010
0000
0000
0000
0000
0000
0000
0000
,  // measure 16
0010
1000
0000
0001
0000
0100
0010
0000
0110
0000
0000
0000
1001
0000
0000
0000
,  // measure 17
0100
1000
0000
0100
0000
0010
0001
0000
0100
0001
0000
0100
0000
0010
1000
0000
,  // measure 18
0001
1000
0000
0010
0000
0010
1000
0000
0100
0000
0000
0000
0010
0000
0001
0000
,  // measure 19
1000
0100
1000
0000
0001
0100
0001
0000
1000
0010
1000
0000
0001
0010
0001
0010
,  // measure 20
0001
1000
0001
1000
0001
0000
0010
0000
0100
0000
0000
0000
1001
0000
0000
0000
,  // measure 21
0001
0100
0000
0010
0000
1000
0001
0000
1000
0100
0000
0010
0000
0001
1000
0000
,  // measure 22
0010
1000
0000
0001
0000
0100
0010
0000
0100
0001
0000
1000
0000
0010
0100
0000
,  // measure 23
0001
0010
0100
0010
0001
0010
0100
1000
0100
0010
0100
1000
0100
0010
0001
1000
,  // measure 24
0200
0000
0000
0000
0000
0000
0000
0000
0000
0000
0000
0000
0300
0001
0010
0001
,  // measure 25
0011
1100
1010
1001
,  // measure 26
0001
0100
0000
0100
0010
1000
0100
0000
1000
0100
0000
0100
0010
0001
0100
0000
,  // measure 27
0010
0100
0000
0100
0001
0010
0100
0000
0100
0000
0000
0000
1100
0000
0110
0000
,  // measure 28
0011
0000
0000
0000
1010
0000
0000
0000
0010
1000
0000
1000
0001
0100
0010
0000
,  // measure 29
1000
0100
1000
0100
1000
0000
0001
0000
0010
0000
0000
0000
0101
0000
0000
0000
,  // measure 30
0010
1000
0000
1000
0100
0010
0001
0000
0010
0001
0000
0001
0100
0010
1000
0000
,  // measure 31
0001
1000
0000
1000
0001
0100
0010
0000
0010
0000
0000
0000
0010
0000
1000
0000
,  // measure 32
0001
0010
0001
0000
1000
0100
1000
0000
0010
0100
0010
0000
1000
0010
1000
0010
,  // measure 33
0100
0000
0000
0001
0000
0000
0100
0000
0000
0001
0000
0000
0100
0000
0000
0000
0000
0000
0010
0000
0000
0000
0000
0000
1000
0000
0000
0000
0001
0000
0000
0000
1000
0000
0000
0000
0001
0000
0000
0000
0000
0000
0000
0000
0000
0000
0000
0000
,  // measure 34
0010
0100
0000
0100
1000
0100
0010
0001
0100
0000
0001
0000
1000
0000
0010
0000
,  // measure 35
0100
0010
0000
0010
0100
0001
0010
0100
1000
0100
0010
0100
1000
0001
0100
0010
,  // measure 36
1000
0010
0000
0100
0000
0001
1000
0100
0010
0001
0000
1000
0000
0100
1000
0010
,  // measure 37
0100
0001
0100
0010
1000
0000
0001
0000
1000
0000
0000
0000
1001
0000
0000
0000
,  // measure 38
0001
0100
0000
0010
0000
0010
1000
0000
1000
0100
0000
0010
0000
0010
0001
0000
,  // measure 39
0100
0001
0000
0100
0000
0100
0010
0000
1000
0010
1000
0010
0100
0000
0101
0000
,  // measure 40
1001
0000
0000
1010
0000
0000
0110
0000
0100
0000
0102
0000
1003
0000
2010
0000
,  // measure 41
3001
0010
0001
0010
0001
0000
0010
0000
0200
0000
0000
0000
0300
0000
0000
0000
,  // measure 42
1001
2100
0010
0010
,  // measure 43
3010
0000
0000
0000
0010
1000
0010
1000
0010
0100
0010
0000
0100
0010
0100
0000
,  // measure 44
0001
0100
0001
0000
1001
0000
0000
0001
1000
0000
0001
0000
1000
0000
0010
0000
,  // measure 45
1000
0010
1000
0000
1100
0000
0000
0100
0010
0000
0100
0000
0010
0000
0010
0000
,  // measure 46
0001
0001
0200
0300
0012
0000
0010
0000
,  // measure 47
0013
0000
0000
0000
0010
0001
0010
0001
1000
0001
1000
0000
0100
1000
0100
0000
,  // measure 48
1000
0010
1000
0000
0100
1000
0001
1000
0100
0010
0001
1000
0010
1000
0001
0010
,  // measure 49
0001
0100
0001
0100
0010
1000
0001
0100
0010
1000
0100
0010
0001
0010
0100
1000
,  // measure 50
0001
0010
0100
1000
0001
0010
0100
0010
0001
0100
0010
0000
1000
0010
0100
0010
,  // measure 51
1000
0100
0010
0000
0001
1000
0100
1000
0001
0010
0100
0000
1000
0000
1000
0010
,  // measure 52
0100
0000
0001
0100
0001
0000
1000
0010
1000
0000
0001
0100
0001
1000
0000
0001
,  // measure 53
0000
0001
1000
0000
0110
0000
0000
0000
1000
0100
0000
0010
0000
0001
0010
0000
,  // measure 54
0001
0100
0000
0010
0000
1000
0010
0000
0100
0001
0000
1000
0000
0010
1000
0000
,  // measure 55
0100
1000
0000
0001
0000
0010
0001
0000
1000
0100
0010
0001
1000
0100
0010
0001
,  // measure 56
0100
0010
1000
0001
0100
0010
1000
0001
0200
0000
0000
0000
0000
0000
0000
0000
,  // measure 57
0000
0000
0000
0000
0300
0001
0100
0001
0101
0000
0000
0000
1100
0000
0000
0000
,  // measure 58
0011
0000
0000
0000
1010
0000
0000
0000
1000
0010
0000
0100
0000
0100
0001
0010
,  // measure 59
0001
0010
0000
0100
0000
0100
1000
0010
1000
0001
0010
0100
1000
0100
0010
0001
,  // measure 60
1000
0010
0100
0001
1000
0000
0000
0000
1000
0100
0000
0100
1000
0010
1000
0001
,  // measure 61
0100
0000
0001
0000
1000
0000
0100
0000
0010
0001
0000
0001
1000
0100
1000
0010
,  // measure 62
0100
0001
1000
0010
1000
0100
0010
0001
1000
0010
0000
0010
1000
0100
0010
0001
,  // measure 63
0100
0001
0000
0001
0100
0010
1000
0100
0010
0100
0010
0001
0100
0000
0010
0000
,  // measure 64
1010
0000
0000
0000
1001
0000
0000
0000
1000
0010
1000
0001
0010
0100
1000
0010
,  // measure 65
1000
0100
0010
0100
0010
0001
1000
0010
0100
0001
1000
0010
1000
0001
0100
0001
,  // measure 66
0010
0100
0010
0001
1000
0000
1100
0000
0110
0000
0000
0011
0000
0000
1001
0000
,  // measure 67
1100
0000
2010
0000
3001
0000
1002
0000
0103
0010
0100
0010
0100
0000
0010
0000
,  // measure 68
2000
3000
1001
0000
;

//---------------dance-single - ----------------
#NOTES:
     dance-single:
     :
     Hard:
     14:
     0.518685,0.627477,0.366410,0.108258,0.499650,436.000000,392.000000,44.000000,13.000000,0.000000,0.000000,0.518685,0.627477,0.366410,0.108258,0.499650,436.000000,392.000000,44.000000,13.000000,0.000000,0.000000:
0000
0000
0000
0000
,
0000
0000
0000
0000
,
0000
0000
0000
0000
,
0000
0000
0000
0000
,
0000
0000
0000
0000
,
0100
1000
0100
0010
0100
0010
0001
1000
,
0001
0100
0010
0100
0010
1000
0100
1000
,
0001
0010
0001
0010
0000
0000
0100
1000
0100
1000
0000
0000
,
1001
0000
0000
0000
1000
0001
1001
0000
,
2000
0000
0000
0000
,
3200
0000
0000
0000
,
0320
0000
0000
0000
,
0032
0000
0000
0003
,
1000
0100
0000
1000
0000
1000
0100
0000
1000
0000
0000
0000
0000
0000
0000
0000
,
0001
0100
0000
0001
0000
0001
0100
0000
0001
0000
0000
0000
0000
0000
0000
0000
,
0010
0100
0000
0010
0000
0010
0100
0000
0010
0000
0000
0000
0000
0000
0000
0000
,
0100
0010
0000
0100
0000
0100
0010
0000
0100
0000
0000
0000
0000
0000
0000
0000
,
0010
1000
0000
0001
0000
1000
0001
0000
0010
0001
0000
1000
0000
0001
1000
0000
,
0100
1000
0000
0010
0000
1000
0010
0000
0100
0000
0000
0000
0001
0000
0100
0000
,
0010
0000
0000
0000
1010
0000
0000
0000
1000
0100
0000
0010
0000
0010
0100
0000
,
0010
0001
0010
0001
0100
0000
1001
0000
,
1010
0000
1100
0000
,
0110
0000
0011
0000
,
1001
0101
0011
1100
,
2002
0000
0000
3003
,
0010
0010
0010
1001
,
1000
0100
0000
1000
0000
0001
0010
0000
0001
0100
0000
0001
0000
1000
0010
0000
,
1000
0001
0000
1000
0000
0010
0100
0000
0100
0000
0000
0000
0010
0000
1000
0000
,
0001
0000
0000
0000
0011
0000
0000
0000
0100
1000
0000
0010
0000
0010
1000
0000
,
0100
0010
0100
0010
0001
0000
1100
0000
,
1000
0010
0000
0100
0000
0010
0100
0000
0001
0010
0000
0100
0000
0010
0100
0000
,
1000
0100
0000
0010
0000
0001
0010
0000
0010
0000
0000
0000
0001
0000
0100
0000
,
0001
0000
0000
0000
1010
0000
0000
0000
1000
0001
0000
0010
0000
0010
0100
0000
,
1000
0000
0000
0001
0000
0000
1000
0000
0000
0001
0000
0000
0010
0000
0100
0000
0010
0000
0100
0000
0000
0000
0000
0000
,
0100
1000
0000
1000
0100
0000
0010
0000
0001
0000
0100
0000
1000
0000
0100
0000
,
0001
0010
0000
0010
0100
0000
1000
0000
0010
0000
1000
0000
0001
0000
0000
0000
,
0001
1000
0000
1000
0000
0000
0010
0000
1000
0001
0000
0001
0000
0000
0100
0000
,
0001
0010
0100
1000
0001
0000
1001
0000
,
0001
0100
0000
0001
0000
0100
0001
0000
1001
0000
0000
0000
0000
0000
0000
0000
,
1000
0010
0000
1000
0000
0010
1000
0000
1001
0000
0000
0000
1000
0000
0100
0000
,
0010
0000
0000
0001
0000
0000
0010
0000
0100
0010
0000
0001
0000
0001
0100
0000
,
0001
1000
0001
1000
0001
0000
0010
0000
0100
0000
0000
0000
0000
0000
0000
0000
,
1001
0102
1000
1000
,
1003
0000
0000
0000
1000
0010
1000
0010
1000
0010
1000
0000
0010
1000
0010
0000
,
1000
0010
1000
0000
0001
0000
0000
0001
0000
0000
0002
0000
0000
0000
0100
0000
,
0000
0103
0000
0000
0010
0000
0000
0010
0000
0000
0020
0000
0000
0000
1000
0000
,
0000
1030
0000
0000
0000
0000
0000
0000
2001
0000
0000
0000
0001
0000
0000
0000
,
3001
0000
0000
0000
0001
0010
0001
0010
0001
0010
0001
0000
0010
0001
0010
0000
,
0001
0010
0001
0000
0100
0000
0001
0000
0100
0000
0010
0000
1000
0000
0001
0000
,
1000
0100
0010
0100
1000
0001
0020
0000
,
0000
0000
0030
0000
0001
0100
0000
0001
0000
0100
0010
0000
1000
0100
0000
1000
,
0000
0100
0010
0000
0100
0010
0000
0001
0000
0001
0010
0000
0010
0000
0000
0000
,
0001
0000
1000
0000
0100
0000
0000
0000
0101
0000
0000
0000
0001
1000
0000
0010
,
0000
0010
1000
0000
1001
0000
0000
0000
0101
0000
0000
0000
0000
0000
0000
0000
,
1001
0000
1100
0000
,
1001
0000
0011
1010
,
1001
0110
2002
0000
,
0000
3003
1000
0001
,
1000
0001
1100
0000
,
0011
0000
0000
0000
0001
0100
0010
0100
,
0001
0000
1000
0000
0010
0000
0000
0000
0010
1000
0000
1000
0001
0000
1000
0000
,
0100
0000
0001
0000
0100
0000
1000
0000
0010
0100
0000
0100
0001
0000
0010
0000
,
0100
0000
0010
0000
0001
0000
0000
0000
0010
0100
0000
0100
0000
0000
1000
0000
,
0010
0100
0000
0100
0000
0000
0001
0000
1000
0000
0001
0000
1000
0000
0010
0000
,
0100
0000
1001
0000
1010
1010
0110
0000
,
0001
0100
0000
0010
0000
0010
0100
0000
0001
0010
0000
0100
0000
0100
1000
0000
,
0010
0000
0000
0000
1000
0000
0001
0000
0011
0000
0000
1100
0000
0000
1001
0000
,
1000
0100
0000
1000
0000
1000
0010
0000
1000
0001
1000
0001
1000
0000
0100
0000
,
0010
0000
1001
0000
;

//---------------dance-single - ----------------
#NOTES:
     dance-single:
     :
     Medium:
     10:
     0.350945,0.427826,0.199860,0.158223,0.033310,295.000000,271.000000,24.000000,19.000000,0.000000,0.000000,0.350945,0.427826,0.199860,0.158223,0.033310,295.000000,271.000000,24.000000,19.000000,0.000000,0.000000:
0000
0000
0000
0000
,
0000
0000
0000
0000
,
0000
0000
0000
0000
,
0000
0000
0000
0000
,
0000
0000
0000
0000
,
1000
0000
0000
0010
0000
0000
1000
0000
,
0001
0000
0000
0100
0000
0000
0001
0000
,
0010
0010
0100
0100
,
1001
0000
0000
0000
1000
1000
0001
0000
,
2000
0000
0000
0000
,
3002
0000
0000
0000
,
0203
0000
0000
0000
,
0320
0000
0000
0030
,
1000
0000
0000
0001
0000
0000
1000
0000
0010
0000
0000
0000
0000
0000
0000
0000
,
0100
0000
0000
0001
0000
0000
0100
0000
0010
0000
0000
0000
0000
0000
0000
0000
,
0001
0000
0000
1000
0000
0000
0001
0000
0010
0000
0000
0000
0000
0000
0000
0000
,
0100
0000
0000
1000
0000
0000
0100
0000
0010
0000
0000
0000
0000
0000
0000
0000
,
0001
1000
0100
0000
1000
0100
0010
0000
,
0100
0010
0001
0000
0100
0000
0001
0100
,
0001
0000
1000
0000
0010
0100
0010
0000
,
1000
0001
1000
0001
2000
0000
3010
0000
,
1010
0000
1001
0000
,
0101
0000
1001
0000
,
1000
0100
0010
0001
,
2002
0000
0000
3003
,
0100
0100
0100
1001
,
0001
0100
1000
0000
1000
0100
0001
0000
,
0010
0001
0010
0000
0100
0000
1000
0100
,
0010
0000
1001
0000
1000
0001
0100
0000
,
0010
0100
0010
0100
0010
0000
0000
0000
,
1000
0010
1000
0000
0001
0100
0001
0000
,
0010
0100
1000
0000
1001
0000
0010
0001
,
1000
0000
0100
0000
1000
0100
0010
0000
,
0010
0001
0010
0001
0200
0000
0310
0000
,
0010
0000
1000
0001
1000
0000
0100
0000
,
0010
0000
0001
0010
0001
0000
1000
0000
,
1010
0001
0101
1000
,
1100
0110
0011
0000
,
0010
0000
0000
0001
0000
0000
1000
0000
1000
0000
0000
0000
0000
0000
0000
0000
,
0010
0000
0000
1000
0000
0000
0001
0000
0001
0000
0000
0000
0000
0000
0000
0000
,
0010
0000
0000
0100
0000
0000
0100
0000
0010
0000
0200
0000
0310
0000
0200
0000
,
0310
0001
0010
0001
1000
0000
0000
0000
,
1001
2000
0001
0001
,
3001
0000
0001
0100
0001
0100
0001
0100
,
0001
1000
0010
1000
,
0001
1000
0100
0010
,
0001
0010
1002
1000
,
1003
0000
1000
0100
1000
0100
1000
0100
,
1000
0010
1000
0001
,
1000
0100
0010
0002
,
0000
0000
1003
0100
1000
0000
0100
0010
,
0100
0000
0010
0001
0010
0000
0001
0000
,
0100
0001
0100
0000
0010
0000
1000
0001
,
1000
1001
0101
0000
,
0011
0000
1010
0000
,
1100
0000
1000
0100
,
0010
0001
2002
0000
,
0000
3003
0010
0010
,
0010
1001
2000
3000
,
0002
0003
0010
0100
,
0010
0001
0010
0000
0100
0000
1000
0000
,
0010
1000
0001
1000
,
0100
0000
0010
0001
1000
0000
0100
0000
,
0010
0000
0100
0000
1000
0001
1000
0001
,
1000
0000
0000
0000
0001
0100
1000
0000
,
1000
0100
0001
0000
1000
0001
1000
0000
,
0010
0000
0000
0000
1000
0000
0100
0000
0010
0000
0000
0100
0000
0000
0010
0000
,
0100
0020
0130
0020
0031
1000
0001
1000
,
0001
0000
1001
0000
;

//---------------dance-single - ----------------
#NOTES:
     dance-single:
     :
     Easy:
     7:
     0.231980,0.313739,0.024983,0.116585,0.000000,195.000000,192.000000,3.000000,14.000000,0.000000,0.000000,0.231980,0.313739,0.024983,0.116585,0.000000,195.000000,192.000000,3.000000,14.000000,0.000000,0.000000:
0000
0000
0000
0000
,
0000
0000
0000
0000
,
0000
0000
0000
0000
,
0000
0000
0000
0000
,
0000
0000
0000
0000
,
1000
0000
0000
0001
0000
0000
1000
0000
,
0001
0000
0000
1000
0000
0000
0001
0000
,
0200
0300
0020
0030
,
2000
0000
0000
3001
,
0000
0000
0000
0000
,
0000
0000
0000
0000
,
0000
0000
0000
0000
,
0000
0000
0000
0000
,
1000
0010
1000
0000
,
0001
0100
0001
0000
,
0010
0100
0010
0000
,
0001
1000
0001
0000
,
1000
0010
0010
1000
,
0100
0100
0100
0010
,
0001
1000
0100
1000
,
0001
0001
0001
0000
,
1000
0000
0001
0000
,
1000
0000
0010
0000
,
1000
0100
0010
0001
,
2000
0000
0000
0000
,
0000
0000
0000
3001
,
0100
0001
0100
0010
,
1000
0000
0100
0000
0010
0000
0001
1000
,
0001
1000
0100
1000
,
0010
1000
0001
0000
,
1000
0001
0100
0001
,
1000
0000
0010
0000
1000
0000
0100
0010
,
0100
0010
0001
1000
,
0100
0100
0100
0000
,
0010
0100
1000
1000
,
0010
0100
0001
0001
,
2000
3010
0020
0130
,
0001
1000
0100
0000
,
0010
0001
1000
0000
,
1000
0010
0100
0000
,
0001
0010
0100
1000
,
0010
0010
0010
0000
,
1001
0000
0020
0000
,
0000
1030
0001
1000
,
0100
0010
0010
0010
,
0000
0100
0100
0100
,
1000
0001
2000
0000
,
0000
3010
0100
0010
,
0000
1000
1000
1000
,
0000
0001
0001
0002
,
0000
0013
0100
0100
,
1000
0010
1000
0001
,
0100
0001
0010
0100
,
1000
1001
0100
0000
,
0100
0000
0010
0000
,
0010
0000
1000
0100
,
0010
0001
2000
0000
,
0000
0000
0000
0000
,
0000
3000
0002
0000
,
0023
0000
0130
0100
,
0100
0010
0001
1000
,
0001
1000
0100
0010
,
0001
0100
0020
1030
,
2000
3001
0010
0100
,
1000
0000
0000
0000
1000
0001
1000
0000
,
0100
0010
0001
0100
,
0010
0000
1000
0001
1000
0000
0001
0000
,
0010
0100
0010
0010
,
0001
0000
1001
0000
;

//---------------dance-single - ----------------
#NOTES:
     dance-single:
     :
     Beginner:
     2:
     0.148705,0.199652,0.041638,0.074948,0.000000,125.000000,120.000000,5.000000,9.000000,0.000000,0.000000,0.148705,0.199652,0.041638,0.074948,0.000000,125.000000,120.000000,5.000000,9.000000,0.000000,0.000000:
0000
0000
0000
0000
,
0000
0000
0000
0000
,
0000
0000
0000
0000
,
0000
0000
0000
0000
,
0000
0000
0000
0000
,
1000
0000
0000
0000
,
0001
0000
0000
0000
,
0010
0000
0010
0000
,
0100
0000
0000
1001
,
0000
0000
0000
0000
,
0000
0000
0000
0000
,
0000
0000
0000
0000
,
0000
0000
0000
0000
,
2000
0000
3001
0000
,
0002
0000
1003
0000
,
0020
0000
1030
0000
,
0200
0000
0301
0000
,
0001
0000
1000
0000
,
0100
0100
0100
0000
,
0010
0000
0001
0000
,
1000
1000
1000
0000
,
0010
0000
1000
0000
,
0001
0000
1000
0000
,
0100
0000
0100
0000
,
0020
0000
0000
0000
,
0030
0000
0000
1001
,
0001
0000
1000
0000
,
0010
0010
0010
0000
,
1000
0000
0100
0000
,
0010
0010
0010
0000
,
0001
0000
1000
0000
,
0100
0100
0100
0000
,
1000
0000
0001
0000
,
0100
0100
0100
0000
,
0010
0000
1000
0000
,
0001
0000
0010
0000
,
0100
0000
1000
0000
,
0001
0001
0001
0000
,
2000
0000
3000
0000
,
0002
0000
0003
0000
,
0010
0000
0100
0000
,
0010
0010
0010
0000
,
1001
1000
0000
0001
,
0000
1000
0000
0100
,
0000
0010
0000
0010
,
0000
0001
0000
0001
,
0000
0100
0000
0010
,
0000
1000
0000
0001
,
0000
1000
0000
0100
,
0000
0010
0000
0200
,
0000
0310
0000
0000
,
0000
0001
0000
0000
,
0000
1000
0000
0000
,
0000
0110
1000
0000
,
0001
0000
1000
0000
,
0001
0000
0100
0000
,
0010
0000
2000
0000
,
0000
0000
0000
0000
,
3000
0000
0001
0000
,
0010
0000
0100
0100
,
0100
0000
1000
0000
,
0010
0000
1000
0000
,
0001
0000
0100
0000
,
0010
0000
0100
0100
,
0100
0000
0010
0000
,
1000
0000
0001
0001
,
0001
0000
1000
0000
,
0100
0000
0010
0000
,
0001
0000
1001
0000
;

//---------------dance-single - Duet 1----------------
#NOTES:
     dance-single:
     :
     Edit:
     1:
     0.651925,0.941216,0.499650,0.133240,0.782785,548.000000,488.000000,60.000000,16.000000,0.000000,0.000000,0.651925,0.941216,0.499650,0.133240,0.782785,548.000000,488.000000,60.000000,16.000000,0.000000,0.000000:
0000
0000
0000
0000
,
0000
0000
0000
0000
,
0000
0000
0000
0000
,
0000
0000
0000
0000
,
0000
0000
0000
0000
,
1000
0000
0010
0000
0010
0000
0100
0000
0010
0000
0010
0000
1000
0001
1000
0000
,
0100
0000
0010
0000
0010
0000
0001
0000
0010
0000
0010
0000
0001
1000
0001
0000
,
0010
0010
0010
0010
0000
0000
0100
0100
0100
0100
0000
0000
,
2002
3003
1000
0011
,
2000
0000
0000
0000
,
3020
0000
0000
0000
,
0230
0000
0000
0000
,
0302
0000
2003
3000
,
0010
1000
0000
0010
0000
0100
0001
0000
1001
0000
0000
0000
0000
0000
0000
0000
,
0010
0001
0000
1000
0000
0100
0010
0000
0011
0000
0000
0000
0000
0000
0000
0000
,
0100
0001
0000
1000
0000
0001
1000
0000
1010
0000
0000
0000
0000
0000
0000
0000
,
0010
1000
0000
0001
0000
0100
0010
0000
0110
0000
0000
0000
1001
0000
0000
0000
,
0100
1000
0000
0100
0000
0010
0001
0000
0100
0001
0000
0100
0000
0010
1000
0000
,
0001
1000
0000
0010
0000
0010
1000
0000
0100
0000
0000
0000
0010
0000
0001
0000
,
1000
0000
0000
0000
0101
0000
0000
0000
1000
0010
0000
0100
0000
0100
0001
0000
,
0010
0001
0010
0001
0010
0000
0001
0000
1000
0000
0000
0000
1010
0000
0000
0000
,
0101
0000
0110
0000
,
1010
0000
1100
0000
,
0110
0011
1001
1100
,
2000
0000
0000
0000
0000
0000
0000
0000
0000
0000
0000
0000
3000
0001
0010
0001
,
0010
0000
1010
1001
,
0001
0100
0000
0100
0010
1000
0100
0000
1000
0100
0000
0100
0010
0001
0100
0000
,
0010
0100
0000
0100
0001
0010
0100
0000
0100
0000
0000
0000
1100
0000
0110
0000
,
0011
0000
0000
0000
1010
0000
0000
0000
0010
1000
0000
1000
0001
0100
0010
0000
,
1000
0100
1000
0100
1000
0000
0001
0000
0010
0000
0000
0000
0101
0000
0000
0000
,
0010
1000
0000
1000
0100
0010
0001
0000
0010
0001
0000
0001
0100
0010
1000
0000
,
0001
1000
0000
1000
0001
0100
0010
0000
0010
0000
0000
0000
0010
0000
1000
0000
,
0001
0010
0001
0000
1000
0100
1000
0000
0010
0100
0010
0000
1000
0010
1000
0010
,
2000
0000
0000
3020
0000
0000
1030
0001
1000
0001
0000
0000
,
0100
0010
0000
0010
1000
0010
0100
0001
0010
0000
0001
0000
1000
0000
0100
0000
,
0010
0100
0000
0100
0010
0001
0100
0010
1000
0010
0100
0010
1000
0001
0010
0100
,
1000
0100
0000
0010
0000
0001
1000
0010
0100
0001
0000
1000
0000
0010
1000
0100
,
0010
0001
0010
0100
1000
0000
0001
0000
1000
0000
0000
0000
1001
0000
0000
0000
,
1100
0000
0000
0000
0000
0000
0000
0000
1000
0100
0000
0010
0000
0001
0100
0000
,
0101
0000
0000
0000
0000
0000
0000
0000
0010
1000
0010
1000
0001
0000
0010
0000
,
1100
0000
0000
1010
0000
0000
0110
0000
0100
0000
0102
0000
1003
0000
2010
0000
,
3001
0010
0001
0010
0001
0000
0010
0000
0200
0000
0000
0000
0300
0000
0000
0000
,
1001
1100
0110
1001
,
1010
1100
0011
1100
,
0110
0010
0011
0000
1001
0000
1010
0000
,
0110
0100
0101
0000
0110
0000
1010
1000
,
1001
0001
0000
0000
0022
0000
0000
0000
,
0033
0000
0000
0000
0010
0001
0010
0001
1000
0001
1000
0000
0100
1000
0100
0000
,
1000
0010
1000
0000
0001
0000
1000
0001
1000
0000
0100
0000
1000
0000
0010
0000
,
0100
0010
0100
0000
0010
0000
1000
0001
1000
0000
0010
0000
0000
0000
0000
0000
,
0001
0010
0100
1000
0100
0010
0000
0001
0000
1000
0100
0000
1000
0010
0000
0100
,
0000
0001
1000
0000
0100
0010
0000
0001
0000
0001
1000
0000
0100
0000
0000
0000
,
1000
0000
0001
0000
0010
0000
0000
0000
0001
0000
0000
0000
0100
0010
0000
1000
,
0000
1000
0001
0000
0110
0000
0000
0000
1000
0100
0000
0010
0000
0001
0010
0000
,
0001
0100
0000
0010
0000
1000
0010
0000
0100
0001
0000
1000
0000
0010
1000
0000
,
0100
1000
0000
0001
0000
0010
0001
0000
1000
0100
0010
0001
1000
0100
0010
0001
,
0100
0010
1000
0001
0100
0010
1000
0001
0100
0000
0000
0000
0000
0000
0000
0000
,
0000
0000
0000
1100
,
0000
0000
0000
0000
0101
0000
0000
0000
1000
0010
0000
0100
0000
0100
0001
0010
,
0001
0000
0000
0000
0000
0000
0000
0000
1000
0100
0000
0010
0000
0010
0100
1000
,
0010
1000
0001
0100
0010
0000
0000
0000
1000
0100
0000
0100
1000
0010
1000
0001
,
0100
0000
0001
0000
1000
0000
0100
0000
0010
0001
0000
0001
1000
0100
1000
0010
,
0100
0001
1000
0010
1000
0100
0010
0001
1000
0010
0000
0010
1000
0100
0010
0001
,
0100
0001
0000
0001
0100
0010
1000
0100
0010
0100
0010
0001
0100
0000
0010
0000
,
1010
0000
0000
0000
1001
0000
0000
0000
1000
0010
1000
0001
0010
0100
1000
0010
,
1000
0100
0010
0100
0010
0001
1000
0010
0100
0001
1000
0010
1000
0001
0100
0001
,
0010
0100
0010
0001
1000
0000
1100
0000
0110
0000
0000
0011
0000
0000
1001
0000
,
0001
0100
0000
0010
0000
0010
1000
0000
0100
0010
0100
0010
0100
0000
0010
0000
,
0002
0003
1001
0000
;

//---------------dance-single - Duet 2----------------
#NOTES:
     dance-single:
     :
     Edit:
     2:
     0.640028,0.941216,0.482995,0.116585,0.724493,538.000000,480.000000,58.000000,14.000000,0.000000,0.000000,0.640028,0.941216,0.482995,0.116585,0.724493,538.000000,480.000000,58.000000,14.000000,0.000000,0.000000:
0000
0000
0000
0000
,
0000
0000
0000
0000
,
0000
0000
0000
0000
,
0000
0000
0000
0000
,
0000
0000
0000
0000
,
1010
0000
0000
0011
0000
0000
1100
0000
,
0110
0000
0000
0101
0000
0000
1010
0000
,
0010
0010
0010
0010
0000
0000
0100
0100
0100
0100
0000
0000
,
2002
0000
3003
0000
0000
0001
1100
0000
,
0002
0000
0000
0000
,
0203
0000
0000
0000
,
0320
0000
0000
0000
,
2030
0000
3001
0110
,
0000
0000
0000
1001
,
0000
0000
0000
0000
0001
1000
0100
0000
,
0000
0000
0000
0000
0010
0001
0100
0000
,
0000
0000
0000
0000
0010
0100
1001
0000
,
0100
0001
0000
0100
0000
0010
1000
0000
0100
1000
0000
0100
0000
0010
0001
0000
,
1000
0001
0000
0010
0000
0010
0001
0000
0100
0000
0000
0000
0010
0000
1000
0000
,
0001
0100
0001
0000
1000
0100
1000
0000
0001
0010
0001
0000
1000
0010
1000
0010
,
2000
3002
0013
1001
,
0001
0100
0000
0010
0000
1000
0001
0000
1000
0100
0000
0010
0000
0001
1000
0000
,
0010
1000
0000
0001
0000
0100
0010
0000
0100
0001
0000
1000
0000
0010
0100
0000
,
0001
0010
0100
0010
0001
0010
0100
1000
0100
0010
0100
1000
0100
0010
0001
1000
,
0100
0000
0000
0000
,
0000
1100
0000
1001
,
0001
0100
0000
0100
0010
1000
0100
0000
1000
0100
0000
0100
0010
0001
0100
0000
,
0010
0100
0000
0100
0001
0010
0100
0000
0100
0000
0000
0000
1100
0000
0110
0000
,
0011
0000
0000
0000
1010
0000
0000
0000
0010
1000
0000
1000
0001
0100
0010
0000
,
1000
0100
1000
0100
1000
0000
0001
0000
0010
0000
0000
0000
0101
0000
0000
0000
,
0010
0001
0000
0001
0100
0010
1000
0000
0010
1000
0000
1000
0100
0010
0001
0000
,
1000
0001
0000
0001
1000
0100
0010
0000
0010
0000
0000
0000
0010
0000
0001
0000
,
1000
0000
0000
0000
0101
0000
0000
0000
0010
0100
0000
0001
0000
0001
0010
0000
,
0100
0000
0000
0010
0000
0000
0100
0000
0000
0010
0000
0000
0100
0000
0000
0000
0000
0000
0010
0000
0000
0000
0000
0000
0001
0000
0000
0000
1000
0000
0000
0000
0001
0000
0000
0000
1000
0000
0000
0000
0000
0000
0000
0000
0000
0000
0000
0000
,
0010
0100
0000
0100
0001
0100
0010
1000
0100
0000
1000
0000
0001
0000
0010
0000
,
0100
0010
0000
0010
0100
1000
0010
0100
0001
0100
0010
0100
0001
1000
0100
0010
,
0001
0010
0000
0100
0000
1000
0001
0100
0010
1000
0000
0001
0000
0100
0001
0010
,
0100
1000
0100
0010
0001
0000
1000
0000
0001
0000
0000
0000
1001
0000
0000
0000
,
0001
0100
0000
0010
0000
1000
0001
0000
1001
0000
0000
0000
0000
0000
0000
0000
,
0100
0010
0000
0001
0000
1000
0100
0000
0011
0000
0000
0000
0010
0000
1000
0000
,
0001
0000
0000
0011
0000
0000
0110
0000
0100
1000
0000
0010
0000
0010
1000
0000
,
0001
0010
0001
0010
0001
0000
0010
0000
0200
0000
0000
0000
0300
0000
0000
0000
,
1001
2100
0010
0010
,
3010
0000
0000
0000
0010
1000
0010
1000
0010
0100
0010
0000
0100
0010
0100
0000
,
0001
0100
0001
0000
1000
0000
0010
1000
0010
0000
0100
0000
0001
0000
0010
0000
,
0001
0010
0001
0000
0100
0000
1000
0100
1000
0000
0100
0000
0010
0000
0001
0000
,
0100
0010
0100
0000
0000
0000
0000
0000
0011
0000
0000
0000
1100
0000
0000
0000
,
0110
1001
1100
0110
,
0011
0000
0001
0100
0010
1000
0010
0100
,
0001
0000
0010
0000
0100
1000
0010
1000
0001
1000
0100
0010
0001
0010
0100
1000
,
0000
0000
0000
0000
0100
0000
1000
0001
0010
0000
0001
0100
0010
0000
1000
0001
,
0100
0000
0001
0010
0100
0000
0010
0100
1000
0000
0010
1000
0001
0000
0100
0010
,
0100
0000
0001
0100
0001
0000
1000
0100
1000
0000
0100
0010
0001
0000
1000
0001
,
0100
0000
0010
1000
0010
0000
0000
0000
0011
0000
0000
0000
0000
0000
0000
0000
,
0110
0000
1100
0000
,
1001
0000
1010
0110
,
0101
1010
0012
0000
,
0000
0000
0000
0000
0003
0010
0001
0010
0001
0000
0000
0000
0000
0000
0000
0000
,
1010
0000
1001
0000
,
0001
0010
0000
0100
0000
0100
1000
0010
0100
0000
0010
0000
1000
0000
0001
0000
,
1001
0000
0110
0000
1001
0000
0000
0000
0001
0100
0000
0100
0001
0010
0001
1000
,
0100
0000
1000
0000
0001
0000
0100
0000
0010
1000
0000
1000
0001
0100
0001
0010
,
0100
1000
0001
0010
0001
0100
0010
1000
0001
0010
0000
0010
0001
0100
0010
1000
,
0100
1000
0000
1000
0100
0010
0001
0100
0010
0100
0010
1000
0100
0000
0010
0000
,
0011
0000
0000
0000
1001
0000
0000
0000
1000
0010
1000
0001
0010
0100
1000
0010
,
1000
0100
0010
0100
0010
0001
1000
0010
0100
0001
1000
0010
1000
0001
0100
0001
,
0010
0100
0010
0001
1000
0000
1100
0000
0110
0000
0000
0011
0000
0000
1001
0000
,
1100
0000
2010
0000
3001
0000
1002
0000
0103
0010
0100
0010
0100
0000
0010
0000
,
2000
3000
1001
0000
;
