#VERSION:0.83;
#TITLE:Grave Digger;
#SUBTITLE:(Sweater Beats Remix);
#ARTIST:Matt Maeson;
#TITLETRANSLIT:;
#SUBTITLETRANSLIT:;
#ARTISTTRANSLIT:;
#GENRE:;
#ORIGIN:;
#CREDIT:;
#BANNER:Grave Digger (Sweater Beats Remix).png;
#BACKGROUND:Grave Digger (Sweater Beats Remix)-bg.png;
#PREVIEWVID:;
#JACKET:Grave Digger (Sweater Beats Remix)-jacket.png;
#CDIMAGE:;
#DISCIMAGE:;
#LYRICSPATH:;
#CDTITLE:;
#MUSIC:Grave Digger (Sweater Beats Remix).ogg;
#OFFSET:-0.138833;
#SAMPLESTART:75.585548;
#SAMPLELENGTH:13.714287;
#SELECTABLE:YES;
#BPMS:0.000=140.000;
#STOPS:;
#DELAYS:;
#WARPS:;
#TIMESIGNATURES:0.000=4=4;
#TICKCOUNTS:0.000=4;
#COMBOS:0.000=1;
#SPEEDS:0.000=1.000=0.000=0;
#SCROLLS:0.000=1.000;
#FAKES:;
#LABELS:0.000=Song Start;
#BGCHANGES:;
#KEYSOUNDS:;
#ATTACKS:
;

//---------------dance-single - ----------------
#NOTEDATA:;
#CHARTNAME:;
#STEPSTYPE:dance-single;
#DESCRIPTION:;
#CHARTSTYLE:;
#DIFFICULTY:Hard;
#METER:11;
#RADARVALUES:0.446099,0.634948,0.690778,0.255493,0.283881,330.000000,257.000000,73.000000,27.000000,0.000000,0.000000,0.000000,0.000000,0.000000,0.446099,0.634948,0.690778,0.255493,0.283881,330.000000,257.000000,73.000000,27.000000,0.000000,0.000000,0.000000,0.000000,0.000000;
#CREDIT:Daniel Van Eden;
#NOTES:
0000
0000
0000
0000
,
0000
0000
0000
0000
,
0000
0000
0000
0000
,
0000
0000
0000
0000
,
0110
0000
1001
0000
,
0000
0000
0001
1000
0000
0000
1010
0000
0000
0000
0000
0000
,
0011
0000
0101
0000
,
0000
0000
0010
1000
0000
0000
0011
0000
0000
1100
0000
0000
,
0000
0000
0110
0000
,
0000
0000
0010
1000
0000
0000
0011
0000
0000
0000
0000
0000
,
1100
0000
0110
0000
,
0000
0000
0010
1000
0000
0000
0101
0000
0000
1000
0001
1000
,
0010
0000
0000
1000
0000
0000
1001
0000
0000
0100
0000
0001
,
0100
0000
0010
0100
0000
0000
1010
0000
0000
0001
0000
1000
,
0100
0000
0000
0010
0000
0000
0110
0000
0000
0100
0000
1000
,
0100
0000
0010
0100
0000
0000
0011
0000
0000
1100
0000
1000
,
0001
0000
0000
0100
0000
0000
0101
0000
0000
0001
0000
1000
,
0010
0000
0100
0010
0000
0000
1100
0000
0000
0010
0000
0001
,
1000
0000
0000
0010
0000
0000
1010
0000
0000
1000
0000
0100
,
0010
0000
0001
0010
0000
0000
0101
0000
0000
1010
0000
1000
,
0100
0000
0000
0010
0000
0000
0011
0000
0000
0010
0000
0001
,
0010
0000
0001
0100
0000
0000
1001
0000
0000
0010
0000
1000
,
0010
0000
0000
0100
0000
0000
1001
0000
0000
0001
0000
0100
,
0010
0000
1000
0001
0000
0000
0010
0000
0000
1001
0000
0001
,
0100
0000
0000
1000
0000
0000
1010
0000
0000
0010
0000
0100
,
0001
0000
0100
0010
0000
0010
1000
0000
1000
0010
0100
0001
,
0200
0000
0001
0310
,
0002
1000
0100
0003
,
2000
0000
0100
3000
,
0020
0000
0000
0000
0000
0000
0000
0000
0000
0000
0000
0000
0000
0000
0000
0000
1030
0000
0000
0000
0000
0001
0000
0000
0100
0000
0000
0000
0000
0001
0000
0000
,
0020
0000
0130
2000
,
3010
0000
0000
0000
0200
0000
0000
0000
0301
0000
0000
0001
0010
0000
0000
0000
,
2100
0000
0010
0000
,
3001
0000
0000
0100
0000
0001
1000
0000
1000
0100
0000
0100
,
0020
0000
0031
0100
,
1000
0010
1010
0000
,
0020
1000
0130
0100
,
0002
0000
0000
0000
0000
0000
0000
0000
1003
0000
0000
0000
0000
0000
0000
0000
0010
0000
0000
0000
0000
1000
0000
0000
0010
0000
0000
0000
0000
0100
0000
0000
,
0001
1000
1100
0010
,
0101
0000
0000
0000
1000
0000
0000
0000
0011
0000
0000
0100
1000
0000
0000
0000
,
1001
0001
0100
0010
0100
0001
1000
0100
,
1000
0010
1000
0000
0001
0010
0001
0000
1000
0100
1000
0000
0001
0100
0001
0000
,
0200
0000
0000
0000
,
0000
0000
0000
0000
1300
1001
0000
0000
,
0202
0000
0000
0303
0000
0000
1010
0000
0100
0001
0000
0010
,
1100
0000
0000
0010
0000
0000
0101
0000
0001
1000
0000
0000
,
0110
0000
0000
0001
0000
0000
1100
0000
0000
0001
0000
1000
,
0110
0000
0001
0110
0000
0000
1001
0000
0010
0100
0000
0000
,
2200
0000
0000
3300
0000
0000
0011
0000
0000
0110
0000
1000
,
0101
0000
0000
0010
0000
0000
1001
0000
1000
0010
0000
0000
,
0101
0000
0000
0010
0000
0000
1100
0000
0000
1000
0000
0100
,
0011
1010
2002
0003
,
3020
0000
0000
0030
0000
0000
1001
0000
1001
0010
0000
1001
,
0210
0000
0000
0301
0000
0000
1010
0000
0100
0001
0000
0000
,
0012
0000
0000
0103
0000
0000
1001
0000
0000
0010
0000
0100
,
1001
0000
0000
0100
0000
0000
1010
0000
0001
0100
0000
0000
,
0022
0000
0000
0033
0000
0000
0110
0000
0000
1010
0000
0100
,
1001
0000
0000
1000
0000
0000
0101
0000
0001
0010
0000
0000
,
1100
0000
0000
0010
0000
0000
1001
0000
0000
0001
0000
0010
,
1100
0101
2002
3003
,
0220
0000
0000
0000
,
0330
0000
0000
0000
;

//---------------dance-single - ----------------
#NOTEDATA:;
#CHARTNAME:;
#STEPSTYPE:dance-single;
#DESCRIPTION:;
#CHARTSTYLE:;
#DIFFICULTY:Beginner;
#METER:3;
#RADARVALUES:0.186551,0.283881,0.160866,0.000000,0.000000,138.000000,121.000000,17.000000,0.000000,0.000000,0.000000,0.000000,0.000000,0.000000,0.186551,0.283881,0.160866,0.000000,0.000000,138.000000,121.000000,17.000000,0.000000,0.000000,0.000000,0.000000,0.000000,0.000000;
#CREDIT:Daniel Van Eden;
#NOTES:
// measure 0
0000
0000
0000
0000
,  // measure 1
0000
0000
0000
0000
,  // measure 2
0000
0000
0000
0000
,  // measure 3
0000
0000
0000
0000
,  // measure 4
1000
0000
0010
0000
,  // measure 5
0000
0000
0010
0000
,  // measure 6
0100
0000
0010
0000
,  // measure 7
0000
1000
0010
0000
,  // measure 8
0001
0000
0100
0000
,  // measure 9
0000
0000
0100
0000
,  // measure 10
0001
0000
0100
0000
,  // measure 11
0000
0001
0100
0000
,  // measure 12
0010
0000
1000
0000
,  // measure 13
0000
0001
0001
0000
,  // measure 14
1000
0000
0001
0000
,  // measure 15
0000
0100
0100
0000
,  // measure 16
0010
0000
0100
0000
,  // measure 17
0000
0001
0001
0000
,  // measure 18
0010
0000
0100
0000
,  // measure 19
0000
1000
1000
0000
,  // measure 20
0010
0000
1000
0000
,  // measure 21
0001
0000
1000
0000
,  // measure 22
0100
0000
0010
0000
,  // measure 23
0000
0001
0001
0000
,  // measure 24
1000
0000
0010
0000
,  // measure 25
1000
0000
0001
0001
,  // measure 26
0001
0000
1000
0000
,  // measure 27
0100
0100
0100
0000
,  // measure 28
0010
0000
0000
0000
,  // measure 29
0100
0000
1000
0000
,  // measure 30
0001
0000
1000
0000
,  // measure 31
0010
0010
0010
0000
,  // measure 32
0100
0000
0001
0000
,  // measure 33
1000
0000
0100
0000
,  // measure 34
1000
0000
1000
0000
,  // measure 35
0001
0001
0001
0000
,  // measure 36
1000
0000
0010
0000
,  // measure 37
0100
0000
0001
0000
,  // measure 38
0010
0000
0100
0000
,  // measure 39
1000
1000
1000
0000
,  // measure 40
0001
0000
1000
0000
,  // measure 41
0001
1000
0001
1000
,  // measure 42
1001
0000
0000
0000
,  // measure 43
0000
0000
1001
0000
,  // measure 44
0110
0000
0010
0000
,  // measure 45
1000
1000
1000
0000
,  // measure 46
0001
0000
0110
0000
,  // measure 47
0100
0100
1001
0000
,  // measure 48
0100
0000
0010
0010
,  // measure 49
0010
0000
1001
0000
,  // measure 50
0001
0000
1001
0000
,  // measure 51
0100
0100
0110
0000
,  // measure 52
0000
0000
1001
0110
,  // measure 53
1001
0000
1000
0000
,  // measure 54
0001
0000
0110
0000
,  // measure 55
0001
0000
1001
0000
,  // measure 56
1000
0000
0100
0100
,  // measure 57
0100
0000
0110
0000
,  // measure 58
1001
0000
0100
0000
,  // measure 59
1000
1000
1001
0000
,  // measure 60
1001
0000
0000
0000
;

//---------------dance-single - ----------------
#NOTEDATA:;
#CHARTNAME:;
#STEPSTYPE:dance-single;
#DESCRIPTION:;
#CHARTSTYLE:;
#DIFFICULTY:Easy;
#METER:6;
#RADARVALUES:0.278474,0.432919,0.416359,0.066239,0.000000,206.000000,162.000000,44.000000,7.000000,0.000000,0.000000,0.000000,0.000000,0.000000,0.278474,0.432919,0.416359,0.066239,0.000000,206.000000,162.000000,44.000000,7.000000,0.000000,0.000000,0.000000,0.000000,0.000000;
#CREDIT:Daniel Van Eden;
#NOTES:
0000
0000
0000
0000
,
0000
0000
0000
0000
,
0000
0000
0000
0000
,
0000
0000
0000
0000
,
1000
0000
1001
0000
,
0000
0001
1000
0000
,
0010
0000
1010
0000
,
0000
1000
0010
0110
,
0100
0000
0101
0000
,
0000
0001
0100
0000
,
0010
0000
0011
0000
,
0000
0001
0010
0110
,
1000
0000
1001
0000
,
0010
0100
0110
0000
,
0010
0000
1001
0000
,
1000
0010
1000
1010
,
0100
0000
0110
0000
,
0001
0010
0011
0000
,
0001
0000
1100
0000
,
0100
1000
0100
1001
,
0010
0100
0001
1000
,
0001
0001
1000
1000
,
0010
0000
1001
0000
,
0001
0001
1000
0000
,
0100
1000
0100
0010
,
0001
0000
0100
0100
,
0020
0000
1000
0000
,
0100
0100
0130
0000
,
0001
0000
1000
0000
,
0001
0000
0010
0100
,
0020
0000
0100
0000
,
0001
0001
0031
0000
,
1000
0000
0010
0000
,
1000
0000
0001
0001
,
2000
0000
0100
0000
,
0010
0010
3010
0000
,
0001
0000
0100
0000
,
0010
0000
0100
0000
,
0002
0000
0010
0000
,
1000
1000
1003
0000
,
0100
0001
0010
0001
,
1000
0001
1000
0100
,
0020
0000
0000
0000
,
0000
0030
1001
0000
,
0110
0000
1010
1000
,
0001
1000
1100
0000
,
0110
0010
0011
0001
,
0101
0100
0001
1000
,
1001
0000
0011
0100
,
1100
1000
0010
1000
,
1001
0001
0101
0100
,
0110
0010
1000
1000
,
0000
0000
0101
1100
,
1010
0010
0110
0100
,
1001
0001
0110
1000
,
0101
0010
1100
1000
,
1001
0000
1010
0010
,
0100
0001
1001
0010
,
0100
0010
0011
0001
,
1001
1001
1010
0000
,
2002
0000
0000
0000
,
3003
0000
0000
0000
;

//---------------dance-single - ----------------
#NOTEDATA:;
#CHARTNAME:;
#STEPSTYPE:dance-single;
#DESCRIPTION:;
#CHARTSTYLE:;
#DIFFICULTY:Medium;
#METER:8;
#RADARVALUES:0.340657,0.432919,0.340657,0.179791,0.141941,252.000000,216.000000,36.000000,19.000000,0.000000,0.000000,0.000000,0.000000,0.000000,0.340657,0.432919,0.340657,0.179791,0.141941,252.000000,216.000000,36.000000,19.000000,0.000000,0.000000,0.000000,0.000000,0.000000;
#CREDIT:Daniel Van Eden;
#NOTES:
0000
0000
0000
0000
,
0000
0000
0000
0000
,
0000
0000
0000
0000
,
0000
0000
0000
0000
,
0010
0000
1000
0000
,
0000
0000
1000
0010
0000
0000
1000
0000
0000
0000
0000
0000
,
0100
0000
0010
0000
,
0000
0000
0010
0100
0000
0000
0010
0000
0000
1001
0000
0000
,
0000
0000
0100
0000
,
0000
0000
0001
0100
0000
0000
0010
0000
0000
0000
0000
0000
,
1000
0000
0100
0000
,
0000
0000
0100
1000
0000
0000
0010
0000
0000
0101
0000
0000
,
0001
0000
0000
1000
0000
0000
0001
0000
0000
0100
0000
0001
,
1000
0000
0000
0100
0000
0000
1000
0000
0000
0001
0000
0010
,
0001
0000
0000
1000
0000
0000
0001
0000
0000
1000
0000
0010
,
1000
0001
0100
1100
,
0010
0000
0000
0001
0000
0000
0100
0000
0000
0010
0000
0100
,
0001
0000
0000
1000
0000
0000
0010
0000
0000
0100
0000
0010
,
0100
0000
0000
0001
0000
0000
0010
0000
0000
0100
0000
1000
,
0100
0010
0001
1001
,
1010
0010
1010
1000
,
0001
0000
0000
1000
0000
0000
0100
0000
0000
0010
0000
0100
,
0010
0001
0011
0010
,
0100
0000
1000
0010
0000
0000
0100
0000
0000
0001
0000
1000
,
0010
0000
0000
0100
0000
0000
0010
0000
0000
0010
0000
2000
,
0000
0000
0000
3000
0000
0000
0001
0000
0001
1000
0000
1000
,
0020
0000
2030
3100
,
0020
0031
0101
0000
,
1000
0000
0010
0000
,
1000
0000
0000
0000
0000
0000
0010
0000
0010
1000
0000
1000
,
0020
0000
0130
0001
,
0020
0130
2000
3001
,
0100
0000
0001
0000
,
1000
0000
0000
0000
0000
0000
0100
0000
0100
0010
0000
0010
,
0002
0000
2003
3010
,
0200
0301
1000
0000
,
0010
0000
0100
0000
,
0001
0000
0000
0000
0000
0000
0010
0000
0010
0100
0000
0100
,
1000
0010
1000
0001
,
0010
0100
0010
0001
,
1000
0100
1000
0001
0100
0001
0100
0001
,
0020
0030
0200
0300
0020
0030
0002
0003
,
2100
0000
0000
0000
,
0000
0000
0000
0000
3001
0101
0000
0000
,
1001
0000
0000
0000
0000
0000
1000
0000
0010
1000
0000
0010
,
1000
0000
0000
0100
0000
0000
0010
0000
0001
0100
0000
0000
,
0001
1000
0101
0010
,
0110
1100
0011
0101
,
1001
0000
0100
0011
,
0101
0000
0000
0010
0000
0000
1000
0000
0100
0010
0000
0000
,
1000
0001
1010
0001
,
0110
1100
2020
0000
,
3000
0000
0000
0030
0000
0000
0100
0000
0100
0010
0000
0100
,
0010
0000
0000
1000
0000
0000
0001
0000
0010
0100
0000
0000
,
1000
0001
0110
0001
,
1100
1010
0101
0011
,
0110
0000
0100
1010
,
1100
0000
0000
0010
0000
0000
0001
0000
0100
0010
0000
0000
,
1000
0001
1100
0010
,
1001
0011
0110
0000
,
2002
0000
0000
0000
,
3003
0000
0000
0000
;
