#TITLE:Good Night Girl;
#SUBTITLE:;
#ARTIST:AZUpubschool feat. KOMA KAT;
#TITLETRANSLIT:;
#SUBTITLETRANSLIT:;
#ARTISTTRANSLIT:;
#GENRE:;
#CREDIT:;
#BANNER:Good Night Girl.png;
#BACKGROUND:Good Night Girl-bg.png;
#LYRICSPATH:;
#CDTITLE:;
#MUSIC:Good Night Girl.ogg;
#OFFSET:-0.125245;
#SAMPLESTART:46.617962;
#SAMPLELENGTH:12.000000;
#SELECTABLE:YES;
#BPMS:0.000000=160.000000
,124.000000=320.000000
,214.500000=160.000000
;
#STOPS:188.125000=0.469000,
188.625000=0.094000,
189.125000=0.188000,
189.625000=0.188000,
190.125000=0.094000,
190.625000=0.188000,
191.125000=0.188000,
191.625000=0.094000,
192.125000=0.562000,
193.125000=0.281000,
193.625000=0.281000,
194.125000=0.188000,
194.625000=0.188000,
195.125000=0.094000,
195.625000=0.281000,
196.125000=0.281000,
196.625000=0.187000,
197.125000=0.188000,
198.125000=0.188000,
198.625000=0.281000,
199.125000=0.094000,
199.625000=0.375000,
200.625000=0.094000,
201.125000=0.062000,
201.458328=0.062000,
201.791672=0.062000,
202.125000=0.062000,
202.458328=0.062000,
202.791672=0.062000,
203.125000=0.562000,
204.125000=0.281000,
204.625000=0.281000,
205.125000=0.188000,
205.625000=0.188000,
206.125000=0.094000
;
#BGCHANGES:;
#KEYSOUNDS:;
#ATTACKS:;

//---------------dance-single - ----------------
#NOTES:
     dance-single:
     :
     Hard:
     14:
     0.592601,0.774983,0.315895,0.232765,0.182887,499.000000,461.000000,38.000000,28.000000,0.000000,0.000000,0.592601,0.774983,0.315895,0.232765,0.182887,499.000000,461.000000,38.000000,28.000000,0.000000,0.000000:
0000
0000
0000
0000
,
0000
0000
0000
0000
,
0000
0000
0000
0000
,
0000
0000
0000
0000
,
0000
0000
0000
0000
,
0000
0000
0000
0000
,
0000
0000
0000
0000
,
0000
0000
0000
0000
,
0000
0000
0000
0000
,
0000
0000
0000
0000
,
0000
0000
0000
0000
,
0001
0010
0001
0000
1000
0000
0010
0000
0100
0000
0000
0000
0010
0000
1000
0000
,
0100
1000
0100
1000
0100
0000
0010
0000
0001
0000
0000
0000
1000
0000
0001
0000
,
0010
0100
0010
0000
0001
0000
1000
0000
0010
0000
0000
0000
0100
0000
0001
0000
,
1000
0010
1000
0010
1000
0000
0010
0000
1100
0000
0000
0000
0110
0000
0000
0000
,
0001
1000
0001
0000
0100
0000
0001
0000
0010
0000
0000
0000
0001
0000
1000
0000
,
0010
1000
0010
1000
0010
0000
1000
0000
0100
0000
0001
0000
0100
0000
0010
0000
,
0001
0100
1000
0100
0001
0010
0100
1000
,
0001
1000
0001
1000
0001
1000
0001
1000
0001
1000
0000
0000
,
0100
1000
0100
0000
1000
0000
0001
0000
0101
0000
0000
0000
0010
0000
0001
0000
,
0100
0001
0100
0001
0100
0000
0010
0000
1010
0000
0000
0000
1001
0000
0000
0000
,
0001
0010
0001
0000
0100
0000
0010
0000
0110
0000
0000
0000
0010
0000
1000
0000
,
0100
1000
0100
1000
0100
0000
1000
0000
1001
0000
0000
0000
0101
0000
0000
0000
,
0010
0100
0010
0000
1000
0000
0001
0000
0010
0000
0001
0000
0010
0000
0100
0000
,
1000
0010
1000
0010
1000
0000
0010
0000
0100
0000
0000
0000
0010
0000
1000
0000
,
0001
0010
1000
0010
0001
1000
0010
0100
,
0001
0100
0001
0100
0001
0100
0001
0100
0001
0100
0000
0000
,
0020
0000
1000
0100
2030
0100
3002
0100
,
0020
0000
0000
0000
0000
0000
0000
0033
,
0000
0000
0110
0001
0010
0100
1000
0010
,
1000
0001
0010
0100
1100
0000
0000
0000
,
0010
0001
0000
1000
0100
0000
0001
0000
,
0100
1000
0000
0001
0010
0000
1000
0000
,
0010
0001
0000
0100
0010
0000
1000
0000
,
0001
0000
1100
0000
,
0010
1000
0100
1000
,
0010
0000
0100
0001
0000
0100
0010
0100
,
0001
0010
0100
0010
,
0011
0000
0000
1001
0000
0000
0101
0000
,
0010
1000
0000
0001
1000
0000
0100
0000
,
0010
0001
0000
1000
0001
0000
0100
0000
,
0010
0100
0000
0001
0100
0000
0010
0000
,
1000
0000
0000
1000
0010
0000
1000
0000
,
0100
0001
0100
1000
,
0001
0000
1000
0100
0000
0010
0100
0010
,
0001
0100
0001
0000
1000
0010
1000
0000
,
0001
1000
0100
0001
,
0100
1000
0001
0010
0100
1000
0001
0100
,
0010
0000
1000
0010
0100
0010
0100
0001
,
0010
0001
1000
0100
0000
1000
0010
0100
,
0000
0000
0000
0010
0000
0000
1000
0000
0100
0000
0010
0000
0001
0000
0100
0000
0010
0000
1000
0000
0000
0000
0000
0000
,
0100
0010
0001
1000
0001
0200
0000
0000
,
0000
0000
0000
0000
0000
0320
0000
0000
,
0000
0000
0000
0000
0000
0130
0000
0000
,
0100
0000
0102
0000
0000
0000
0013
0000
0000
0000
0010
0000
0100
1000
0000
1000
,
0100
0010
0001
0100
0001
1000
0000
0000
,
1010
1000
0000
0110
0000
0001
0011
0000
,
1001
0000
0000
1010
0000
0100
1000
0010
,
0010
0000
0010
0000
0100
0000
0001
0000
0010
0000
0001
0000
0100
0001
0000
0100
,
0001
0001
1000
0010
0100
0010
1000
0001
,
1000
0100
0010
0001
0100
1000
0100
0001
,
1000
0010
0100
0001
0100
0010
0000
1010
,
1000
0000
1100
0100
0000
0110
0001
1001
,
1000
1010
0000
0001
1000
0200
0000
0300
,
0000
0022
0000
0033
0000
2020
0000
3030
,
0000
0220
0000
0330
0000
0101
0001
0010
,
0001
1000
0100
0010
0100
1000
0010
0010
,
1000
0100
0010
0001
1000
0010
1000
0100
,
0010
0001
0010
1000
0010
0100
0010
0001
,
0100
0010
1000
0001
1001
1100
0100
1000
,
0010
0100
0010
0100
0001
1000
0100
1000
,
0010
0000
1000
0000
0001
0000
0100
0000
0010
0000
1000
0000
0001
1000
0100
0000
,
1000
0000
0100
0000
1000
0100
0010
0000
0100
0000
1000
0000
0001
0010
0100
0000
,
0010
0000
0001
0000
0100
0010
0100
0000
0010
1000
0001
0000
0010
0000
0001
0000
,
0100
0010
0010
1000
0100
1000
0010
0100
,
0001
0010
0001
0100
0010
1000
0010
0001
,
0010
0000
1000
0000
0100
0000
0010
0000
0100
0000
1000
0100
0001
0000
1000
0000
,
0010
0001
0001
0100
0010
1000
0100
0010
,
0100
1000
0010
0001
0010
1000
0001
0010
,
0100
0010
0100
1000
0001
2020
0000
3030
,
0202
0000
0303
0022
0000
0033
0220
0000
,
0330
2200
0000
3300
2020
0000
3030
2002
,
0000
0000
0000
0000
,
0000
0000
0000
0000
,
0000
0000
0000
3003
;

//---------------dance-single - ----------------
#NOTES:
     dance-single:
     :
     Challenge:
     15:
     0.703045,1.127248,0.540347,0.299269,0.253548,592.000000,527.000000,65.000000,36.000000,0.000000,0.000000,0.703045,1.127248,0.540347,0.299269,0.253548,592.000000,527.000000,65.000000,36.000000,0.000000,0.000000:
0000
0000
0000
0000
,
0000
0000
0000
0000
,
0000
0000
0000
0000
,
0000
0000
0000
0000
,
0000
0000
0000
0000
,
0000
0000
0000
0000
,
0000
0000
0000
0000
,
0000
0000
0000
0000
,
0000
0000
0000
0000
,
0000
0000
0000
0000
,
0000
0000
0000
0000
,
0001
0100
0001
0000
0010
0000
0100
0000
0010
0000
0001
0000
1000
0000
0100
0000
,
1000
0010
1000
0010
1000
0000
0010
0000
0100
0000
0001
0000
1000
0000
0000
0001
,
0100
0001
0100
0000
0010
0000
1000
0000
0001
0000
0010
0000
0001
0000
1000
0000
,
0100
0010
0100
0010
0001
0000
0100
0000
1010
0000
0000
0000
0001
0100
0010
1000
,
0001
0010
0001
0000
1000
0000
0100
0000
1000
0000
0001
0000
0100
0000
0010
0000
,
1000
0001
1000
0001
1000
0000
0100
0000
0010
0000
0001
0000
0100
0000
0010
0000
,
2010
0100
0001
3100
0020
1000
0100
1030
,
0002
0000
0003
0020
0002
0033
1100
0000
,
0100
1000
0100
0000
0010
0000
0001
0000
1000
0000
1000
0000
0002
0000
0000
0000
,
1003
0010
1000
0010
0100
0000
0001
0000
0010
0000
1000
0000
0010
0000
0001
1000
,
0010
1000
0010
0000
1000
0000
0100
0000
1000
0000
0001
0000
0010
0000
0100
0000
,
0010
0001
0010
0001
0010
0000
0001
0000
0100
0000
0010
0000
1000
0001
0010
0001
,
0100
0010
0100
0000
0001
0000
0100
0000
0001
0000
0010
0000
0100
0000
1000
0000
,
0010
1000
0001
0100
0010
0000
1000
0000
0100
0000
0001
0000
0100
0000
1000
0000
,
0101
0100
0010
1000
1100
0100
0010
0001
,
0210
0000
0300
2000
3010
0000
0100
0000
,
1001
0000
0020
0032
0203
0320
2030
3100
,
0010
0001
0010
0001
0010
0001
0010
0001
0010
0001
0010
0001
0010
0001
0010
0001
,
0000
0000
1100
0001
0010
0100
1000
0010
,
1000
0001
1000
0000
0100
0000
0010
0000
0011
0000
0000
0000
0000
0000
0000
0000
,
0100
1000
0100
1000
0001
0010
0001
0010
,
0100
1000
0100
1000
0010
1000
0010
1000
,
0001
0100
0001
0100
0010
0100
0010
0100
,
0001
0000
1001
0000
,
0001
1000
0010
1000
,
0001
0000
0100
0010
0000
0010
1000
0100
,
1000
0010
1000
0000
0001
0000
0010
0000
,
0001
0010
0100
1000
0010
0100
0001
0100
,
0010
1000
0010
1000
0010
0000
0100
0000
,
0001
1000
0001
1000
0001
0000
0010
0000
,
0100
1000
0100
1000
0100
0000
0010
0000
,
0001
0000
0100
0001
0100
0000
0010
0000
,
1000
0100
0001
0100
,
1000
0000
0001
1000
0000
0010
1000
0100
,
0010
0100
0010
0000
0001
0000
0100
0000
,
0010
1000
0001
0010
,
0110
0110
0011
1010
0101
0110
1001
1100
,
0011
0000
1100
0110
0011
1001
0110
1010
,
0101
0110
0011
1010
0000
0110
1100
1001
,
0000
0000
0000
1010
0000
0000
0001
0000
0100
0000
1000
0000
0100
0000
0001
0000
0010
0000
1000
0000
0000
0000
0000
0000
,
1010
0011
0101
1010
1001
2200
0000
0000
,
0000
0000
0000
3300
0000
0022
0000
0000
,
0000
0000
0000
0033
0000
0001
0000
0000
,
0001
0000
0010
0000
0000
0000
0001
0000
0000
0000
1000
0000
0100
1000
0000
1000
,
0010
0100
0001
2000
0000
3010
0100
0001
,
0100
1000
0100
0001
0000
0100
1100
0000
,
0101
0000
0000
0000
0010
0000
0001
0010
0100
0000
1000
0000
0100
0000
1000
0000
,
1000
0000
0010
0000
1000
0000
0001
0000
0100
0000
0010
0000
1000
0001
1000
0000
,
0100
0200
0000
0310
0001
1000
0010
1000
,
0100
0001
0100
1000
0001
0010
0100
0001
,
0100
1000
0010
0100
0001
1001
0000
0010
,
1100
0000
1000
0011
0000
0010
1001
0100
,
0101
1000
0000
1100
0010
0200
1000
0010
,
1300
0002
0100
1000
0103
0020
0000
0130
,
0000
0000
2002
0000
0000
0000
3003
0000
0000
0000
0010
1000
0001
0000
1000
0000
,
0100
0000
1000
0000
0010
0000
0100
0000
0001
0000
0010
0001
1000
0000
0100
0000
,
1000
0000
0100
0000
0010
0000
0001
0000
1000
0000
0100
0010
0100
0010
0001
0000
,
1000
0000
0001
0000
0100
0000
0001
0000
0010
0000
0100
0010
0100
1000
0010
0000
,
1000
0100
0010
0110
1100
1001
0100
0010
,
1010
1000
0001
1001
0010
0200
1300
0001
,
1100
0000
0010
0000
1000
0000
0101
0000
0001
0000
1000
0000
0010
1000
0001
0000
,
1000
0000
0001
0000
0100
0001
1000
0000
0100
0000
1000
0000
0100
0010
0001
0000
,
0100
0000
0010
0000
1000
0001
0100
0000
0010
0000
0010
0000
1000
0001
1000
0000
,
0100
0000
0010
0000
0010
0000
0001
0000
0100
0000
0010
1000
0010
1000
0100
0000
,
0010
0100
0010
0000
0001
0010
0001
0000
1000
0000
0100
0000
1000
0000
0001
0000
,
0101
0000
0000
0000
1000
0000
1010
0000
0000
0000
1000
0001
0010
0000
0100
0000
,
2000
0000
3010
0000
0100
0001
1000
0001
0010
0100
1000
0010
1000
0000
0010
0000
,
0100
0001
0100
1000
0100
0001
0010
0001
,
1000
0100
0001
0100
1000
1020
0000
0130
,
0102
0000
0013
0220
0330
1000
0101
0010
,
0000
2002
0000
3003
0220
0330
0001
2200
,
0000
0000
0000
0000
,
0000
0000
0000
0000
,
0000
0000
0000
3300
;

//---------------dance-single - ----------------
#NOTES:
     dance-single:
     :
     Medium:
     9:
     0.314708,0.493171,0.108069,0.307582,0.004157,265.000000,252.000000,13.000000,37.000000,0.000000,0.000000,0.314708,0.493171,0.108069,0.307582,0.004157,265.000000,252.000000,13.000000,37.000000,0.000000,0.000000:
0000
0000
0000
0000
,
0000
0000
0000
0000
,
0000
0000
0000
0000
,
0000
0000
0000
0000
,
0000
0000
0000
0000
,
0000
0000
0000
0000
,
0000
0000
0000
0000
,
0000
0000
0000
0000
,
0000
0000
0000
0000
,
0000
0000
0000
0000
,
0000
0000
0000
0000
,
1000
0000
0000
0010
0000
0000
1000
0000
,
0000
1000
0100
1000
0100
0000
0010
0000
,
0001
0000
0000
0100
0000
0000
0001
0001
,
0000
0001
1000
0000
0010
1000
0010
0000
,
0110
0000
1001
0000
0000
0000
0001
1000
,
0000
0000
0100
0000
0010
0000
0001
0100
,
0002
2003
3020
0230
,
0302
0000
0000
1000
0000
0000
2003
0000
,
3010
0000
1000
0000
0001
0100
0010
0000
,
1000
0000
0100
0010
0001
0000
1000
0000
,
0001
0000
1000
0010
0100
0000
0001
0000
,
1000
0001
0000
0001
1000
0001
1000
0000
,
1100
0000
0011
0000
0000
0002
0000
0203
,
0000
0320
0000
0000
0030
0000
0010
1000
,
0020
2030
3002
0023
,
0230
0000
0000
0001
0000
0000
2300
0000
,
3001
0010
0001
0100
,
2000
0000
0000
0000
,
3000
1010
0100
0001
,
1000
0100
0001
0000
,
1000
0000
0000
1000
0000
0000
1000
0000
,
0001
0000
0000
0001
0000
0000
0001
0000
,
0100
0000
0000
0100
0000
0000
0100
0000
,
0010
0000
1001
0000
,
0001
0000
0100
0000
,
0010
0000
0000
0100
0000
0000
0010
0000
,
1000
0000
0100
0000
,
1000
0000
0000
0001
0000
0000
1000
0000
,
0100
0000
0000
0100
0000
0000
0100
0000
,
0010
0000
0000
0010
0000
0000
0010
0000
,
0001
0000
0000
0001
0000
0000
0001
0000
,
0100
0000
1001
0000
,
1000
0000
0001
0000
,
0100
0000
0000
0001
0000
0000
0100
0000
,
0010
0000
0010
0000
,
1000
0100
0010
0001
,
1000
0000
0001
0000
0000
0100
0000
0000
,
0010
0000
1000
1000
1000
0000
0000
0001
,
0001
0001
0000
0000
0000
1000
0000
0001
,
0000
1000
0100
0010
,
0001
0100
0001
0000
0000
2000
0000
0000
,
0000
0000
0000
0000
0000
3020
0000
0000
,
0000
0000
0000
0000
0000
0030
0000
0000
,
1000
0001
0000
2000
0000
0000
0100
0000
,
3100
0000
0000
0010
0001
0010
0000
0000
,
0001
0000
0000
0100
0000
0000
0010
0000
,
1000
0000
0000
0001
0000
0010
0000
0000
,
0010
0000
0100
0000
0000
0000
0010
0000
0001
0000
0010
0000
0000
0100
0000
0000
,
0100
0200
0000
0300
0000
1000
0000
0000
,
0001
0000
0000
1000
0000
0000
0010
0000
,
1000
0000
0000
0100
0000
1000
0000
1000
,
0010
0000
0010
0100
0000
0100
0001
0000
,
1001
0000
0000
1010
0000
0102
0000
1003
,
0000
2100
0000
3010
0000
0220
0000
0330
,
0000
2002
0000
3003
0000
1000
0000
0001
,
0100
0001
0000
0100
0000
0010
0000
1000
,
0000
0100
0000
0010
0000
0001
0000
1000
,
0100
1000
0000
0100
0000
0010
0000
0001
,
0000
1000
0000
0010
0000
0100
0000
0001
,
1000
0001
0000
1000
0000
0100
0000
1000
,
0000
0010
0000
0100
0000
0002
0000
0000
,
0000
2003
0000
0000
0000
3020
0000
0000
,
0000
2030
0000
0000
0000
3100
0000
0010
,
0000
0001
1000
0001
0000
0100
0000
0010
,
0000
0100
0000
0001
0000
0010
0000
0100
,
0000
1000
0010
1000
0000
0001
0100
0001
,
0100
0001
0100
0001
0000
1000
0000
0010
,
1000
0010
0000
0100
0000
0001
0000
1000
,
0000
0100
0000
0010
0000
0002
0000
0000
,
0023
0000
0000
0230
0000
0000
2300
0000
,
0000
3002
0000
0000
2003
0000
0000
3020
,
0000
0000
0000
0000
,
0000
0000
0000
0000
,
0000
0000
0000
0030
;

//---------------dance-single - ----------------
#NOTES:
     dance-single:
     :
     Easy:
     5:
     0.176949,0.246585,0.008313,0.157948,0.000000,149.000000,148.000000,1.000000,19.000000,0.000000,0.000000,0.176949,0.246585,0.008313,0.157948,0.000000,149.000000,148.000000,1.000000,19.000000,0.000000,0.000000:
0000
0000
0000
0000
,
0000
0000
0000
0000
,
0000
0000
0000
0000
,
0000
0000
0000
0000
,
0000
0000
0000
0000
,
0000
0000
0000
0000
,
0000
0000
0000
0000
,
0000
0000
0000
0000
,
0000
0000
0000
0000
,
0000
0000
0000
0000
,
0000
0000
0000
0000
,
1000
0000
0010
0000
,
0000
0100
0100
0010
,
1000
0000
0001
0000
,
1000
0001
1000
0100
,
0010
0000
0010
0000
,
0001
1000
0001
0000
,
0100
0000
0010
0000
,
1000
0000
0000
0001
0000
0000
1000
0000
,
0100
0000
0010
0010
,
0000
0001
0001
1000
,
0001
0000
0100
0000
,
0010
1000
0010
0000
,
1000
0000
0001
0000
,
1000
0100
0010
0000
,
0001
0000
1000
0000
,
0010
0000
0000
0100
0000
0000
0010
0000
,
2000
0000
0000
0000
,
3002
0000
0000
0000
,
0003
0020
0000
0000
,
0230
0000
0300
0000
,
1000
0000
0000
0000
,
0002
0000
0000
0000
,
1003
0000
0000
0000
,
2000
0000
0000
0000
,
3100
0000
0010
0000
,
0100
0000
0010
0000
,
0001
0000
1000
0000
,
0001
0000
1000
0000
,
0010
0000
0000
0000
,
2000
0000
0000
0000
,
3001
0000
0000
0000
,
0002
0000
0000
0000
,
0013
0000
0100
0000
,
0010
0000
0100
0000
,
1000
0000
0001
0000
,
1000
0000
0000
0000
,
0020
0000
0000
0000
0030
2000
0000
0000
,
3000
0000
0001
0000
1000
0000
0000
0001
,
0000
1000
0000
0000
0000
0000
0000
0100
,
0000
0010
0010
0010
,
0001
0000
0100
0000
0000
0020
0000
0000
,
0000
0000
0000
0000
0000
0030
0000
0000
,
0000
0000
0000
0000
,
0000
1000
0000
0000
0000
0010
0000
0000
,
0000
1000
0000
0000
0000
0000
0000
0000
,
0000
0001
0000
0000
0000
1000
0000
0000
,
0000
0001
0000
0000
0000
0010
0000
0010
,
0000
0010
0000
0000
0000
0100
0000
0100
,
0000
0100
0000
0000
0000
1000
0000
0000
,
0000
0010
0000
0000
0000
1000
0000
0000
,
0000
0001
0000
0000
0000
1000
0000
0000
,
0001
0000
0000
1000
0000
0000
0010
0000
,
0100
0000
0000
0100
0000
0200
0000
0000
,
0000
0000
0000
0300
0000
0020
0000
0000
,
0000
0000
0000
0030
0000
1000
0000
0000
,
0000
0001
0000
0000
0000
0010
0000
0100
,
0000
0010
0000
0000
0000
0001
0000
0000
,
0000
0100
0000
0000
0000
0010
0000
1000
,
0000
0010
0000
0000
0000
1000
0000
0000
,
0000
0001
0000
0000
0000
1000
0000
0001
,
0000
1000
0000
0000
0000
0200
0000
0000
,
0000
0320
0000
0000
0000
0032
0000
0000
,
0000
2003
0000
0000
0000
3010
0000
0000
,
0000
1000
0000
0001
0000
1000
0000
0000
,
0000
0100
0000
0000
0000
0010
0000
0000
,
0000
0001
0000
0000
0000
0001
0000
0010
,
0000
0001
0000
0100
0000
0001
0000
0000
,
0000
1000
0000
0000
0000
0010
0000
1000
,
0000
0001
0000
0000
0000
1000
0000
0000
,
0001
0000
0000
1000
0000
0000
0001
0000
,
0000
1000
0000
0000
0001
0000
0000
2002
,
0000
0000
0000
0000
,
0000
0000
0000
0000
,
0000
0000
0000
3003
;

//---------------dance-single - ----------------
#NOTES:
     dance-single:
     :
     Beginner:
     2:
     0.122320,0.204189,0.058191,0.000000,0.000000,103.000000,96.000000,7.000000,0.000000,0.000000,0.000000,0.122320,0.204189,0.058191,0.000000,0.000000,103.000000,96.000000,7.000000,0.000000,0.000000,0.000000:
// measure 0
0000
0000
0000
0000
,  // measure 1
0000
0000
0000
0000
,  // measure 2
0000
0000
0000
0000
,  // measure 3
0000
0000
0000
0000
,  // measure 4
0000
0000
0000
0000
,  // measure 5
0000
0000
0000
0000
,  // measure 6
0000
0000
0000
0000
,  // measure 7
0000
0000
0000
0000
,  // measure 8
0000
0000
0000
0000
,  // measure 9
0000
0000
0000
0000
,  // measure 10
0000
0000
0000
0000
,  // measure 11
1000
0000
0010
0000
,  // measure 12
0000
0000
0010
0000
,  // measure 13
0100
0000
0010
0000
,  // measure 14
0000
0000
0001
0000
,  // measure 15
1000
0000
1000
0000
,  // measure 16
0000
0000
0100
0000
,  // measure 17
0010
0000
0001
0000
,  // measure 18
0100
0000
1000
0000
,  // measure 19
0010
0000
1000
0000
,  // measure 20
0000
0000
1000
0000
,  // measure 21
0001
0000
0100
0000
,  // measure 22
0000
0000
0010
0000
,  // measure 23
1000
0000
0100
0000
,  // measure 24
0000
0000
0100
0000
,  // measure 25
0010
0000
0100
0000
,  // measure 26
1000
0000
0001
0000
,  // measure 27
0110
0000
0000
0000
,  // measure 28
0000
0000
0000
0000
,  // measure 29
0000
1001
0000
0000
,  // measure 30
0000
0000
0000
0000
,  // measure 31
0010
0000
0000
0000
,  // measure 32
0010
0000
0000
0000
,  // measure 33
0010
0000
0000
0000
,  // measure 34
0010
0000
0000
0000
,  // measure 35
0100
0000
0000
0000
,  // measure 36
0100
0000
0000
0000
,  // measure 37
0100
0000
0100
0000
,  // measure 38
0100
0000
0000
0000
,  // measure 39
0001
0000
0000
0000
,  // measure 40
0001
0000
0000
0000
,  // measure 41
0001
0000
0000
0000
,  // measure 42
0001
0000
0000
0000
,  // measure 43
1000
0000
0000
0000
,  // measure 44
1000
0000
0000
0000
,  // measure 45
1000
0000
1000
0000
,  // measure 46
1000
0000
0000
0000
,  // measure 47
1001
0000
0000
0000
,  // measure 48
0000
0110
0000
0000
,  // measure 49
0000
0000
0000
0000
0000
1001
0000
0000
,  // measure 50
0000
0000
0000
0000
,  // measure 51
0110
0000
0000
0000
0000
1000
0000
0000
,  // measure 52
0000
0000
0000
0000
0000
0001
0000
0000
,  // measure 53
0000
0000
0000
0000
0000
1000
0000
0000
,  // measure 54
0000
0000
0000
0000
0000
0010
0000
0000
,  // measure 55
0000
0010
0000
0000
0000
0100
0000
0000
,  // measure 56
0000
0000
0000
0000
0000
0001
0000
0000
,  // measure 57
0000
0001
0000
0000
0000
1000
0000
0000
,  // measure 58
0000
0000
0000
0000
0000
1000
0000
0000
,  // measure 59
0000
1000
0000
0000
0000
0010
0000
0000
,  // measure 60
0000
0000
0000
0000
0000
0010
0000
0000
,  // measure 61
0000
0010
0000
0000
0000
0100
0000
0000
,  // measure 62
0000
0000
0000
0000
0000
0010
0000
0000
,  // measure 63
0000
0000
0000
0000
0000
1000
0000
0000
,  // measure 64
0000
0100
0000
0000
0000
0010
0000
0000
,  // measure 65
0000
0001
0000
0000
0000
1000
0000
0000
,  // measure 66
0000
0001
0000
0000
0000
0000
0000
0000
,  // measure 67
0000
0001
0000
0000
0000
1000
0000
0000
,  // measure 68
0000
0100
0000
0000
0000
0000
0000
0000
,  // measure 69
0000
0010
0000
0000
0000
0001
0000
0000
,  // measure 70
0000
0100
0000
0000
0000
0000
0000
0000
,  // measure 71
0000
0100
0000
0000
0000
1000
0000
0000
,  // measure 72
0000
0010
0000
0000
0000
0001
0000
0000
,  // measure 73
0000
0100
0000
0000
0000
0001
0000
0000
,  // measure 74
0000
1000
0000
0000
0000
0000
0000
0000
,  // measure 75
0000
1000
0000
0000
0000
0010
0000
0000
,  // measure 76
0000
1000
0000
0000
0000
0000
0000
0000
,  // measure 77
0000
0100
0000
0000
0000
0100
0000
0000
,  // measure 78
0000
0010
0000
0000
0000
0000
0000
0000
,  // measure 79
0000
0001
0000
0000
0000
1000
0000
0000
,  // measure 80
0000
0000
0000
0001
0000
0000
0000
0000
,  // measure 81
0000
1000
0000
0000
0000
0000
0000
1001
;
