#VERSION:0.83;
#TITLE:Give It Up;
#SUBTITLE:;
#ARTIST:CAPTAIN JACK;
#TITLETRANSLIT:;
#SUBTITLETRANSLIT:;
#ARTISTTRANSLIT:;
#GENRE:;
#ORIGIN:;
#CREDIT:;
#BANNER:Give It Up.png;
#BACKGROUND:Give It Up-bg.png;
#PREVIEWVID:;
#JACKET:Give It Up-jacket.png;
#CDIMAGE:;
#DISCIMAGE:;
#LYRICSPATH:;
#CDTITLE:cdtitle.png;
#MUSIC:Give It Up.ogg;
#OFFSET:1.800446;
#SAMPLESTART:49.198154;
#SAMPLELENGTH:12.000000;
#SELECTABLE:YES;
#BPMS:0.000=127.000;
#STOPS:;
#DELAYS:;
#WARPS:;
#TIMESIGNATURES:0.000=4=4;
#TICKCOUNTS:0.000=4;
#COMBOS:0.000=1;
#SPEEDS:0.000=1.000=0.000=0;
#SCROLLS:0.000=1.000;
#FAKES:;
#LABELS:0.000=Song Start;
#BGCHANGES:2.375=give it up.avi=1.000=0=0=0=StretchNoLoop====,
99999=-nosongbg-=1.000=0=0=0 // don't automatically add -songbackground-
;
#KEYSOUNDS:;
#ATTACKS:
;

//---------------dance-single - ----------------
#NOTEDATA:;
#CHARTNAME:;
#STEPSTYPE:dance-single;
#DESCRIPTION:;
#CHARTSTYLE:;
#DIFFICULTY:Hard;
#METER:7;
#RADARVALUES:0.477984,0.466153,0.066475,0.066475,0.171726,302.000000,296.000000,6.000000,6.000000,0.000000,0.000000,0.000000,0.000000,0.000000,0.477984,0.466153,0.066475,0.066475,0.171726,302.000000,296.000000,6.000000,6.000000,0.000000,0.000000,0.000000,0.000000,0.000000;
#CREDIT:;
#NOTES:
// measure 0
0000
0000
0000
0000
,  // measure 1
0000
0000
0000
0000
,  // measure 2
0000
0000
0000
0000
,  // measure 3
1000
0001
0000
1000
0001
0000
1000
0001
0000
1000
0001
0000
1000
0000
0001
0000
,  // measure 4
1000
0000
1001
0000
1000
0100
0001
0100
,  // measure 5
1000
0000
0001
0100
1000
0000
1000
0100
,  // measure 6
0000
0001
0100
1000
0100
0001
0100
0000
,  // measure 7
0010
0100
0000
0010
0100
0000
0010
0100
0000
0010
0100
0000
0010
0000
0100
0000
,  // measure 8
0010
0000
0110
0000
0100
0001
1000
0100
,  // measure 9
0010
0000
0100
1000
0001
0000
0001
1000
,  // measure 10
0000
0100
1000
0001
0100
0010
0100
0000
,  // measure 11
0000
0000
0001
0100
0000
0001
0100
0000
0001
0000
0100
0000
0002
0000
0000
0000
,  // measure 12
1000
0000
0103
0000
0010
0001
0100
0001
,  // measure 13
0000
0000
1000
0100
0000
1000
0100
0000
1000
0000
0100
0000
1000
0000
0000
0000
,  // measure 14
0010
0001
0100
0000
0010
1000
0100
0000
,  // measure 15
0000
0000
0010
1000
0000
0010
1000
0000
0001
0000
0100
0000
0001
0000
0000
0000
,  // measure 16
0001
0100
0001
0000
0001
0100
0001
0000
,  // measure 17
0000
0000
0010
0001
0000
0010
0001
0000
1000
0000
0100
0000
1000
0000
0000
0000
,  // measure 18
1000
0100
1000
0000
0001
0100
0001
0000
,  // measure 19
0010
1000
0100
1000
0010
1000
0100
1000
,  // measure 20
0001
0010
0001
0200
0002
0000
0303
0000
,  // measure 21
0001
0100
1000
0100
0001
0100
0001
0100
,  // measure 22
1000
0000
0100
0000
1000
0000
0100
0000
0001
0000
0000
0001
0000
0000
0001
0000
,  // measure 23
0010
0001
0100
0001
0010
0001
0100
0001
,  // measure 24
1000
0010
1000
0100
1000
0010
1000
0100
,  // measure 25
1000
0000
0000
1000
0000
0000
1000
0000
0001
0000
0000
0001
0000
0000
0001
0000
,  // measure 26
2002
0000
0000
3003
,  // measure 27
1000
0100
0000
1000
0100
0000
1000
0100
0000
1000
0100
0000
1000
0000
0100
0000
,  // measure 28
1000
0000
1100
0000
1000
0100
0001
0100
,  // measure 29
1000
0000
0001
0100
1000
0000
1000
0100
,  // measure 30
0000
0001
0100
1000
0100
0001
0100
0000
,  // measure 31
0001
0100
0000
0001
0100
0000
0001
0100
0000
0001
0100
0000
0001
0000
0100
0000
,  // measure 32
0001
0000
0101
0000
0001
0100
1000
0100
,  // measure 33
0001
0000
1000
0100
0001
0000
0001
0100
,  // measure 34
0000
1000
0100
0001
0100
1000
0100
0000
,  // measure 35
1000
0100
0010
0100
0001
0100
0010
0100
,  // measure 36
2000
0000
3000
0100
1000
0100
0001
0100
,  // measure 37
1000
0100
1000
0000
0001
0100
0001
0000
,  // measure 38
1000
0100
1000
0000
0001
0100
0001
0000
,  // measure 39
0001
0100
0010
0100
1000
0100
0010
0100
,  // measure 40
0001
0100
0010
0100
1000
0100
0010
0000
,  // measure 41
0001
0100
0001
0000
1000
0100
1000
0000
,  // measure 42
0001
0100
0001
0000
1000
0100
1000
0000
,  // measure 43
1000
0001
0000
1000
0001
0000
1000
0001
0000
1000
0001
0000
1000
0000
0001
0000
,  // measure 44
1000
0000
1001
0000
0010
1000
0001
0010
,  // measure 45
0100
0000
0010
0001
1000
0000
0010
0100
,  // measure 46
0000
0010
1000
0001
0010
0001
1000
0000
;

//---------------dance-double - ----------------
#NOTEDATA:;
#CHARTNAME:;
#STEPSTYPE:dance-double;
#DESCRIPTION:;
#CHARTSTYLE:;
#DIFFICULTY:Hard;
#METER:7;
#RADARVALUES:0.413092,0.388461,0.232661,0.121870,0.000000,261.000000,240.000000,21.000000,11.000000,0.000000,0.000000,0.000000,0.000000,0.000000,0.413092,0.388461,0.232661,0.121870,0.000000,261.000000,240.000000,21.000000,11.000000,0.000000,0.000000,0.000000,0.000000,0.000000;
#CREDIT:;
#NOTES:
00000000
00000000
00000000
00000000
,
00000000
00000000
00000000
00000000
,
00000000
00000000
00000000
00000000
,
00100000
00001000
00010000
00000000
00100000
10000000
01000000
00000000
,
00100000
00010000
01000000
00000000
00001000
01000000
00010000
00000000
,
01001000
00000000
00011000
00000000
00010000
00002000
00000010
00000000
,
00013000
00000000
00000010
00001000
00010000
00001000
00000100
00000000
,
00000010
00010000
00001000
00000000
00000010
00000001
00000100
00000000
,
00000010
00001000
00000100
00000000
00010000
00000100
00001000
00000000
,
00010100
00000000
00011000
00000000
00001000
00020000
00100000
00000000
,
00031000
00000000
00100000
00010000
00001000
00010000
01000000
00000000
,
00100000
00010000
01000000
00000000
00100000
00010000
00001000
00000000
,
00002000
00000010
00010000
00003100
,
00000010
00001000
00000100
00000000
00000010
00001000
00010000
00000000
,
00001000
00001000
01000000
01000000
,
00100000
00010000
01000000
00000000
00100000
00010000
00001000
00000000
,
00010010
00011000
00010010
00001010
,
00000010
00001000
00000100
00000000
00000010
00001000
00010000
00000000
,
00020000
00100000
00001000
01030000
,
00010000
01000000
00010000
00000000
00001000
00000100
00002000
00000000
,
00010000
00000100
00010000
00013000
,
00010000
01000000
00010000
00000000
00001000
00000100
00001000
00000000
,
00010000
01000000
10000000
00000000
10000000
01000000
00010000
00000000
,
00001000
00000100
00001000
00000000
00010000
01000000
00020000
00000000
,
00001000
01000000
00001000
00031000
,
00010000
01100000
01100000
10000000
,
20020000
00000000
00000000
30030000
,
10000000
00100000
00010000
00000000
00100000
00010000
00001000
00000000
,
00001000
00010000
01000000
00000000
00010000
01000000
10000000
00000000
,
11000000
00000000
00110000
00000000
01000000
00020000
00001000
00000000
,
01030000
00000000
00001000
00000100
00000001
00000010
00001000
00000000
,
00000001
00000010
00001000
00000000
00000010
00001000
00010000
00000000
,
00010000
00001000
00000100
00000000
00001000
00000100
00000001
00000000
,
00000101
00000000
00001010
00000000
00000100
00002000
00010000
00000000
,
00003100
00000000
00010000
01000000
10000000
00100000
00010000
00000000
,
00100000
10000000
00100000
00000000
01000000
00010000
01000000
00000000
,
00100000
00010000
00100000
00010000
00001000
00000100
00000010
00000000
,
00000100
00000001
00000100
00000000
00000010
00001000
00000010
00000000
,
00000100
00000001
00000100
00000000
00001001
00000000
00001100
00000000
,
00000010
00000001
00000010
00000000
00000100
00001000
00000100
00000000
,
00000010
00001000
00010000
01000000
00010000
01000000
10000000
00000000
,
00100000
00010000
00100000
00000000
01000000
10000000
01000000
00000000
,
00100000
00010000
00100000
00000000
00101000
00000000
00011000
00000000
,
00100000
00010000
00001000
00000000
00001000
00000100
00001000
00000000
,
00010000
01000000
00010000
00000000
00001000
00010000
00000010
00000000
,
00010010
00000000
00001010
00000000
00000100
00002000
00010000
00000000
,
00003100
00000000
00010000
01000000
10000000
00100000
00010000
00000000
;
